osu file format v9

[General]
AudioFilename: Dave Wise - Bayou Boogie.mp3
AudioLeadIn: 2000
PreviewTime: 25785
Countdown: 0
SampleSet: Soft
StackLeniency: 0.7
Mode: 0
LetterboxInBreaks: 1

[Editor]
Bookmarks: 46247,82055
DistanceSpacing: 0.8
BeatDivisor: 4
GridSize: 8

[Metadata]
Title:Bayou Boogie
Artist:Dave Wise
Creator:Odaril
Version:Krockhead Klamber
Source:Donkey Kong Country 2: Diddy's Kong Quest
Tags:dixie nintendo snes rareware platform ost dkc2 swamp

[Difficulty]
HPDrainRate:3
CircleSize:4
OverallDifficulty:3
ApproachRate:4
SliderMultiplier:1.24
SliderTickRate:1

[Events]
//Background and Video events
0,0,"Krockhead_Klamber.png"
//Break Periods
//Storyboard Layer 0 (Background)
//Storyboard Layer 1 (Fail)
//Storyboard Layer 2 (Pass)
//Storyboard Layer 3 (Foreground)
//Storyboard Sound Samples
//Background Colour Transformations
3,100,163,162,255

[TimingPoints]
202,639.467962655071,4,2,1,20,1,0
20669,-100,4,2,1,0,0,0
22582,-100,4,2,1,20,0,0
23227,-100,4,2,1,0,0,0
25145,-100,4,2,1,30,0,0
46806,-100,4,1,1,25,0,0
46966,-100,4,2,1,30,0,0
48085,-100,4,1,1,25,0,0
48245,-100,4,2,1,30,0,0
49364,-100,4,1,1,25,0,0
49524,-100,4,2,1,30,0,0
50643,-100,4,1,1,25,0,0
50803,-100,4,2,1,30,0,0
51922,-100,4,1,1,25,0,0
52082,-100,4,2,1,30,0,0
53201,-100,4,1,1,25,0,0
53360,-100,4,2,1,30,0,0
54479,-100,4,1,1,25,0,0
54639,-100,4,2,1,30,0,0
55758,-100,4,1,1,25,0,0
55918,-100,4,2,1,30,0,0
57037,-100,4,1,1,25,0,0
57197,-100,4,2,1,30,0,0
58316,-100,4,1,1,25,0,0
58476,-100,4,2,1,30,0,0
59595,-100,4,1,1,25,0,0
59755,-100,4,2,1,30,0,0
60874,-100,4,1,1,25,0,0
61034,-100,4,2,1,30,0,0
62153,-100,4,1,1,25,0,0
62313,-100,4,2,1,30,0,0
63432,-100,4,1,1,25,0,0
63591,-100,4,2,1,30,0,0
64710,-100,4,1,1,25,0,0
64870,-100,4,2,1,30,0,0
65989,-100,4,1,1,25,0,0
66149,-100,4,2,1,30,0,0
67268,-100,4,1,1,25,0,0
67428,-100,4,2,1,30,0,0
68547,-100,4,1,1,25,0,0
68707,-100,4,2,1,30,0,0
69826,-100,4,1,1,25,0,0
69986,-100,4,2,1,30,0,0
71105,-100,4,1,1,25,0,0
71265,-100,4,2,1,30,0,0
72384,-100,4,1,1,25,0,0
72543,-100,4,1,1,30,0,0
73662,-100,4,1,1,25,0,0
73822,-100,4,1,1,30,0,0
74941,-100,4,1,1,25,0,0
75101,-100,4,2,1,30,0,0
76220,-100,4,1,1,25,0,0
76380,-100,4,2,1,30,0,0
76934,-100,4,2,1,0,0,0

[Colours]
Combo1 : 0,190,0
Combo2 : 124,73,12
Combo3 : 60,119,13

[HitObjects]
120,184,202,2,0,B|120:144|160:112,1,62,0|0
189,110,841,1,8
236,94,1161,1,0
376,141,2120,1,8
421,228,2759,6,2,B|440:264|416:296,1,62,2|2
380,315,3399,1,8
332,329,3719,1,0
282,329,4038,1,2
192,285,4678,1,0
163,189,5317,6,2,B|144:152|144:120,1,62
194,130,5957,2,2,B|192:96|224:72,1,62,10|2
359,124,7236,1,8
429,194,7875,5,2
407,290,8515,1,8
314,326,9154,1,2
214,326,9794,1,8
115,326,10433,6,2,B|80:288|72:248,1,62
54,232,11072,2,2,B|27:189|59:151,1,62,10|2
134,127,12032,1,0
134,127,12351,1,8
228,98,12991,6,0,B|263:105|296:120,1,62,2|2
333,134,13630,2,0,B|368:147|392:168,1,62,8|0
414,205,14270,1,2
314,205,14909,1,0
219,224,15549,6,2,B|258:241|256:288,1,62
219,224,16188,2,2,B|182:234|159:279,1,62,10|2
101,128,17467,1,8
195,158,18107,6,2,B|240:168|272:152,1,62,2|0
301,136,18746,1,0
397,111,19386,2,2,B|416:136|416:176,1,62,2|0
415,218,20025,1,8
256,192,20664,12,0,22583
256,192,23222,12,0,25141
128,256,25780,5,0
92,163,26420,1,2
127,127,26739,2,0,B|182:91|256:104,1,124,0|2
294,111,27699,1,0
335,138,28018,1,0
375,167,28338,1,0
463,213,28978,5,2
427,248,29297,2,0,B|396:300|321:299,1,124,0|2
271,299,30256,1,0
235,263,30576,1,0
200,228,30896,1,0
129,157,31535,5,2
178,157,31855,2,0,B|235:140|273:186|275:224,1,124,0|2
301,253,32814,1,0
344,229,33134,1,0
386,202,33454,1,0
417,108,34093,5,2
368,95,34413,2,0,B|309:70|240:88,1,124,0|2
198,99,35372,1,0
144,182,36012,6,0,B|88:152,2,62,2|0|2
168,225,36971,1,0
132,260,37291,2,0,B|152:296|208:320|240:312,1,124,0|0
286,303,38250,1,0
332,282,38570,5,2
366,247,38889,1,0
386,201,39209,1,0
386,151,39529,2,0,B|384:112|344:80|288:72,1,124,0|2
250,74,40488,1,0
158,112,41127,5,0
126,206,41767,1,2
172,189,42087,2,0,B|242:157|304:192,1,124,0|2
339,199,43046,1,0
364,241,43366,1,0
394,281,43685,5,0
446,197,44325,1,2
426,151,44645,2,0,B|400:96|328:72,1,124,0|2
283,73,45604,1,0
193,115,46243,5,8
158,149,46563,1,0
144,196,46883,2,0,B|128:224|128:264,1,62
134,279,47362,2,0,B|144:312|184:328,1,62
195,336,47842,2,0,B|229:357|269:349,1,62
303,350,48481,1,0
346,326,48801,5,8
381,290,49121,1,0
397,243,49441,2,0,B|408:200|392:168,1,62
389,158,49920,2,0,B|376:128|344:104,1,62
329,96,50400,2,0,B|304:80|264:80,1,62
220,80,51039,1,0
177,106,51359,6,0,B|144:80|104:80,2,62,8|0|0
177,155,52318,1,2
150,196,52638,1,0
122,291,53277,1,0
144,335,53597,1,0
191,350,53917,5,8
239,338,54237,1,0
282,314,54556,1,0
317,278,54876,2,0,B|345:222|432:216,1,124,2|0
468,217,55835,1,0
416,132,56475,5,8
367,121,56794,1,2
317,121,57114,2,0,B|264:120|240:136,1,62,0|2
234,140,57594,2,0,B|206:165|150:165|111:135|104:96,1,155
140,67,58713,1,0
184,44,59033,6,0,B|246:23|308:46,1,124,10|0
388,99,60311,1,0
430,188,60951,1,0
333,164,61590,5,8
285,149,61910,1,2
249,184,62230,1,0
200,172,62550,1,2
175,166,62709,2,0,B|144:160|104:176|96:208,1,93
75,248,63509,1,0
161,296,64148,5,8
205,317,64468,1,2
252,304,64788,2,0,B|288:296|320:272,1,62
326,262,65267,2,0,B|352:224|344:160,1,93,2|0
331,125,66067,1,0
236,95,66706,6,0,B|198:85|168:104,2,62,10|0|0
283,109,67665,1,0
330,124,67985,2,0,B|391:163|366:237,1,124
351,278,68944,1,0
316,312,69264,2,0,B|328:344|360:360,2,62,10|0|0
266,312,70223,2,0,B|196:306|192:224,1,124,0|2
192,178,71182,1,0
244,94,71822,5,8
339,119,72461,1,2
313,161,72781,2,0,B|272:184|190:178,1,124,0|2
144,182,73740,1,0
73,252,74380,5,8
164,289,75019,1,2
210,305,75339,2,0,B|272:320|336:288,1,124,0|2
365,255,76298,1,0
256,192,76938,12,0,82053
