osu file format v5

[General]
AudioFilename: Dave Simon - I Need Your Love.mp3
AudioLeadIn: 0
PreviewTime: -1
Countdown: 0
SampleSet: Normal
StackLeniency: 0.7
Mode: 0
LetterboxInBreaks: 1
EditorBookmarks: 15494,32209,44342,67417,92963,105039,117114,128246,153718,165793,202397,214473,237680,254001,278246

[Metadata]
Title:I Need Your Love
Artist:Dave Simon
Creator:CheZDa
Version:Hard
Source:Initial D Special Stage OST
Tags:

[Difficulty]
HPDrainRate:5
CircleSize:5
OverallDifficulty:7
SliderMultiplier:1.4
SliderTickRate:2

[Events]
//Background and Video events
//Break Periods
2,27957,31159
2,105019,116372
//Storyboard Layer 0 (Background)
//Storyboard Layer 1 (Failing)
//Storyboard Layer 2 (Passing)
//Storyboard Layer 3 (Foreground)
//Storyboard Sound Samples
//Background Colour Transformations
3,100,163,162,255

[TimingPoints]
15494,377.358490566038,4,1,0,100,1
32209,377.358490566038,4,1,0,100,1
38305,377.358490566038,4,1,0,100,1
44342,377.358490566038,4,2,0,100,1
50436,377.358490566038,4,2,0,100,1
56551,377.358490566038,4,2,0,100,1
68660,377.358490566038,4,2,0,100,1
80821,377.358490566038,4,1,0,100,1
92958,377.358490566038,4,1,0,100,1
99065,377.358490566038,4,1,0,100,1
117272,377.358490566038,4,2,0,100,1

[HitObjects]
80,192,15494,1,0
152,192,15683,1,0
256,192,15966,1,0
360,192,16248,1,0
256,192,16531,1,0
256,192,16626,1,0
256,264,16814,1,0
256,264,16909,1,4
360,264,17192,6,0,B|456:264,1,70,0|8
432,192,17569,2,0,B|432:96,1,70
360,120,17946,2,0,B|256:120,1,70,0|8
288,48,18324,2,0,B|192:48,1,70
216,120,18701,5,0
216,192,18890,1,8
272,152,19078,1,0
272,224,19267,1,0
216,264,19456,1,0
160,304,19644,1,8
104,264,19833,5,0
48,224,20022,1,0
48,152,20210,1,0
104,192,20399,1,8
104,120,20588,1,0
104,48,20777,6,0,B|216:136,1,140
216,32,21531,2,0,B|328:128,1,140
328,32,22286,2,0,B|440:128,1,140
464,328,23041,6,0,B|376:384|280:256|376:192,1,245
415,256,24550,6,0,B|501:201|405:73|317:129,1,245
360,192,26060,6,0,B|272:248|248:128,1,140,0|0
232,88,26626,1,0
88,88,27003,1,0
88,224,27380,2,2,B|264:224,1,140,2|0
40,88,32209,5,2
40,88,32397,1,2
40,88,32586,2,0,B|120:168,1,105,2|0
216,160,33152,1,0
176,216,33341,1,0
216,272,33529,1,0
256,216,33718,5,2
256,216,33907,1,2
256,216,34095,2,0,B|320:120,1,105,2|0
416,128,34661,1,0
456,184,34850,1,0
416,240,35039,1,0
376,184,35227,5,2
376,184,35416,1,2
376,184,35605,2,0,B|304:288,1,105,2|0
208,272,36171,1,0
152,312,36359,1,0
96,272,36548,1,0
256,192,36737,12,4,37869
472,344,38305,5,2
400,344,38493,1,2
472,344,38682,2,0,B|360:344,1,105,2|0
264,344,39248,1,0
264,272,39437,1,0
264,200,39625,1,0
336,200,39814,5,2
408,200,40002,1,2
336,200,40191,2,0,B|224:200,1,105,2|0
128,200,40757,1,0
128,128,40946,1,0
128,56,41135,1,0
200,56,41323,5,2
128,56,41512,1,2
200,56,41701,2,0,B|328:56,1,105,2|0
408,56,42267,1,0
408,128,42455,1,0
408,200,42644,1,0
256,192,42833,12,4,43965
176,336,44531,5,0
112,296,44720,1,0
72,232,44908,1,0
56,160,45097,1,0
56,56,45380,1,0
56,160,45663,1,0
336,336,46040,5,0
400,296,46229,1,0
440,232,46417,1,0
456,160,46606,1,0
456,56,46889,1,0
456,160,47172,2,0,B|440:280|376:304,2,140
256,40,48682,5,4
256,192,49059,5,4
256,352,49437,5,4
256,192,49625,12,0,50380
176,48,50624,5,0
112,88,50813,1,0
72,152,51002,1,0
56,224,51190,1,0
56,328,51473,1,0
56,224,51756,1,0
336,48,52134,5,0
400,88,52322,1,0
440,152,52511,1,0
456,224,52700,1,0
456,328,52983,1,0
456,224,53266,1,0
336,48,53643,2,0,B|432:96|440:160,2,140
80,192,54775,5,4
256,192,55152,5,4
432,192,55530,5,4
144,96,56473,6,0,B|360:96,2,210
352,304,57983,6,0,B|128:304,2,210
320,152,59492,5,0
256,122,59681,2,0,B|256:210,1,70,0|0
256,264,60058,5,0
321,220,60247,2,0,B|225:180,1,70,0|0
192,152,60624,5,0
194,225,60813,2,0,B|274:185,1,70
320,152,61190,2,4,B|408:152|408:296|312:280,1,210
160,80,62511,6,0,B|160:296,2,210
368,288,64021,6,0,B|368:64,2,210
464,192,65607,5,0
320,192,65984,1,0
248,192,66173,2,0,B|96:192,1,140
112,48,66928,2,0,B|256:48,1,140
252,118,67494,5,0
133,193,67871,1,0
253,264,68248,1,0
371,189,68660,2,0,B|396:170|401:208|361:248|361:248|304:202|336:167|356:194,1,175
424,256,69414,5,0
376,312,69603,1,0
240,344,69980,2,0,B|264:312|200:312|200:312|256:288|256:288|216:264|216:264|232:240|232:240|208:224|216:200,1,245
216,96,70924,5,0
312,192,71301,1,0
448,192,71678,2,0,B|473:173|478:211|438:251|438:251|381:205|413:170|433:197,1,175
312,56,72622,5,0
168,56,72999,2,0,B|88:56|88:160|176:160,1,175
224,200,73660,5,0
168,288,73943,1,0
304,288,74320,1,0
408,200,74697,2,0,B|433:181|438:219|398:259|398:259|341:213|373:178|393:205,1,175
408,336,75546,6,0,B|320:336,1,70
232,336,76018,2,0,B|232:192,1,140
152,264,76678,1,0
48,264,76961,2,0,B|48:112|48:112|40:96|40:96|64:80|64:80|40:72|40:72|64:56|64:56|40:40|40:40|64:32|64:32|64:24,1,280
144,40,77999,6,0,B|240:40,1,70
280,40,78376,1,0
360,104,78660,1,0
360,240,79037,6,0,B|360:328|208:328|216:208,1,210
216,168,79697,5,4
296,96,80075,5,4
296,232,80452,5,4
408,328,80821,5,0
408,256,81009,1,0
408,184,81198,2,0,B|408:264,1,70,8|0
336,256,81575,1,0
336,184,81764,1,0
336,112,81953,2,0,B|336:192,1,70,8|0
264,184,82330,6,0,B|176:184,1,70
232,128,82707,2,0,B|184:192,1,70,8|0
144,128,83085,2,0,B|192:184,1,70
120,184,83462,2,0,B|200:184,1,70,8|0
192,256,83839,5,0
240,304,84028,1,0
312,304,84217,1,8
360,256,84405,1,0
360,184,84594,5,0
312,136,84783,1,0
240,136,84971,1,8
192,184,85160,1,0
192,256,85349,6,0,B|248:312,1,70
312,304,85726,2,0,B|376:240,1,70,8|0
360,184,86104,2,0,B|304:128,1,70
240,136,86481,2,0,B|176:200,1,70,8|0
120,186,86858,5,4
184,56,87236,1,8
184,186,87613,1,0
120,56,87990,1,8
256,56,88368,1,0
120,120,88745,1,8
256,120,89122,1,0
256,256,89500,1,8
256,192,89877,12,0,92613
416,64,92958,5,2
416,96,93052,1,2
416,200,93335,1,4
312,200,93618,1,0
208,200,93901,1,0
136,200,94090,1,0
64,200,94278,1,0
64,272,94467,5,2
64,304,94561,1,2
168,304,94844,1,4
272,304,95127,1,0
376,304,95410,1,0
448,304,95599,1,0
448,232,95788,1,0
448,160,95976,5,2
408,160,96071,1,2
304,160,96354,1,4
304,56,96637,1,0
200,56,96920,1,0
200,128,97108,1,0
128,128,97297,1,0
256,192,97486,12,0,98807
120,32,99065,5,2
120,64,99159,1,2
216,16,99442,1,4
216,120,99725,1,0
304,64,100008,1,0
360,24,100197,1,0
360,96,100385,1,0
392,160,100574,5,2
392,192,100668,1,2
304,136,100951,1,4
304,240,101234,1,0
208,192,101517,1,0
144,152,101706,1,0
144,232,101895,1,0
112,288,102083,5,2
112,320,102177,1,2
208,272,102460,1,4
208,376,102743,1,0
296,320,103026,1,0
352,280,103215,1,0
352,352,103403,1,0
256,192,103593,12,0,104819
368,96,117272,6,0,B|152:96,2,210
160,304,118782,6,0,B|384:304,2,210
192,152,120291,5,0
256,122,120480,2,0,B|256:210,1,70,0|0
256,264,120857,5,0
191,220,121046,2,0,B|287:180,1,70,0|0
320,152,121423,5,0
318,225,121612,2,0,B|238:185,1,70
192,152,121989,2,4,B|104:152|104:296|200:280,1,210
352,80,123309,6,0,B|352:296,2,210
144,288,124819,6,0,B|144:64,2,210
48,192,126405,5,0
192,192,126782,1,0
264,192,126971,2,0,B|416:192,1,140
400,48,127726,2,0,B|256:48,1,140
260,118,128309,5,0
379,193,128686,1,0
259,264,129063,1,0
135,192,129441,2,0,B|124:173|92:208|149:254|149:254|189:214|184:176|159:195,1,175
88,256,130196,5,0
136,312,130384,1,0
272,344,130762,2,0,B|248:312|312:312|312:312|256:288|256:288|296:264|296:264|280:240|280:240|304:224|296:200,1,245
296,96,131705,5,0
200,192,132082,1,0
96,191,132366,2,0,B|85:172|53:207|110:253|110:253|150:213|145:175|120:194,1,175
200,56,133403,5,0
336,56,133781,2,0,B|400:56|400:136|336:144,1,140
272,144,134347,1,0
320,232,134724,1,0
208,288,135101,1,0
111,199,135385,2,0,B|100:180|68:215|125:261|125:261|165:221|160:183|135:202,1,175
104,336,136234,6,0,B|192:336,1,70
280,336,136799,2,0,B|280:192,1,140
360,264,137366,1,0
464,264,137743,2,0,B|464:112|464:112|472:96|472:96|448:80|448:80|472:72|472:72|448:56|448:56|472:40|472:40|448:32|448:32|448:24,1,280
368,40,138687,6,0,B|272:40,1,70
232,40,139064,1,0
88,40,139441,1,0
160,160,139818,6,0,B|160:248|288:240|272:152,1,175
248,128,140435,6,6,B|176:48|80:80|96:192|144:240|256:336|256:336|376:240|440:168|416:48|288:40|232:200,1,875
