osu file format v9

[General]
AudioFilename: 07.mp3
AudioLeadIn: 1996
PreviewTime: 71250
Countdown: 1
SampleSet: Soft
StackLeniency: 0.7
Mode: 0
LetterboxInBreaks: 1

[Editor]
DistanceSpacing: 0.8
BeatDivisor: 4
GridSize: 8

[Metadata]
Title:Statice
Artist:DauGe
Creator:wmfchris
Version:Collab
Source:ZUN
Tags:mima reincarnation lucifer louis cyphre Saturio KanaRin aesopl19193

[Difficulty]
HPDrainRate:6
CircleSize:5
OverallDifficulty:7
ApproachRate:7
SliderMultiplier:1.4
SliderTickRate:1

[Events]
//Background and Video events
0,0,"moe 74184 crost mima touhou.png"
//Break Periods
2,140009,153724
//Storyboard Layer 0 (Background)
//Storyboard Layer 1 (Fail)
//Storyboard Layer 2 (Pass)
//Storyboard Layer 3 (Foreground)
//Storyboard Sound Samples
//Background Colour Transformations
3,100,163,162,255

[TimingPoints]
550,370.37037037037,4,2,0,51,1,0
47031,-100,4,1,0,27,0,0
48050,-100,4,2,0,50,0,0
70549,-100,4,1,0,25,0,0
71661,-100,4,2,0,50,0,0
82772,-100,4,1,0,25,0,0
83512,-100,4,2,0,50,0,0
105735,-100,4,1,0,50,0,0
106475,-100,4,2,0,50,0,0
122031,-100,4,2,0,51,0,1
130920,-100,4,2,0,51,0,0
154624,-100,4,2,0,51,0,1
165735,-100,4,2,0,51,0,0
166475,-100,4,2,0,51,0,1
178142,-100,4,2,0,51,0,0
178327,-100,4,2,0,51,0,1
189438,-100,4,1,0,31,0,0
190179,-100,4,1,0,31,0,1
190364,-100,4,1,0,31,0,0

[Colours]
Combo1 : 0,198,99
Combo2 : 67,188,254
Combo3 : 5,5,240
Combo4 : 32,253,187

[HitObjects]
48,56,550,1,4
96,88,735,1,2
144,120,920,1,2
256,120,1290,2,0,B|352:120,1,70,2|0
328,64,1661,2,0,B|424:64,1,70,2|0
456,64,2031,5,0
496,104,2216,1,2
456,144,2401,1,2
488,248,2772,2,0,B|424:328,1,70,2|0
400,264,3142,2,0,B|320:200,1,70,2|0
280,208,3512,5,4
280,264,3698,1,2
280,320,3883,1,2
168,320,4253,2,0,B|72:320,1,70,2|0
72,272,4624,2,0,B|168:272,1,70,2|0
168,224,4994,5,0
112,224,5179,1,2
144,176,5364,1,2
256,176,5735,2,0,B|352:176,1,70,2|0
328,232,6105,2,0,B|424:232,1,70,2|0
456,232,6475,5,4
456,120,6846,1,2
344,120,7216,1,0
304,160,7401,1,0
264,120,7587,1,2
224,80,7772,1,0
184,120,7957,6,0,B|16:120,1,140,0|2
40,232,8698,1,0
72,280,8883,1,0
128,280,9068,1,2
160,232,9253,1,0
104,232,9438,5,4
216,232,9809,1,2
328,232,10179,1,0
288,272,10364,1,0
328,312,10549,1,2
368,272,10735,1,0
424,272,10920,6,0,B|464:200|416:128,1,140,0|2
352,56,11661,1,0
296,56,11846,2,0,B|296:120,2,35,2|2|2
240,56,12216,1,2
184,56,12401,5,4
152,104,12587,1,0
120,56,12772,1,2
64,152,13142,1,2
32,200,13327,2,2,B|32:264,2,35
88,200,13698,2,0,B|184:200,1,70,2|0
216,200,14068,5,0
184,248,14253,1,2
296,248,14624,1,2
296,304,14809,2,2,B|232:304,2,35
352,304,15179,2,0,B|448:304,1,70,2|4
480,304,15550,5,0
480,248,15735,1,2
480,136,16105,1,2
424,120,16290,2,2,B|424:56,2,35
368,104,16661,2,0,B|272:104,1,70,2|0
240,96,17031,5,0
184,80,17216,1,2
72,80,17587,1,2
56,136,17772,2,0,B|112:136,2,35,2|0|2
40,192,18142,1,2
24,248,18327,5,4
64,288,18512,1,2
104,248,18698,1,2
144,288,18883,1,2
184,248,19068,1,2
224,288,19253,1,2
252,288,19346,1,0
280,288,19438,1,2
336,288,19624,1,2
448,96,19809,5,0
408,56,19994,1,2
368,96,20179,1,2
328,56,20364,1,0
288,96,20549,1,2
248,56,20735,1,2
220,56,20827,1,0
192,56,20920,1,2
152,96,21105,1,2
88,192,21290,5,4
128,232,21475,2,0,B|200:304,1,70,0|2
128,152,21846,2,0,B|200:80,1,70,0|2
224,192,22216,1,2
224,192,22309,1,0
224,192,22401,1,2
224,192,22587,1,0
424,192,22772,5,0
384,232,22957,2,0,B|312:304,1,70,0|2
384,152,23327,2,0,B|312:80,1,70,0|2
288,192,23698,1,2
288,192,23790,1,0
288,192,23883,1,2
288,192,24068,1,0
232,192,24253,5,4
120,192,24624,1,2
24,128,24994,2,0,B|-8:192|32:288,1,140,0|2
136,264,25735,2,0,B|208:320|288:248,1,140,2|2
264,208,26290,1,0
264,152,26475,2,0,B|336:96|416:168,1,140,2|2
392,208,27031,1,0
392,264,27216,5,4
296,320,27587,1,2
200,264,27957,1,0
160,304,28142,1,0
160,304,28235,1,0
160,304,28327,1,2
104,304,28512,1,0
48,304,28698,5,0
48,248,28883,1,0
48,192,29068,1,2
48,80,29438,2,0,B|136:32,1,70
152,80,29809,2,0,B|152:144,3,35,2|0|2|0
152,144,30179,6,0,B|224:184|312:136,1,140,4|2
392,192,30920,1,2
288,232,31290,2,0,B|216:192|128:240,1,140,2|2
72,304,32031,2,0,B|-24:304,2,70,0|0|2
184,304,32772,2,0,B|264:336|344:296|352:296,1,140,0|4
320,248,33327,1,0
304,192,33512,1,2
336,144,33698,1,0
320,88,33883,2,0,B|256:48|168:96,1,140,0|2
88,144,34624,5,0
88,256,34994,2,0,B|144:216|184:296|248:248,3,140,2|0|2|4
224,152,36475,1,2
264,112,36661,1,0
304,72,36846,1,0
344,112,37031,1,0
344,112,37124,1,0
344,112,37216,1,2
384,152,37401,1,0
440,152,37587,6,0,B|440:248,1,70
440,280,37957,2,0,B|376:320|280:272,1,140,2|0
304,224,38512,1,0
304,168,38698,2,0,B|240:128|144:176,1,140,2|4
168,56,39438,5,2
168,56,39624,1,0
56,56,39994,2,0,B|56:152,3,70,0|2|0|2
56,184,40735,1,0
56,212,40827,1,0
56,240,40920,2,0,B|184:344,1,140,2|2
200,288,41475,1,0
240,248,41661,1,0
280,288,41846,1,0
320,328,42031,2,0,B|440:216,1,140,4|2
456,128,42772,1,0
416,88,42957,2,0,B|320:88,1,70,0|2
304,128,43327,2,0,B|208:128,1,70
136,72,43883,6,0,B|72:144|160:216,3,140,2|0|2|4
136,256,45179,2,0,B|72:256,2,35
176,296,45549,1,0
216,256,45735,1,2
256,296,45920,1,0
272,320,46012,1,2
296,336,46105,1,0
320,344,46198,1,0
344,336,46290,1,0
368,320,46383,1,2
384,296,46475,1,0
424,256,46661,5,2
464,216,46846,2,0,B|464:120,1,70
464,120,47124,1,0
464,96,47216,1,0
416,64,47401,1,0
360,64,47587,2,0,B|360:128,3,35
360,128,47957,6,0,B|280:80|208:144,1,140,4|2
120,128,48698,2,0,B|64:200|136:280,2,140,0|2|0
184,216,49809,1,2
296,216,50179,2,0,B|184:336,1,140,2|0
256,320,50735,1,0
312,320,50920,1,4
408,264,51290,5,2
464,168,51661,1,0
456,112,51846,1,0
456,112,51938,1,0
432,104,52031,1,2
416,72,52216,1,0
360,72,52401,2,0,B|360:168,1,70
360,72,52772,2,0,B|272:72,1,70,2|0
232,72,53142,1,0
192,112,53327,2,0,B|144:72,2,35,2|0|2
176,168,53698,1,0
120,168,53883,6,0,B|64:248|144:320,1,140,4|2
176,296,54438,1,0
232,296,54624,1,0
288,296,54809,1,0
344,296,54994,2,0,B|400:216|320:144,1,140,2|0
400,72,55735,2,0,B|304:72,1,70
272,72,56105,2,0,B|72:64|40:208,1,280,2|4
64,248,57031,6,0,B|64:344,2,70,0|2|0
176,248,57772,1,0
232,248,57957,1,2
336,280,58327,1,0
392,184,58698,6,0,B|440:120|368:32,1,140,2|0
336,120,59253,1,0
280,56,59438,2,0,B|232:120|304:208,1,140,2|4
176,184,60179,2,0,B|176:88,2,70,0|2|0
120,184,60735,2,0,B|56:184,2,35,2|0|2
120,240,61105,1,0
120,296,61290,2,0,B|208:296,1,70,0|2
248,296,61661,6,0,B|320:336|400:288,1,140,6|2
384,184,62401,2,0,B|312:144|232:192,1,140,2|4
136,184,63142,2,0,B|40:184,1,70,2|0
64,72,63698,1,0
120,72,63883,2,0,B|208:72,3,70,2|0|2|0
248,72,64624,5,2
360,104,64994,1,2
320,208,65364,1,2
216,176,65735,1,4
104,176,66105,2,0,B|16:224,1,70,2|0
88,240,66475,2,0,B|24:320,1,70
88,328,66846,2,0,B|48:376,4,35,2|0|2|0|2
144,312,67401,1,0
200,304,67587,6,0,B|264:344|360:296,1,140,6|0
424,248,68327,2,0,B|464:184|416:88,1,140,2|4
384,80,68883,2,0,B|416:32,2,35,2|0|2
336,56,69253,1,0
296,96,69438,1,2
256,56,69624,1,0
232,56,69716,1,2
208,64,69809,1,0
184,80,69901,1,0
168,104,69994,1,0
160,128,70087,1,2
160,152,70179,5,0
104,152,70364,2,0,B|104:96,2,35
64,192,70735,1,0
104,232,70920,1,0
160,232,71105,1,0
188,232,71198,1,0
216,232,71290,1,0
264,264,71475,1,0
312,56,71661,6,0,B|160:56,1,140,6|2
64,56,72216,2,0,B|64:104,2,35,2|0|2
168,176,72679,1,2
64,296,72957,1,2
168,296,73142,6,0,B|112:376,1,70,2|0
208,360,73512,2,0,B|256:288,1,70,2|0
328,312,73883,2,0,B|272:392,2,70,2|0|2
328,312,74438,1,0
328,312,74624,1,2
256,128,75179,5,0
256,128,75272,1,0
256,128,75364,2,0,B|256:-8,2,105,2|0|2
312,136,76105,2,0,B|296:184|224:184|200:136,1,140,2|2
200,136,76661,1,0
200,136,76846,1,2
16,320,77587,6,0,B|224:320,1,210,4|0
264,320,78235,1,0
296,320,78327,1,2
376,192,78605,5,2
320,104,78883,1,2
248,104,79068,2,0,B|40:104,1,210,2|2
40,104,79809,1,2
144,200,80179,2,0,B|-24:200,1,140,0|4
256,96,81105,6,0,B|256:48,2,35,2|0|2
304,192,81568,1,2
200,192,81846,1,2
64,192,82031,5,4
432,192,82309,1,2
256,56,82587,1,2
256,152,82772,5,0
256,168,82864,1,0
256,184,82957,1,0
256,200,83050,1,0
256,216,83142,1,0
256,232,83235,1,0
256,248,83327,1,0
128,192,83512,5,4
128,320,83698,1,2
128,320,83790,1,0
32,192,84068,5,2
32,192,84253,1,4
32,64,84438,1,2
32,64,84531,1,0
216,192,84809,5,2
216,192,84994,1,4
344,192,85179,1,2
344,192,85272,1,0
256,80,85550,6,0,B|256:32,4,35,2|0|2|0|2
256,80,86105,1,4
256,208,86290,5,2
256,208,86475,1,4
128,208,86661,1,2
128,208,86753,1,0
256,144,87031,5,2
256,144,87216,1,6
384,144,87401,1,2
384,144,87494,1,0
256,208,87772,5,2
256,336,87957,2,0,B|256:384,4,35,2|0|2|2|0
256,192,88420,12,6,89068
360,240,89253,5,0
360,192,89438,1,4
360,136,89624,2,0,B|360:72,1,35,2|0
256,136,89994,1,2
256,192,90179,1,4
256,248,90364,2,0,B|256:304,1,35,2|0
152,248,90735,1,2
152,192,90920,1,4
152,136,91105,2,0,B|152:72,1,35,2|0
464,56,92031,6,0,B|296:56,1,140,2|4
256,56,92587,2,0,B|200:56,1,35,2|0
112,56,92957,5,2
112,56,93142,1,4
112,128,93327,2,0,B|168:128,1,35,2|0
352,128,93698,5,2
352,128,93883,1,4
352,200,94068,2,0,B|296:200,1,35,2|0
224,320,94438,5,2
224,320,94624,2,0,B|224:256,4,35,0|0|2|0|4
80,256,95364,5,4
80,184,95550,2,0,B|80:128,1,35,2|0
176,256,95920,6,0,B|264:256,1,70,2|4
312,256,96290,2,0,B|312:216,1,35,2|0
440,104,96661,6,0,B|344:104,1,70,2|4
304,104,97031,2,0,B|304:160,1,35,2|0
384,152,97401,6,0,B|384:200,2,35,2|0|0
256,304,97772,1,0
256,304,97957,1,2
256,40,98327,5,4
256,112,98512,2,0,B|296:112,1,35,2|0
256,216,98883,5,2
256,216,99068,1,4
256,288,99253,2,0,B|208:288,1,35,2|0
112,288,99624,6,0,B|112:352,2,35,2|0|4
112,288,99994,1,2
112,288,100087,1,0
408,312,100550,5,0
408,312,100735,1,0
360,264,100920,1,2
360,264,101105,1,0
312,312,101290,5,4
240,312,101475,2,0,B|192:312,1,35,2|0
152,96,102031,5,4
224,96,102216,2,0,B|272:96,1,35,2|0
416,176,102772,5,4
344,176,102957,2,0,B|287:178,1,35,2|0
256,56,103512,6,0,B|256:208,1,140,4|2
168,288,104253,5,4
376,288,104994,1,4
264,112,105735,1,4
264,112,106475,2,0,B|264:48,2,35,0|0|2
96,176,107216,6,0,B|160:144|240:152,1,140,4|0
288,208,107772,1,0
288,208,107864,1,0
288,208,107957,2,0,B|344:200|400:160,2,105,2|2|2
232,160,108698,2,0,B|272:112|296:48,2,105,2|2|2
152,152,109438,2,0,B|112:176|80:192|48:248,1,140,2|0
48,240,109994,1,2
104,296,110179,6,0,B|168:336|256:344,1,140,4|2
272,272,110735,1,0
320,328,110920,2,0,B|352:304|392:288,1,70,2|0
432,232,111290,2,0,B|440:184|440:144,1,70,0|2
448,64,111661,5,0
64,64,112401,1,2
256,304,113142,1,4
384,272,113327,6,0,B|392:232|408:192,2,70,2|0|2
336,336,113883,1,2
256,304,114068,1,0
256,304,114161,1,0
256,304,114253,1,0
264,224,114438,1,0
336,200,114624,1,0
272,112,114809,6,0,B|256:64|256:32,2,70,0|2|0
328,168,115364,1,2
288,232,115550,1,2
288,232,115642,1,2
288,232,115735,1,0
208,224,115920,1,2
200,144,116105,1,4
80,128,116290,6,0,B|48:120|16:96,2,70,0|2|0
88,208,116846,1,2
168,216,117031,1,2
168,216,117124,1,2
168,216,117216,1,2
200,144,117401,1,2
152,88,117587,1,6
264,48,117772,5,0
336,64,117957,1,2
288,120,118142,2,0,B|288:160|296:200,1,70,0|6
360,232,118512,1,2
360,232,118605,1,2
360,232,118698,2,0,B|416:232|448:224,1,70,2|0
448,320,119068,5,4
376,336,119253,2,0,B|304:352|240:320,1,140,2|2
184,272,119809,2,0,B|144:264|104:264,1,70,2|0
88,232,120087,2,0,B|72:280,1,35,2|2
56,184,120364,1,2
32,96,120550,1,2
120,112,120735,1,0
256,112,120920,5,2
296,96,121012,1,0
344,96,121105,1,2
384,120,121198,1,0
408,160,121290,1,2
416,208,121383,1,0
408,256,121475,1,2
384,296,121568,1,0
344,312,121661,2,0,B|320:328|304:352,3,35,2|2|2|2
272,328,122031,5,4
184,344,122216,1,2
120,280,122401,1,2
80,264,122494,1,0
56,224,122587,1,2
64,176,122679,1,0
104,152,122772,1,2
152,144,122864,1,0
184,112,122957,1,2
208,72,123050,1,2
192,24,123142,2,0,B|176:0|160:0,3,35,0|2|0|2
120,8,123512,5,2
88,40,123605,1,0
72,80,123698,1,0
72,128,123790,1,2
88,168,123883,1,0
128,192,123975,1,0
176,200,124068,1,2
224,192,124161,1,0
264,176,124253,6,0,B|288:160|312:168,3,35,2|0|2|0
336,192,124624,1,0
368,216,124716,1,0
408,232,124809,1,0
440,208,124901,1,0
464,176,124994,1,4
464,176,125179,1,2
440,96,125364,5,0
384,32,125550,1,2
344,48,125642,1,0
320,88,125735,1,2
312,128,125827,1,0
280,168,125920,1,2
232,168,126012,1,0
192,144,126105,1,2
152,128,126198,1,0
112,136,126290,1,2
88,168,126383,1,0
80,208,126475,2,0,B|88:248|104:256,3,35,2|0|2|0
128,256,126846,5,2
168,256,126938,1,0
208,264,127031,1,2
240,288,127124,1,0
256,328,127216,1,2
288,360,127309,1,0
328,360,127401,1,2
368,336,127494,1,0
400,304,127587,2,0,B|424:272|424:256,4,35,0|2|0|2|4
472,176,128235,5,0
472,176,128327,2,0,B|432:184|392:200,1,70,4|2
320,216,128698,2,0,B|264:208|208:176,2,105,2|2|2
392,256,129438,1,2
320,360,129716,1,2
224,280,129994,1,0
160,224,130179,2,0,B|112:232|80:248,1,70
128,320,130550,5,2
208,328,130735,1,2
288,328,130920,2,0,B|368:304|424:272,1,140,4|2
464,208,131475,2,0,B|488:136|496:64,1,140,2|0
392,24,132031,5,2
416,104,132216,1,2
336,80,132401,2,0,B|280:104|256:128|232:192,1,140,2|2
238,174,132957,1,2
296,232,133142,2,0,B|288:272|256:320,1,70
200,344,133512,1,2
192,264,133698,1,2
64,304,133883,6,0,B|80:232|112:152,1,140,4|0
48,112,134438,2,0,B|104:176|192:168,1,140,2|0
248,136,134994,2,0,B|328:112|400:176,2,140,2|2|2
248,136,135920,1,2
208,208,136105,2,0,B|216:264|248:312,1,105,2|0
243,305,136475,1,2
328,328,136661,1,2
400,280,136846,6,0,B|416:200|456:136,1,140,6|2
448,149,137401,1,2
312,48,137772,1,2
312,48,137957,2,0,B|264:64|240:96,1,70,0|2
208,152,138327,6,0,B|224:232|224:320,1,140,4|2
223,290,138883,1,2
280,352,139068,1,0
360,320,139253,1,0
352,240,139438,1,2
272,216,139624,1,2
224,288,139809,1,4
456,112,154624,6,0,B|424:96|384:88,1,70,4|2
352,112,154901,2,0,B|344:168|312:224,1,105,0|2
240,176,155364,1,4
168,216,155550,1,2
168,216,155642,2,0,B|192:280|192:328,1,105,0|2
272,352,156105,1,4
320,288,156290,1,2
320,288,156383,2,0,B|312:224|296:160,1,105,0|2
336,112,156846,1,0
416,128,157031,1,0
432,208,157216,1,2
360,248,157401,1,0
296,192,157587,5,4
224,144,157772,1,2
224,144,157864,2,0,B|168:120|104:112,1,105,0|2
48,152,158327,1,4
88,224,158512,1,2
88,224,158605,2,0,B|152:240|216:272,1,105,0|2
272,336,159068,5,4
344,296,159253,1,2
344,296,159346,1,0
336,216,159531,1,0
336,216,159624,1,2
256,200,159809,1,2
216,272,159994,1,0
272,336,160179,1,4
336,56,160550,6,0,B|248:56,1,70,4|2
266,56,160827,1,0
216,120,161012,1,2
216,120,161105,2,0,B|224:168|224:216,1,70,0|4
152,240,161475,1,2
152,240,161568,2,0,B|208:192|288:224,1,140,0|2
283,222,162031,1,4
360,264,162216,1,2
360,264,162309,2,0,B|392:216|400:160,1,105
416,88,162772,1,0
384,64,162864,1,0
344,40,162957,1,2
312,64,163050,1,0
280,96,163142,1,2
56,112,163512,6,0,B|88:96|128:88,1,70,4|2
160,112,163790,2,0,B|168:168|200:224,1,105,0|2
272,176,164253,1,4
344,216,164438,1,2
344,216,164531,2,0,B|320:280|320:328,1,105,0|2
240,352,164994,1,4
192,288,165179,1,2
192,288,165272,2,0,B|200:224|216:160,1,105,0|2
176,112,165735,1,0
96,128,165920,1,0
80,208,166105,1,2
152,248,166290,1,0
216,192,166475,1,6
216,192,166661,1,2
280,136,166846,5,0
320,120,166938,1,0
360,112,167031,1,2
392,144,167124,1,0
408,184,167216,2,0,B|400:216|384:232,3,35,0|0|2|0
360,240,167587,2,0,B|368:280|384:288,3,35,0|0|2|0
408,296,167957,5,0
384,328,168050,1,0
352,360,168142,1,2
312,352,168235,1,0
280,328,168327,2,0,B|264:296|240:288,3,35,0|0|2|0
216,304,168698,2,0,B|176:320|160:304,3,35,0|0|2|0
144,288,169068,1,0
112,264,169161,1,0
80,240,169253,1,2
88,200,169346,1,0
104,160,169438,1,0
48,96,169624,5,2
80,64,169716,1,0
112,40,169809,1,0
152,56,169901,1,0
192,72,169994,1,2
208,152,170179,1,0
240,176,170272,1,0
280,192,170364,1,2
312,160,170457,1,0
336,128,170549,1,2
336,128,170735,1,0
376,56,170920,5,2
416,40,171012,1,0
456,56,171105,1,0
472,96,171198,1,2
456,136,171290,1,0
416,152,171383,1,0
376,168,171475,1,2
352,208,171568,1,0
376,240,171661,1,0
416,256,171753,1,2
456,272,171846,1,0
472,312,171938,1,0
456,352,172031,1,2
416,368,172124,1,2
376,352,172216,2,0,B|360:328|368:288,2,35,2|0|4
296,320,172587,5,2
296,320,172772,1,2
256,296,172864,1,0
216,304,172957,1,2
144,344,173142,1,2
112,312,173235,1,0
96,272,173327,1,2
120,240,173420,1,0
152,216,173512,1,2
184,184,173605,1,0
208,144,173698,1,2
176,112,173790,1,0
144,88,173883,6,0,B|128:72|96:64,3,35,6|0|0|2
72,80,174253,2,0,B|64:120|72:136,3,35,0|0|2|0
80,152,174624,2,0,B|96:168|128:176,3,35,0|2|2|2
144,152,174994,1,0
144,152,175179,1,2
216,104,175364,6,0,B|264:88|304:88,1,70,4|2
312,120,175642,1,0
264,192,175827,1,0
304,208,175920,2,0,B|352:208|400:192,1,70,2|0
448,240,176290,2,0,B|432:280,3,23.3333333333333,0|0|0|2
464,344,176661,1,2
384,312,176846,1,6
384,312,177124,2,0,B|328:296|264:296,1,105,2|0
200,328,177587,5,2
160,312,177679,1,0
128,288,177772,1,2
120,248,177864,1,0
128,208,177957,1,2
112,168,178049,2,0,B|128:144|160:128,1,35,2|0
128,104,178235,2,0,B|160:96|192:96,1,35,0|4
248,168,178512,5,2
248,168,178605,2,2,B|320:152|376:152,1,105
408,232,179068,1,4
344,304,179253,1,2
344,304,179346,2,0,B|288:320|224:320,1,105,0|2
160,264,179809,1,4
232,200,179994,1,2
232,200,180087,2,0,B|240:136|256:72,1,105,0|2
336,48,180549,1,0
408,112,180735,1,0
368,200,180920,1,2
280,192,181105,1,0
280,192,181290,5,4
216,264,181475,1,2
216,264,181568,2,0,B|160:288|96:296,1,105,0|2
40,232,182031,1,4
80,144,182216,1,2
80,144,182309,2,0,B|144:128|208:96,1,105,0|2
248,48,182772,5,4
344,72,182957,1,2
344,72,183049,1,0
352,168,183235,1,0
352,168,183327,1,2
264,208,183512,1,2
192,136,183698,1,0
248,48,183883,1,4
336,328,184253,6,0,B|248:328,1,70,4|2
266,328,184531,1,0
208,248,184716,1,2
208,248,184809,2,0,B|216:200|216:152,1,70,0|4
160,96,185179,1,2
160,96,185272,2,0,B|216:144|296:112,1,140,0|2
291,113,185735,1,4
384,144,185920,1,2
384,144,186012,2,0,B|416:192|424:248,1,105
336,288,186475,1,0
304,312,186568,1,0
264,336,186661,1,2
232,312,186753,1,0
200,280,186846,1,2
56,272,187216,6,0,B|88:288|128:296,1,70,4|2
160,272,187494,2,0,B|168:216|200:160,1,105,0|2
272,232,187957,1,4
352,176,188142,1,2
352,176,188235,2,0,B|328:112|328:64,1,105,0|2
232,24,188698,1,4
152,88,188883,1,2
152,88,188975,2,0,B|160:152|176:216,1,105,0|2
256,272,189438,5,0
152,192,189624,1,0
192,80,189809,1,0
312,80,189994,1,0
352,192,190179,1,4
