osu file format v9

[General]
AudioFilename: Da$ter .mp3
AudioLeadIn: 0
PreviewTime: 120388
Countdown: 0
SampleSet: Soft
StackLeniency: 0.7
Mode: 0
LetterboxInBreaks: 0
EpilepsyWarning: 1

[Editor]
Bookmarks: 24388,48388,96388,120388,132388,144388,166888,168388,180388
DistanceSpacing: 1
BeatDivisor: 4
GridSize: 4

[Metadata]
Title:Ya Prygayu Vniz
Artist:Daster
Creator:Katty Pie
Version:Hard
Source:
Tags:Russian Black_Cherry_Ita BCI

[Difficulty]
HPDrainRate:6
CircleSize:4
OverallDifficulty:6
ApproachRate:7
SliderMultiplier:1.6
SliderTickRate:1

[Events]
//Background and Video events
0,0,"vectorial_wallpapers-212__o6oi_ru_.jpg"
//Break Periods
2,48588,53488
2,120588,131488
//Storyboard Layer 0 (Background)
//Storyboard Layer 1 (Fail)
//Storyboard Layer 2 (Pass)
//Storyboard Layer 3 (Foreground)
//Storyboard Sound Samples
//Background Colour Transformations
3,100,163,162,255

[TimingPoints]
388,375,4,2,1,80,1,0
24388,-100,4,2,1,80,0,1
48388,-100,4,2,1,80,0,0
72388,-100,4,2,1,60,0,0
73888,-100,4,2,1,80,0,0
96013,-100,4,2,1,50,0,0
96388,-100,4,2,1,80,0,1
120388,-100,4,2,1,80,0,0
132388,-133.333333333333,4,2,1,50,0,0
144013,-200,4,2,1,50,0,0
144388,-100,4,2,1,80,0,1
144481,-100,4,2,1,80,0,0
180388,-100,4,2,1,50,0,0
190888,-100,4,2,1,5,0,0

[Colours]
Combo1 : 240,55,79
Combo2 : 241,239,158
Combo3 : 254,157,92
SliderBorder : 255,255,255

[HitObjects]
304,40,24388,1,4
376,72,24575,1,0
424,136,24763,1,2
424,216,24950,1,0
384,288,25138,2,0,B|360:336|320:320|320:320|280:336|256:288,1,160,8|2
192,144,25888,2,0,B|216:96|256:112|256:112|296:96|320:144,2,160,0|2|8
192,144,27013,1,2
72,257,27388,6,0,B|72:304|118:314,1,80,4|0
200,296,27763,2,0,B|200:249|153:239,2,80,2|0|8
256,192,28513,1,2
400,48,28888,2,0,B|432:96|416:120|432:144|400:200,1,160,0|2
336,248,29450,1,0
256,272,29638,1,8
176,248,29825,1,0
112,200,30013,2,0,B|80:144|96:120|80:96|112:48,1,160,2|4
196,184,30763,6,0,B|228:184|260:144|260:144|288:184|328:184,2,160,2|8|2
256,40,31888,1,0
96,44,32263,2,0,B|99:89|152:87,1,80,2|0
256,148,32638,1,8
359,87,32825,2,0,B|412:89|416:44,1,80,0|2
384,200,33388,6,0,B|392:288|320:340,1,160,4|2
128,200,34138,2,0,B|120:288|192:340,1,160,8|2
256,192,34888,1,0
256,352,35263,1,2
256,352,35450,1,0
200,292,35638,2,0,B|200:248|256:236|316:248|316:296,2,160,8|2|4
104,164,36763,5,2
116,84,36950,1,0
188,48,37138,1,8
256,192,37513,1,0
408,220,37888,1,2
396,300,38075,1,0
324,336,38263,1,0
164,332,38638,2,0,B|214:285|150:213|92:257,1,160,8|2
164,52,39388,6,0,B|214:98|150:170|92:126,2,160,4|2|8
244,44,40325,1,0
324,56,40513,2,0,B|273:102|337:174|395:130,2,160,2|0|2
248,196,41638,1,8
256,276,41825,1,0
304,340,42013,1,2
380,356,42200,2,0,B|460:356,1,80,0|4
456,196,42763,5,2
336,88,43138,1,8
176,88,43513,1,2
56,196,43888,2,0,B|56:292,1,80
128,244,44263,2,0,B|128:328,1,80,2|0
200,292,44638,2,0,B|200:380,2,80,8|0|2
204,132,45388,5,4
348,60,45763,2,0,B|392:64|413:101,2,80,2|0|8
340,140,46325,1,0
276,192,46513,2,0,B|299:241|383:240|410:191,1,160,2|0
340,140,47075,1,0
256,192,47263,12,2,48388
256,40,54388,6,0,B|184:48|184:156|224:168,1,160
280,116,54950,1,0
308,192,55138,2,0,B|380:184|380:76|340:64,1,160
456,184,55888,1,0
376,320,56263,1,0
216,316,56638,1,0
216,316,56825,1,0
216,316,57013,1,0
128,180,57388,5,0
136,97,57575,2,0,B|144:56|193:50,1,80
244,112,57950,1,0
296,52,58138,2,0,B|396:52,1,80,8|0
444,92,58513,1,0
476,164,58700,1,0
440,236,58888,1,0
288,284,59263,2,0,B|252:284|216:320|216:320|184:284|149:284,1,160,0|8
148,364,59825,2,0,B|100:364|64:332|56:292|72:244|92:228,1,160
56,172,60388,1,0
77,90,60575,6,0,B|100:40|184:40|211:88,1,160
144,128,61138,2,0,B|180:164|180:164|240:176|279:132,1,160,8|0
344,84,61700,1,0
408,136,61888,2,0,B|408:184|444:208|444:208|408:220|408:268,2,160,0|0|8
344,84,62825,1,0
280,132,63013,1,0
344,176,63200,2,0,B|344:264,1,80
344,336,63575,5,0
264,336,63763,2,0,B|216:336|216:336|168:336|136:320|136:264,1,160,0|8
80,128,64513,2,0,B|128:128|128:128|176:128|208:144|208:200,1,160,0|0
284,160,65075,2,0,B|308:128|353:124,1,80
420,168,65450,2,0,B|396:200|350:203,1,80,0|8
280,240,65825,2,0,B|280:288|204:330|156:296,1,160
200,228,66388,6,0,B|176:136|93:119,2,160,0|0|8
312,228,67513,2,0,B|336:136|418:119,1,160
372,52,68075,1,0
300,92,68263,1,0
256,160,68450,1,0
216,92,68638,1,8
140,52,68825,1,0
93,119,69013,2,0,B|176:136|200:228,1,160
336,308,69763,5,0
444,192,70138,1,8
336,72,70513,1,0
236,196,70888,1,0
52,48,71450,1,0
52,48,71638,2,0,B|98:125|50:197,1,160,8|0
144,328,72388,5,0
216,292,72575,1,0
284,336,72763,2,0,B|300:336|300:336|316:328|332:336|332:336|348:328|364:336|364:336|380:328|396:336|396:336|412:328|432:336|432:336|452:336,1,160,0|0
484,268,73325,1,0
444,200,73513,1,0
320,100,73888,2,0,B|272:76|256:52|256:52|240:76|193:100,2,160,0|0|8
256,148,74825,1,0
256,228,75013,1,0
256,228,75200,1,0
320,284,75388,6,0,B|272:308|256:332|256:332|240:308|193:283,2,160,0|0|8
384,136,76513,1,0
256,40,76888,1,0
128,136,77263,1,0
156,292,77638,2,0,B|163:253|215:221|267:253|275:289,1,160,8|0
352,260,78200,1,0
372,184,78388,6,0,B|352:152|366:93|426:79|458:101,1,160
256,100,79138,1,8
53,101,79513,2,0,B|85:79|145:93|159:152|140:184,1,160
216,324,80263,1,0
192,248,80450,1,0
256,200,80638,1,8
320,248,80825,1,0
296,324,81013,1,0
256,200,81388,5,0
260,120,81575,2,0,B|253:65|324:24|377:57,1,160
453,65,82138,2,0,B|465:117|392:164|340:128,2,160,8|0|0
448,224,83263,1,0
424,300,83450,1,0
344,300,83638,1,8
368,224,83825,1,0
388,148,84013,2,0,B|332:136|288:172|284:216|292:252,1,160
156,332,84763,5,0
88,188,85138,1,8
156,52,85513,1,0
352,192,85888,1,0
432,192,86075,1,0
352,192,86263,2,0,B|252:192,2,80,0|0|8
324,116,86825,2,0,B|244:116,1,80
212,272,87388,6,0,B|160:304|160:304|104:296|97:237,1,160
160,192,87950,1,0
212,112,88138,2,0,B|160:80|160:80|104:88|97:146,1,160,8|0
252,192,88888,1,0
332,192,89075,1,0
412,192,89263,2,0,B|496:192,2,80,0|0|8
332,192,89825,1,0
252,192,90013,1,0
104,128,90388,6,0,B|48:160|48:224|100:260,1,160
148,196,90950,1,0
192,128,91138,2,0,B|244:64|337:78,1,160,8|0
472,276,91888,1,0
472,196,92075,1,0
472,276,92263,2,0,B|420:340|326:325,2,160,0|8|0
396,136,93388,5,0
336,188,93575,1,0
276,136,93763,1,0
216,188,93950,1,0
156,136,94138,1,8
100,192,94325,2,0,B|84:232|102:270,1,80
256,192,94888,12,0,96013
108,44,96388,5,4
52,100,96575,1,0
108,156,96763,1,2
48,208,96950,1,0
106,269,97138,2,0,B|72:304|72:304|64:376|141:363,1,160,8|2
405,269,97888,2,0,B|440:304|440:304|448:376|370:363,2,160,0|2|8
256,204,99013,1,2
256,44,99388,6,0,B|208:48|195:89,1,80,4|0
256,44,99763,2,0,B|304:48|316:89,2,80,2|0|8
256,204,100513,1,2
28,272,100888,2,0,B|68:232|112:260|116:292|116:292|162:292,1,160,0|2
200,220,101450,1,0
256,164,101638,1,8
312,220,101825,1,0
349,292,102013,2,0,B|396:292|396:292|400:260|444:232|484:272,1,160,2|4
400,129,102763,6,0,B|420:80|392:48|336:40|315:94,1,160,2|8
111,129,103513,2,0,B|92:80|120:48|176:40|196:94,1,160,2|0
144,248,104263,2,0,B|180:268|178:317,1,80,2|0
256,296,104638,1,8
333,315,104825,2,0,B|332:268|368:248,1,80,0|2
420,96,105388,6,0,B|416:148|332:177|292:138,1,160,4|2
92,96,106138,2,0,B|96:148|179:177|219:138,1,160,8|2
256,296,106888,1,0
128,200,107263,1,2
128,200,107450,1,0
132,120,107638,2,0,B|84:116|44:148|40:188|44:236|64:244,2,160,8|2|4
284,72,108763,5,2
360,96,108950,1,0
408,160,109138,1,8
256,192,109513,1,2
228,312,109888,1,0
152,288,110075,1,0
104,224,110263,1,2
180,84,110638,2,0,B|232:84|256:56|256:56|280:84|328:84,1,160,8|2
328,244,111388,6,0,B|308:194|332:154|388:154|416:190,2,160,4|2|8
256,280,112325,1,0
184,244,112513,2,0,B|203:194|179:154|123:154|95:190,2,160,2|0|2
256,100,113638,2,0,B|275:65|325:71,1,80,8|0
404,72,114013,1,2
444,140,114200,2,0,B|478:159|472:209,1,80,0|4
360,324,114763,5,2
256,204,115138,1,8
152,324,115513,1,2
256,204,115888,2,0,B|204:188|196:112,1,80
256,204,116263,2,0,B|272:152|348:144,1,80,2|0
256,204,116638,2,0,B|308:220|316:296,2,80,8|0|2
112,132,117388,5,4
256,60,117763,1,2
336,64,117950,1,0
392,120,118138,1,8
368,196,118325,1,0
448,192,118513,2,0,B|452:244|420:276|364:296|320:256,1,160,2|0
256,192,119075,12,4,120388
256,80,132388,6,0,B|312:44|368:80,1,120.000004577637,0|2
304,236,133138,2,0,B|248:272|192:236,1,120.000004577637,0|2
104,92,133888,1,0
104,92,134075,1,2
40,248,134450,1,0
104,196,134638,2,0,B|136:244|120:288|84:320,1,120.000004577637,0|2
268,308,135388,5,0
352,308,135575,1,0
380,228,135763,1,2
312,180,135950,1,0
240,224,136138,2,0,B|174:209|158:144,2,120.000004577637,0|2|0
64,44,137450,2,0,B|64:120,1,60.0000022888184
64,188,137825,2,0,B|64:252,1,60.0000022888184,0|2
208,336,138388,6,0,B|208:288|208:288|232:260|231:221,2,120.000004577637,0|2|0
292,340,139325,1,0
352,280,139513,1,2
364,196,139700,1,0
348,112,139888,2,0,B|300:112|300:112|272:136|233:135,2,120.000004577637,0|2|0
348,112,141013,1,2
256,192,141388,12,0,144013
228,32,144388,6,0,B|176:32|156:76|172:124|230:123,1,160,4|0
283,351,145138,2,0,B|336:352|356:308|340:260|281:260,1,160,8|0
136,192,145888,1,0
256,84,146263,1,0
376,192,146638,2,0,B|416:268|376:348,1,160,8|2
232,276,147388,5,4
168,232,147575,1,0
100,276,147763,1,0
100,120,148138,2,0,B|129:79|213:79|245:123,1,160,8|0
392,60,148888,2,0,B|428:76|444:108|440:160|424:184|368:208,1,160,0|0
332,336,149638,2,0,B|280:336|280:336|256:376|232:336|232:336|180:336,2,160,8|0|4
332,176,150763,5,0
268,224,150950,1,0
204,176,151138,1,8
268,28,151513,1,0
116,80,151888,2,0,B|60:156,1,80
148,160,152263,2,0,B|92:232,1,80,0|0
176,240,152638,2,0,B|164:288|108:320|56:304|24:256,2,160,8|0|4
276,116,153763,5,0
348,260,154138,1,8
444,132,154513,1,2
396,68,154700,1,0
320,44,154888,1,0
256,92,155075,1,0
192,44,155263,1,2
116,68,155450,1,0
68,132,155638,2,0,B|32:212|72:288,2,160,8|2|4
444,252,156763,6,0,B|480:172|440:96,1,160,0|8
336,220,157513,1,0
188,156,157888,1,0
200,316,158263,1,0
200,316,158450,1,0
124,288,158638,1,8
124,288,158825,1,0
64,236,159013,2,0,B|32:192|44:120|90:94,1,160,0|4
160,56,159575,6,0,B|180:92|160:132,1,80
160,212,159950,1,0
232,176,160138,1,8
440,56,160700,1,0
440,56,160888,2,0,B|440:72|440:72|448:88|440:104|440:104|448:120|440:136|440:136|448:152|440:168|440:168|448:184|440:204|440:204|440:224,1,160,0|0
324,320,161638,2,0,B|292:268|228:280|228:280|203:322,2,160,8|0|4
368,252,162575,5,0
420,192,162763,1,0
368,132,162950,1,0
324,64,163138,2,0,B|292:116|228:104|228:104|203:61,2,160,8|0|0
256,208,164263,1,0
96,208,164638,1,8
172,68,165013,1,0
332,68,165388,5,4
392,120,165575,1,0
436,188,165763,1,2
392,264,165950,1,0
332,316,166138,1,8
268,268,166325,1,0
232,192,166513,2,0,B|152:156|76:192,2,160,2|0|2
244,112,167450,1,0
256,32,167638,2,0,B|336:68|412:32,1,160,8|2
440,188,168388,6,0,B|448:256|396:288|320:292|320:236,1,160,4|0
72,188,169138,2,0,B|64:256|116:288|192:292|192:236,1,160,8|0
256,132,169888,1,0
256,212,170075,1,0
256,292,170263,1,0
256,372,170450,2,0,B|304:380|324:336,1,80,0|8
256,372,170825,2,0,B|206:379|186:335,1,80
128,192,171388,6,0,B|88:160|88:160|100:88|155:85,1,160,4|0
200,152,171950,1,0
268,112,172138,2,0,B|308:144|308:144|296:216|240:218,1,160,8|0
116,316,172888,2,0,B|140:284|188:292,1,80
256,248,173263,1,0
323,292,173450,2,0,B|372:284|396:316,2,80,0|8|0
256,248,174013,2,0,B|256:64,1,160,0|4
176,84,174575,5,0
108,124,174763,1,0
176,168,174950,1,0
108,208,175138,1,8
176,252,175325,1,0
108,296,175513,1,0
268,316,175888,2,0,B|320:316|344:344|344:344|368:316|416:316,1,160,0|0
412,156,176638,2,0,B|360:156|336:128|336:128|312:156|264:156,1,160,8|0
148,44,177388,5,4
136,124,177575,1,0
92,192,177763,1,0
136,260,177950,1,0
148,340,178138,2,0,B|192:360|260:360|304:336,1,160,8|0
256,192,178888,12,4,180388
328,56,180763,6,0,B|385:48|424:128|365:176,1,160,2|0
184,56,181513,2,0,B|126:48|88:128|146:176,1,160,2|0
212,132,182075,1,0
256,200,182263,1,2
300,132,182450,1,0
256,200,182638,2,0,B|256:292,2,80,0|0|2
156,328,183388,6,0,B|168:264|128:264|128:264|128:224|65:246,1,160,0|2
64,164,183950,1,0
64,84,184138,1,0
300,44,184700,1,0
380,44,184888,1,0
440,96,185075,1,0
431,177,185263,2,0,B|408:212|363:211,1,80,2|0
292,172,185638,2,0,B|315:137|359:137,2,80,0|0|2
148,104,186388,6,0,B|104:176|144:256,1,160,0|2
216,220,186950,2,0,B|192:180|220:136,1,80
260,80,187325,1,0
340,80,187513,1,2
340,80,187888,5,0
416,104,188075,1,0
376,172,188263,1,2
448,208,188450,1,0
412,280,188638,1,0
488,304,188825,1,0
488,304,189013,1,2
336,252,189388,6,0,B|188:176,1,160,0|2
116,40,190138,2,0,B|264:116,1,160,0|2
256,192,190888,12,0,192388
