osu file format v9

[General]
AudioFilename: Da$ter .mp3
AudioLeadIn: 0
PreviewTime: 120388
Countdown: 0
SampleSet: Soft
StackLeniency: 0.7
Mode: 0
LetterboxInBreaks: 0
EpilepsyWarning: 1

[Editor]
Bookmarks: 120388,132388
DistanceSpacing: 1
BeatDivisor: 6
GridSize: 4

[Metadata]
Title:Ya Prygayu Vniz
Artist:Daster
Creator:Katty Pie
Version:Easy
Source:
Tags:Russian Black_Cherry_Ita BCI

[Difficulty]
HPDrainRate:2
CircleSize:3
OverallDifficulty:2
ApproachRate:3
SliderMultiplier:1
SliderTickRate:1

[Events]
//Background and Video events
0,0,"vectorial_wallpapers-212__o6oi_ru_.jpg"
//Break Periods
2,48588,52948
2,120588,130948
//Storyboard Layer 0 (Background)
//Storyboard Layer 1 (Fail)
//Storyboard Layer 2 (Pass)
//Storyboard Layer 3 (Foreground)
//Storyboard Sound Samples
//Background Colour Transformations
3,100,163,162,255

[TimingPoints]
388,375,4,2,1,80,1,0
24388,-100,4,2,1,80,0,1
48388,-100,4,2,1,80,0,0
72763,-100,4,2,1,60,0,0
73888,-100,4,2,1,80,0,0
96388,-100,4,2,1,80,0,1
120388,-100,4,2,1,80,0,0
132388,-100,4,2,1,50,0,0
144388,-100,4,2,1,80,0,1
144481,-100,4,2,1,80,0,0
180388,-100,4,2,1,50,0,0
190888,-100,4,2,1,5,0,0

[Colours]
Combo1 : 240,55,79
Combo2 : 241,239,158
Combo3 : 254,157,92
SliderBorder : 255,255,255

[HitObjects]
184,280,24388,2,0,B|200:336|256:356|320:336|332:276,2,200,4|8|0
256,212,26263,1,0
256,112,26638,2,0,B|372:112,1,100,8|0
440,164,27388,6,0,B|440:220|484:248|484:248|436:272|436:331,1,200,4|8
236,332,28888,2,0,B|136:280|176:160,1,200,0|8
208,68,30013,1,0
308,48,30388,6,0,B|408:100|367:219,2,200,4|8|0
208,68,32263,1,0
110,89,32638,2,0,B|60:116|68:172,1,100,8|0
84,272,33388,6,0,B|124:272|124:272|144:316|196:316|216:272|216:272|256:272,1,200,4|8
336,212,34513,1,0
260,148,34888,2,0,B|220:148|220:148|200:104|148:104|128:148|128:148|87:148,2,200,0|8|4
352,108,36763,5,0
448,76,37138,1,8
464,176,37513,1,0
464,276,37888,2,0,B|344:276,1,100
276,320,38638,2,0,B|256:268|276:220,1,100,8|0
272,124,39388,6,0,B|220:124|188:76|188:76|156:124|104:124,2,200,4|8|0
300,220,41263,2,0,B|288:268|238:296,1,100,0|8
140,296,42013,2,0,B|90:267|78:219,1,100,0|4
132,136,42763,5,0
212,80,43138,1,8
312,60,43513,1,0
412,60,43888,2,0,B|412:272,2,200,0|8|4
312,60,45763,6,0,B|280:104|312:152,2,100,0|8|0
256,192,46888,12,2,48388
400,56,54388,6,0,B|448:56|468:120|468:120|448:184|400:183,1,200,0|2
308,224,55513,1,0
212,248,55888,2,0,B|164:248|144:184|144:184|164:120|211:120,1,200,0|2
316,292,57388,6,0,B|316:184,1,100
364,104,58138,2,0,B|316:76|268:104,1,100,8|0
172,84,58888,1,0
92,140,59263,1,0
112,240,59638,2,0,B|83:288|111:336,1,100,8|0
212,336,60388,6,0,B|276:344|352:284|351:217,2,200,0|8|0
184,240,62263,1,0
212,144,62638,2,0,B|211:80|287:20|351:28,1,200,8|0
448,48,63763,6,0,B|484:92|452:144,2,100,0|8|0
360,100,64888,1,0
320,192,65263,1,0
364,280,65638,1,8
316,368,66013,2,0,B|216:368,1,100
144,296,66763,6,0,B|112:252|140:200,1,100,0|8
124,104,67513,1,0
216,60,67888,2,0,B|264:60|312:84|312:84|360:60|409:60,2,200,0|8|0
216,160,69763,6,0,B|216:280,1,100,0|8
168,348,70513,2,0,B|216:376|268:344,1,100
360,320,71263,1,0
432,252,71638,2,0,B|488:202|440:98|363:123,1,200,8|0
308,40,72763,5,0
256,124,73138,1,0
204,40,73513,1,0
149,123,73888,2,0,B|72:98|24:202|80:252,2,200,0|8|0
172,220,75763,6,0,B|264:280,1,100,0|8
352,244,76513,1,0
424,176,76888,2,0,B|344:140|388:56|388:56|312:56,1,200,0|8
256,120,78013,1,0
180,56,78388,6,0,B|124:56|124:56|168:140|88:176,2,200,0|8|0
256,120,80263,2,0,B|256:240,1,100,0|8
256,320,81013,1,0
340,268,81388,6,0,B|416:216|416:160|416:160|371:115,2,200,0|8|0
256,320,83263,1,0
153,303,83638,2,0,B|92:300|89:240,1,100,8|0
88,140,84388,6,0,B|88:76|88:76|127:37|218:54,2,200,0|8|0
168,204,86263,1,0
256,256,86638,1,8
356,268,87013,1,0
452,240,87388,6,0,B|452:140,1,100
372,76,88138,2,0,B|372:180,1,100,8|0
276,144,88888,2,0,B|212:144|212:144|176:120|140:144|140:144|76:144,2,200,0|8|0
268,244,90763,5,0
320,328,91138,1,8
420,328,91513,1,0
468,240,91888,2,0,B|468:180|468:180|492:144|468:108|468:108|468:44,1,200,0|8
368,44,93013,1,0
256,192,93388,12,0,95138
172,84,96388,6,0,B|112:172|176:272,2,200,4|8|0
256,136,98263,1,0
340,84,98638,2,0,B|384:120|364:176,1,100,8|0
356,272,99388,6,0,B|302:271|302:271|272:324|208:324|180:275,1,200,4|8
88,104,100888,2,0,B|141:104|141:104|172:52|232:52|263:100,1,200,0|8
360,80,102013,1,0
440,140,102388,6,0,B|440:344,2,200,4|8|0
360,80,104263,1,0
276,132,104638,2,0,B|224:156|232:216,1,100,8|0
320,260,105388,6,0,B|316:296|300:336|248:352|200:344|171:305,1,200,4|8
120,220,106513,1,0
28,184,106888,2,0,B|32:148|48:108|96:92|148:100|176:138,2,200,0|8|4
32,284,108763,5,0
120,336,109138,1,8
220,340,109513,1,0
320,336,109888,2,0,B|428:336,1,100
472,252,110638,2,0,B|472:148,1,100,8|0
416,72,111388,6,0,B|364:72|332:24|332:24|300:72|248:72,2,200,4|8|0
364,156,113263,2,0,B|324:260,1,100,0|8
228,248,114013,2,0,B|192:154,1,100,0|4
204,56,114763,5,0
108,80,115138,1,8
72,172,115513,1,0
112,264,115888,2,0,B|152:320|244:320|288:264,2,200,0|8|4
200,212,117763,6,0,B|200:100,2,100,0|8|0
256,192,118888,12,4,120388
136,300,132388,6,0,B|135:261|191:244|255:268|255:308|255:348|311:368|371:349|371:302,1,300,4|2
468,272,133888,2,0,B|536:224|496:112|408:112|344:152|344:208,1,300,2|2
248,184,135388,6,0,B|248:145|192:128|128:152|128:192|128:232|72:252|12:233|12:186,1,300,2|2
76,108,136888,2,0,B|124:52|308:52|355:115,1,300,2|2
456,116,138388,6,0,B|456:224|456:224|456:300|388:344|322:309,1,300,2|2
224,312,139888,2,0,B|158:346|90:302|90:226|90:226|90:118,1,300,2|2
256,192,141388,12,0,143325
96,100,144388,6,0,B|96:140|96:140|52:160|52:212|96:232|96:232|96:273,2,200,4|8|0
188,140,146263,1,0
256,64,146638,1,8
324,140,147013,1,0
416,100,147388,6,0,B|416:140|416:140|460:160|460:212|416:232|416:232|416:273,2,200,4|8|0
324,140,149263,2,0,B|300:184|310:236,1,100,0|8
201,236,150013,2,0,B|212:184|188:140,1,100,0|4
104,84,150763,5,0
64,176,151138,1,8
104,268,151513,1,0
196,304,151888,2,0,B|216:312|216:312|236:304|256:312|256:312|276:304|296:312|296:312|316:304|336:312|336:312|360:304|380:312|380:312|396:304,2,200,0|8|4
152,212,153763,6,0,B|198:177|246:213,1,100,0|8
344,212,154513,1,0
344,112,154888,2,0,B|324:104|324:104|304:112|284:104|284:104|264:112|244:104|244:104|224:112|204:104|204:104|180:112|160:104|160:104|144:112,2,200,0|8|4
432,160,156763,6,0,B|432:260,1,100,0|8
368,336,157513,1,0
268,336,157888,2,0,B|268:272|204:248|144:272|144:336,2,200,0|8|4
368,336,159763,6,0,B|368:228,1,100,0|8
284,52,160888,2,0,B|284:116|220:140|160:116|160:52,2,200,0|8|4
384,52,162763,6,0,B|444:144,1,100,0|8
440,236,163513,2,0,B|380:328,1,100
284,324,164263,2,0,B|232:348|186:325,2,100,0|8|0
236,236,165388,6,0,B|236:32,2,200,4|8|0
336,236,167263,1,0
400,156,167638,1,8
400,56,168013,1,0
300,52,168388,6,0,B|240:52|240:52|184:52|156:104|184:152,1,200,4|8
112,220,169513,1,0
188,288,169888,2,0,B|248:288|248:288|304:288|332:236|304:188,2,200,0|8|4
112,220,171763,5,0
112,120,172138,1,8
184,52,172513,1,0
284,48,172888,2,0,B|336:48|368:96|368:96|400:48|452:48,2,200,0|8|4
292,148,174763,6,0,B|292:252,1,100,0|8
340,336,175513,2,0,B|288:356|241:337,1,100
156,288,176263,1,0
92,212,176638,1,8
92,112,177013,1,0
256,192,177388,12,0,179263
313,165,180388,6,0,B|348:96|240:24|195:69,2,200,4|2|2
212,172,182263,1,0
160,256,182638,1,2
228,332,183013,1,0
328,332,183388,6,0,B|400:368|476:256|420:208,2,200,4|2|0
324,232,185263,1,2
268,148,185638,1,0
268,48,186013,1,2
180,100,186388,6,0,B|116:156|164:224|164:224|128:272,2,200,4|0|0
268,48,188263,1,2
348,108,188638,1,0
368,208,189013,1,2
332,300,189388,6,0,B|292:356|196:356|157:301,1,200,4|2
244,252,190513,1,0
256,192,190888,12,0,192388
