osu file format v12

[General]
AudioFilename: e aa sou.mp3
AudioLeadIn: 1500
PreviewTime: 40750
Countdown: 0
SampleSet: Normal
StackLeniency: 0.7
Mode: 1
LetterboxInBreaks: 0

[Editor]
Bookmarks: 50481,63250,167468,183250,187937,192625
DistanceSpacing: 0.8
BeatDivisor: 2
GridSize: 32

[Metadata]
Title:E? Aa, Sou
TitleUnicode:え?あぁ、そう
Artist:Dasoku
ArtistUnicode:蛇足
Creator:Teru21
Version:Muzukashii
Source:Choucho-P
Tags:papiyon hatsune miku vocaloid vocaloid2 winber1 niconicodouga Hinsvar -_t_e_n_n_y_a_-
BeatmapID:225231
BeatmapSetID:42156

[Difficulty]
HPDrainRate:4
CircleSize:2
OverallDifficulty:5
ApproachRate:5
SliderMultiplier:1.4
SliderTickRate:1

[Events]
//Background and Video events
0,0,"dasoku.jpg",0,0
//Break Periods
//Storyboard Layer 0 (Background)
//Storyboard Layer 1 (Fail)
//Storyboard Layer 2 (Pass)
//Storyboard Layer 3 (Foreground)
Sprite,Foreground,Centre,"dasoku.jpg",320,240 M,0,32981,33294,320,240,294,319 S,0,32981,33294,0.625,1 M,0,33294,35637,294,319 S,0,33294,35637,1 M,0,35637,35794,294,319,294,166 S,0,35637,35794,1,1.3 S,0,35794,38137,1.3 M,0,35794,40637,294,166 S,0,38137,38294,1.3,0.9 S,0,38294,40637,0.9 M,0,40637,40794,294,166,183,414 S,0,40637,40794,0.9,1.3 M,0,40794,41635,183,414 S,0,40794,42512,1.3 M,0,41635,42512,183,414 M,0,42512,42669,183,414 S,0,42512,42669,1.3 M,0,42669,42903,183,414 S,0,42669,43294,1.3 F,0,43294,,1 F,0,43294,43606,1,0 S,0,43294,43606,1.3,1.844 M,0,82981,83294,320,240,294,319 S,0,82981,83294,0.625,1 M,0,83294,85637,294,319 S,0,83294,85637,1 M,0,85637,85794,294,319,294,315 S,0,85637,85794,1,1.3 M,0,85794,88137,294,315 S,0,85794,88137,1.3 M,0,88137,88294,294,315 S,0,88137,88294,1.3,0.9 M,0,88294,90637,294,315 S,0,88294,90637,0.9 M,0,90637,90794,294,315,183,414 S,0,90637,90794,0.9,1.3 M,0,90794,91635,183,414 S,0,90794,92512,1.3 M,0,91635,92512,183,414 M,0,92512,92669,183,414 S,0,92512,92669,1.3 M,0,92669,92825,183,414 S,0,92669,93294,1.3 M,0,92825,92903,183,414 F,0,93294,,1 F,0,93294,93606,1,0 S,0,93294,93606,1.3,1.8
Sprite,Foreground,Centre,"dasoku.jpg",320,240 M,0,82981,83294,320,240,294,319 S,0,82981,83294,0.625,1 M,0,83294,85637,294,319 S,0,83294,85637,1 M,0,85637,85794,294,319,628,66 S,0,85637,85794,1,1.3 M,0,85794,88137,628,66 S,0,85794,88137,1.3 M,0,88137,88294,628,66,450,240 S,0,88137,88294,1.3,0.9 M,0,88294,90637,450,240 S,0,88294,90637,0.9 M,0,90637,90794,450,240,183,414 S,0,90637,90794,0.9,1.3 M,0,90794,91635,183,414 S,0,90794,92512,1.3 M,0,91635,92512,183,414 M,0,92512,92669,183,414 S,0,92512,92669,1.3 M,0,92669,92903,183,414 S,0,92669,93294,1.3 F,0,93294,,1 F,0,93294,93606,1,0 S,0,93294,93606,1.3,1.8
Sprite,Foreground,Centre,"dasoku.jpg",320,240 M,0,152981,153294,320,240,191,406 S,0,152981,153294,0.625,1.2 M,0,153294,163294,191,406 M,0,163294,163606,191,406 F,0,163294,163606,1,0 S,0,163294,163606,1.2,1.5
Sprite,Foreground,Centre,"dasokulight.jpg",320,240 S,0,3137,,0.625 F,0,3137,3294,0,1 F,0,3294,3919,1,0 F,0,3919,8137,0 F,0,8137,8294,0,1 F,0,8294,8606,1,0 F,0,8606,13137,0 F,0,13137,13294,0,1 F,0,13294,13606,1,0 F,0,13606,18137,0 F,0,18137,18294,0,1 F,0,18294,18606,1,0 F,0,18606,23137,0 F,0,23137,23294,0,1 F,0,23294,23606,1,0 F,0,23606,28137,0 F,0,28137,28294,0,1 F,0,28294,28606,1,0 F,0,28606,48137,0 F,0,48137,48294,0,1 F,0,48294,48606,1,0 F,0,48606,53137,0 F,0,53137,53294,0,1 F,0,53294,53606,1,0 F,0,53606,58137,0 F,0,58137,58294,0,1 F,0,58294,58606,1,0 F,0,58606,60637,0 F,0,60637,60794,0,1 F,0,60794,61106,1,0 F,0,61106,63137,0 F,0,63137,63294,0,1 F,0,63294,63606,1,0 F,0,63606,68137,0 F,0,68137,68294,0,1 F,0,68294,68606,1,0 F,0,68606,73137,0 F,0,73137,73294,0,1 F,0,73294,73606,1,0 F,0,73606,78137,0 F,0,78137,78294,0,1 F,0,78294,78606,1,0 F,0,78606,98137,0 F,0,98137,98294,0,1 F,0,98294,98606,1,0 F,0,98606,103137,0 F,0,103137,103294,0,1 F,0,103294,103606,1,0 F,0,103606,108137,0 F,0,108137,108294,0,1 F,0,108294,108606,1,0 F,0,108606,113137,0 F,0,113137,113294,0,1 F,0,113294,113606,1,0 F,0,113606,118137,0 F,0,118137,118294,0,1 F,0,118294,118606,1,0 F,0,118606,121262,0 F,0,121262,121419,0,1 F,0,121419,121731,1,0 F,0,121731,123137,0 F,0,123137,123294,0,1 F,0,123294,123606,1,0 F,0,123606,133137,0 F,0,133137,133294,0,1 F,0,133294,133606,1,0 F,0,133606,143137,0 F,0,143137,143294,0,1 F,0,143294,143606,1,0 F,0,143606,148137,0 F,0,148137,148294,0,1 F,0,148294,148606,1,0 F,0,148606,168137,0 F,0,168137,168294,0,1 F,0,168294,168606,1,0 F,0,168606,173137,0 F,0,173137,173294,0,1 F,0,173294,173606,1,0 F,0,173606,178137,0 F,0,178137,178294,0,1 F,0,178294,178606,1,0 F,0,178606,183137,0 F,0,183137,183294,0,1 F,0,183294,183606,1,0 F,0,183606,185637,0 F,0,185637,185794,0,1 F,0,185794,186106,1,0 F,0,186106,188137,0 F,0,188137,188294,0,1 F,0,188294,188606,1,0 F,0,188606,190637,0 F,0,190637,190794,0,1 F,0,190794,191106,1,0
Sprite,Foreground,Centre,"Lyrics\001.png",320,240 M,0,12669,13294,-400,140,210,140 M,0,13294,17669,210,140,230,140 M,0,17669,17825,230,140,800,140
Sprite,Foreground,Centre,"Lyrics\002.png",320,240 M,0,15325,15637,478,181,230,181 F,0,15325,15637,0,1 M,0,15637,17669,230,181,210,181 M,0,17669,17825,210,181,-140,181
Sprite,Foreground,Centre,"Lyrics\003.png",320,240 M,0,17825,18294,-400,140,210,140 M,0,18294,19387,210,140,230,140 M,0,19387,19856,230,140,-400,140
Sprite,Foreground,Centre,"Lyrics\004.png",320,240 M,0,19231,19387,689,140,276,140 M,0,19387,20012,276,140,263,140 M,0,20012,20481,263,140,-400,140
Sprite,Foreground,Centre,"Lyrics\005.png",320,240 M,0,19856,20012,561,140,281,140 M,0,20012,22512,281,140,267,140 M,0,22512,22669,267,140,-64,140
Sprite,Foreground,Centre,"Lyrics\006.png",320,240 M,0,20481,20794,-400,181,210,181 M,0,20794,22512,210,181,228,181 M,0,22512,22669,228,181,773,181
Sprite,Foreground,Centre,"Lyrics\007.png",320,240 M,0,22669,23294,-400,140,210,140 M,0,23294,24544,210,140,215,140 M,0,24544,24700,215,140,216,503
Sprite,Foreground,Centre,"Lyrics\0010.png",320,240 M,0,25481,25637,344,181,230,181 F,0,25481,25637,0,1 M,0,25637,27669,230,181,217,181 M,0,27669,27825,217,181,-140,181
Sprite,Foreground,Centre,"Lyrics\008.png",320,240 M,0,24387,24544,217,-26,217,127 M,0,24544,25169,217,127,217,135 M,0,25169,25325,217,135,217,514
Sprite,Foreground,Centre,"Lyrics\009.png",320,240 M,0,25012,25169,217,-24,217,127 M,0,25169,25637,217,127,217,128 M,0,25637,27669,217,128,217,133 M,0,27669,27825,217,133,217,496
Sprite,Foreground,Centre,"Lyrics\011.png",320,240 M,0,27825,28294,-400,140,210,140 M,0,28294,29231,210,140,213,140 M,0,29231,29387,213,140,109,140 M,0,29387,32669,109,140,156,140 M,0,32669,32825,156,140,800,140
Sprite,Foreground,Centre,"Lyrics\012.png",320,240 M,0,29075,29231,650,140,331,140 F,0,29075,29387,0,1 M,0,29231,29387,331,140,234,140 M,0,29387,29544,234,140,251,140 M,0,29544,32669,251,140,297,140 M,0,32669,32825,297,140,490,140
Sprite,Foreground,Centre,"Lyrics\013.png",320,240 M,0,30481,30637,344,181,230,181 F,0,30481,30637,0,1 M,0,30637,32669,230,181,210,181 M,0,32669,32825,210,181,-140,181
Sprite,Foreground,Centre,"Lyrics\Aaaa.png",320,240 F,0,32669,32825,0,1 S,0,32669,32825,2,0.5 F,0,32825,32981,1 S,0,32825,32981,0.5 F,0,32981,33294,1,0 S,0,32981,33294,0.5,2 M,0,33148,,320,240
Sprite,Foreground,Centre,"Lyrics\014.png",320,240 M,0,33137,33294,-92,112,220,112 M,0,33294,34544,220,112,239,112 M,0,34544,34700,239,112,239,-55
Sprite,Foreground,Centre,"Lyrics\015.png",320,240 M,0,34387,34544,241,498,241,121 M,0,34544,35637,241,121,241,110 F,0,35481,35637,1,0 S,0,35481,35637,1,2
Sprite,Foreground,Centre,"Lyrics\016.png",320,240 M,0,35481,35794,481,502,481,288 M,0,35794,37044,481,288,481,280 M,0,37044,37200,481,280,806,280
Sprite,Foreground,Centre,"Lyrics\017.png",320,240 M,0,36887,37044,-194,282,402,282 M,0,37044,38137,402,282,416,282 F,0,37981,38137,1,0 S,0,37981,38137,1,2
Sprite,Foreground,Centre,"Lyrics\018.png",320,240 F,0,37981,38294,0,1 S,0,37981,38294,2,1 M,0,37981,39544,147,375 M,0,39544,,147,375 M,0,39544,39700,147,375,-238,375
Sprite,Foreground,Centre,"Lyrics\019.png",320,240 M,0,39387,39544,724,376,229,376 M,0,39544,40481,229,376,207,376 M,0,40481,40637,207,376,229,376 F,0,40481,40637,1,0 S,0,40481,40637,1,2
Sprite,Foreground,Centre,"Lyrics\0020.png",320,240 R,0,40481,,-0.2 F,0,40481,40794,0,1 S,0,40481,40794,3.4,1 M,0,41106,42044,108,101 R,0,41262,,0 R,0,41731,,0.2 M,0,42044,42200,108,101,108,-100
Sprite,Foreground,Centre,"Lyrics\021.png",320,240 M,0,41887,42044,108,496,108,110 M,0,42044,42669,108,110,163,110 S,0,42044,42669,1,1.776 F,0,42669,42825,1,0
Sprite,Foreground,Centre,"Lyrics\nee.png",320,240 F,0,42825,42981,0,1 S,0,42825,42981,2,0.5 F,0,42981,43294,1 S,0,42981,43294,0.5 F,0,43294,43606,1,0 S,0,43294,43606,0.5,2
Sprite,Foreground,Centre,"Lyrics\022.png",320,240 M,0,42981,43294,-398,150,181,150 R,0,42981,45403,-0.6 M,0,43294,45403,181,150 R,0,45403,45481,-0.6,0 M,0,45403,45637,181,150,209,135 M,0,45637,47669,209,135,217,135 M,0,47669,47825,217,135,837,135
Sprite,Foreground,Centre,"Lyrics\023.png",320,240 M,0,45169,45481,115,499,115,179 M,0,45481,47669,115,179,115,173 M,0,47669,47825,115,173,115,-67
Sprite,Foreground,Centre,"Lyrics\024.png",320,240 M,0,46575,46731,728,210,115,210 M,0,46731,47669,115,210,108,210 M,0,47669,47825,108,210,-263,210
Sprite,Foreground,Centre,"Lyrics\025.png",320,240 M,0,47669,47981,172,117 F,0,47669,47981,0,1 S,0,47669,47981,2,1 M,0,47981,48294,172,117 M,0,48294,48606,172,117 M,0,48606,48762,172,117,91,117 M,0,48762,50169,91,117,99,117 M,0,50169,50325,99,117,100,-56
Sprite,Foreground,Centre,"Lyrics\026.png",320,240 M,0,48294,48606,739,117,267,117 M,0,48606,50169,267,117,277,117 M,0,50169,50325,277,117,230,-54
Sprite,Foreground,Centre,"Lyrics\027.png",320,240 M,0,48919,49231,157,504,157,162 M,0,49231,50169,157,162,157,155 M,0,50169,50325,157,155,157,-54
Sprite,Foreground,Centre,"Lyrics\028a.png",320,240 M,0,49856,50169,157,600,157,172 S,0,50169,50325,1,0.8959999 M,0,50169,51731,157,172 S,0,50325,50481,0.8959999,1 S,0,50481,50950,1 S,0,50950,51106,1,0.8880002 S,0,51106,51262,0.8880002,1 M,0,51731,51887,157,172,-175,172
Sprite,Foreground,Centre,"Lyrics\029.png",320,240 S,0,51419,,1 M,0,51419,51731,738,173,232,173 M,0,51731,52356,232,173,217,173 M,0,52356,52512,217,173,-39,173
Sprite,Foreground,Centre,"Lyrics\na.png",320,240 S,0,52200,,0.5 M,0,52200,52356,804,164,350,164 M,0,52356,52669,350,164,320,164 M,0,52669,52825,320,164,-166,164
Sprite,Foreground,Centre,"Lyrics\no.png",320,240 S,0,52512,,0.8 M,0,52512,52669,804,164,350,164 M,0,52669,52981,350,164,320,164 M,0,52981,53137,320,164,-166,164
Sprite,Foreground,Centre,"Lyrics\ka.png",320,240 M,0,52825,52981,804,164,350,164 M,0,52981,53137,350,164,335,164 M,0,53137,53450,335,164,320,652
Sprite,Foreground,Centre,"Lyrics\Shira.png",320,240 M,0,53137,53294,320,-195,320,240 M,0,53294,53606,320,240,320,320 F,0,53450,53606,1,0 S,0,53450,53606,1,2
Sprite,Foreground,Centre,"Lyrics\0030.png",320,240 M,0,62669,63294,-400,140,210,140 M,0,63294,67669,210,140,230,140 M,0,67669,67825,230,140,800,140
Sprite,Foreground,Centre,"Lyrics\031.png",320,240 M,0,65481,65793,478,181,230,181 F,0,65481,65793,0,1 M,0,65793,67669,230,181,211,181 M,0,67669,67825,211,181,-192,181
Sprite,Foreground,Centre,"Lyrics\032.png",320,240 M,0,67825,68294,-400,140,210,140 M,0,68294,69856,210,140,222,140 M,0,69856,70169,222,140,732,140
Sprite,Foreground,Centre,"Lyrics\033.png",320,240 M,0,69700,69856,-84,136,139,136 M,0,69856,70794,139,136,149,136 M,0,70794,70950,149,136,138,-53
Sprite,Foreground,Centre,"Lyrics\034.png",320,240 M,0,70481,70794,155,512,155,169 M,0,70794,72669,155,169,155,138 R,0,72356,72512,0,-0.1651611 R,0,72512,72669,-0.1651611,0 M,0,72669,72825,155,138,155,-58
Sprite,Foreground,Centre,"Lyrics\035.png",320,240 M,0,72669,73294,-400,140,210,140 M,0,73294,75794,210,140,215,140 M,0,75794,75950,215,140,215,497
Sprite,Foreground,Centre,"Lyrics\036.png",320,240 M,0,75637,75794,152,-53,152,114 M,0,75794,77044,152,114,152,123 M,0,77044,77200,152,123,152,498
Sprite,Foreground,Centre,"Lyrics\037.png",320,240 M,0,76262,76419,263,499,263,119 M,0,76419,77669,263,119,263,112 M,0,77669,77825,263,112,263,-90
Sprite,Foreground,Centre,"Lyrics\038.png",320,240 M,0,76887,77044,152,-53,152,114 M,0,77044,78137,152,114,152,117 M,0,78137,78294,152,117,810,117
Sprite,Foreground,Centre,"Lyrics\039.png",320,240 M,0,77512,77669,263,499,263,119 M,0,77669,78137,263,119,263,117 M,0,78137,78294,263,117,846,116
Sprite,Foreground,Centre,"Lyrics\0040.png",320,240 M,0,77981,78294,-195,118,199,118 M,0,78294,82669,199,118,233,118 M,0,82669,82825,233,118,825,118
Sprite,Foreground,Centre,"Lyrics\041.png",320,240 M,0,80481,80794,748,158,217,158 M,0,80794,82669,217,158,197,158 M,0,82669,82825,197,158,-162,158
Sprite,Foreground,Centre,"Lyrics\Aaaa.png",320,240 F,0,82669,82825,0,1 S,0,82669,82825,2,0.5 F,0,82825,82981,1 S,0,82825,82981,0.5 F,0,82981,83294,1,0 S,0,82981,83294,0.5,2 M,0,83148,,320,240
Sprite,Foreground,Centre,"Lyrics\042.png",320,240 M,0,82981,83294,-51,89,217,89 M,0,83294,84544,217,89,220,89 M,0,84544,84700,220,89,213,511
Sprite,Foreground,Centre,"Lyrics\043.png",320,240 M,0,84387,84544,215,-49,215,77 M,0,84544,,215,77 M,0,84544,85481,215,77,215,89 F,0,85325,85481,1,0 S,0,85325,85481,1,2.008
Sprite,Foreground,Centre,"Lyrics\044.png",320,240 M,0,85637,85794,-140,391,128,391 M,0,85794,87044,128,391,140,391 M,0,87044,87200,140,391,128,-50
Sprite,Foreground,Centre,"Lyrics\045.png",320,240 M,0,86887,87044,139,505,139,403 M,0,87044,88137,139,403,139,381 F,0,87981,88137,1,0 S,0,87981,88137,1,2.216
Sprite,Foreground,Centre,"Lyrics\046.png",320,240 F,0,88137,88294,0,1 S,0,88137,88294,1.608,1 S,0,88294,88606,1 S,0,88606,88762,1,1.16 S,0,88762,88919,1.16,1 M,0,89544,89700,320,240,768,240
Sprite,Foreground,Centre,"Lyrics\047.png",320,240 M,0,89387,89544,-81,240,320,240 M,0,89544,90637,320,240,334,240 F,0,90481,90637,1,0 S,0,90481,90637,1,1.744
Sprite,Foreground,Centre,"Lyrics\0020.png",320,240 R,0,90481,,-0.2 F,0,90481,90794,0,1 S,0,90481,90794,3.4,1 M,0,91106,92044,108,101 R,0,91262,,0 R,0,91731,,0.2 M,0,92044,92200,108,101,108,-100
Sprite,Foreground,Centre,"Lyrics\ta.png",320,240 M,0,91887,92044,94,580,94,99 M,0,92044,92825,94,99 M,0,92825,92981,94,99,94,-107
Sprite,Foreground,Centre,"Lyrics\ma.png",320,240 M,0,92200,92825,93,291 M,0,92825,92981,93,291,-211,291
Sprite,Foreground,Centre,"Lyrics\ra.png",320,240 M,0,92356,92825,270,93 M,0,92825,92981,270,93,856,93
Sprite,Foreground,Centre,"Lyrics\nai.png",320,240 M,0,92512,92825,369,289 M,0,92825,92981,369,289,369,580
Sprite,Foreground,Centre,"Lyrics\sa.png",320,240 F,0,92825,92981,0,1 S,0,92825,92981,2,0.5 F,0,92981,93294,1 S,0,92981,93294,0.5 F,0,93294,93606,1,0 S,0,93294,93606,0.5,2
Sprite,Foreground,Centre,"cat.png",320,240 M,0,98606,98919,890,577,403,231 S,0,98606,98919,0.6,0.8 M,0,98919,99231,403,231,304,231 M,0,99231,99544,304,231,304,759 F,0,99544,99700,1,0
Sprite,Foreground,Centre,"Lyrics\049.png",320,240 M,0,92981,93294,228,77 F,0,92981,93294,0,1 S,0,92981,93294,1.2,1 R,0,92981,93294,-3,0 M,0,93294,95169,228,77,252,77 M,0,95169,95325,252,77,918,77
Sprite,Foreground,Centre,"Lyrics\0050.png",320,240 F,0,95012,95169,0,1 R,0,95012,95169,-0.2,0 M,0,95012,97669,140,172,140,158 R,0,95169,95325,0,-0.2 M,0,97669,97825,140,158,140,-50
Sprite,Foreground,Centre,"Lyrics\051.png",320,240 R,0,95950,96106,0.2,0 M,0,95950,97669,259,95,259,120 R,0,96106,96262,0,0.2 M,0,97669,97825,259,120,259,506
Sprite,Foreground,Centre,"Lyrics\052.png",320,240 M,0,96575,96731,-130,236,195,236 M,0,96731,97669,195,236,212,236 M,0,97669,97825,212,236,816,236
Sprite,Foreground,Centre,"Lyrics\053.png",320,240 F,0,97669,97981,0,1 S,0,97669,97981,5,1.3 F,0,97981,98606,1 S,0,97981,98606,1.3 F,0,98606,98919,1,0 S,0,98606,98919,1.3,5
Sprite,Foreground,Centre,"Lyrics\054.png",320,240 F,0,99231,,1 S,0,99231,99544,3.056,1.104 M,0,100169,100325,320,240,320,511
Sprite,Foreground,Centre,"Lyrics\055.png",320,240 M,0,100012,100169,320,-31,320,231 S,0,100169,,1 M,0,100169,100325,320,231 M,0,100325,100481,320,231,320,220 M,0,100481,100637,320,220,320,231 M,0,100637,100950,320,231 M,0,100950,101106,320,231,320,220 M,0,101106,101262,320,220,320,231 M,0,101262,101575,320,231 M,0,101575,101731,320,231,320,220 M,0,101731,101887,320,220,320,505
Sprite,Foreground,Centre,"Lyrics\056.png",320,240 M,0,101575,101731,320,-34,320,219 M,0,101731,102356,320,219,320,234 M,0,102356,102512,320,234,320,506
Sprite,Foreground,Centre,"Lyrics\ga.png",320,240 M,0,101887,102044,127,-126,127,152 M,0,102044,103606,127,152 F,0,103450,103606,1,0 S,0,103450,103606,1,1.5 M,0,103606,103762,127,152,-198,152
Sprite,Foreground,Centre,"Lyrics\ru.png",320,240 M,0,102200,102356,320,-98,320,150 M,0,102356,103606,320,150 F,0,103450,103606,1,0 S,0,103450,103606,1,1.5 M,0,103606,103762,320,150,320,-110
Sprite,Foreground,Centre,"Lyrics\ku.png",320,240 M,0,102512,102669,533,-115,533,150 M,0,102669,103606,533,150 F,0,103450,103606,1,0 S,0,103450,103606,1,1.5 M,0,103606,103762,533,150,848,150
Sprite,Foreground,Centre,"Lyrics\se.png",320,240 M,0,102825,102981,215,589,215,352 M,0,102981,103606,215,352 F,0,103450,103606,1,0 S,0,103450,103606,1,1.5 M,0,103606,103762,215,352,215,586
Sprite,Foreground,Centre,"Lyrics\ni.png",320,240 M,0,103137,103294,428,583,424,352 F,0,103137,103450,1 M,0,103294,103606,424,352 F,0,103450,103606,1,0 S,0,103450,103606,1,1.5 M,0,103606,103762,424,352,424,576
Sprite,Foreground,Centre,"Lyrics\057.png",320,240 M,0,122981,123294,64,158,203,158 F,0,122981,123294,0,1 F,0,123294,125481,1 M,0,123294,125794,203,158,219,158 F,0,125481,125794,1,0
Sprite,Foreground,Centre,"Lyrics\058.png",320,240 M,0,125481,125794,662,333,456,333 F,0,125481,125794,0,1 F,0,125794,127981,1 M,0,125794,128294,456,333,439,333 F,0,127981,128294,1,0
Sprite,Foreground,Centre,"Lyrics\059.png",320,240 M,0,127981,128294,320,158,320,240 F,0,127981,128294,0,1 F,0,128294,132981,1 M,0,128294,133294,320,240,320,251 F,0,132981,133294,1,0
Sprite,Foreground,Centre,"Lyrics\0060.png",320,240 M,0,132981,133294,-129,376,200,376 F,0,132981,133294,0,1 F,0,133294,135481,1 M,0,133294,135794,200,376,211,376 F,0,135481,135794,1,0
Sprite,Foreground,Centre,"Lyrics\061.png",320,240 M,0,135481,135794,800,288,474,288 F,0,135481,135794,0,1 F,0,135794,137981,1 M,0,135794,138294,474,288,457,288 F,0,137981,138294,1,0
Sprite,Foreground,Centre,"Lyrics\062.png",320,240 M,0,137981,138294,-183,203,184,203 F,0,137981,138294,0,1 F,0,138294,140481,1 M,0,138294,140794,184,203,201,203 F,0,140481,140794,1,0
Sprite,Foreground,Centre,"Lyrics\063.png",320,240 M,0,140481,140794,719,132,316,132 S,0,140794,142669,1,1.486968 S,0,142669,142981,1.486968,2.856 R,0,142669,142981,0,-6.288001 F,0,142825,142981,1,0
Sprite,Foreground,Centre,"Lyrics\mou.png",320,240 F,0,142825,142981,0,1 S,0,142825,142981,2,0.5 F,0,142981,143294,1 S,0,142981,143294,0.5 F,0,143294,143606,1,0 S,0,143294,143606,0.5,2
Sprite,Foreground,Centre,"Lyrics\064.png",320,240 M,0,142981,143294,-398,150,181,150 R,0,142981,145403,-0.6 M,0,143294,145403,181,150 R,0,145403,145481,-0.6,0 M,0,145403,145637,181,150,209,135 M,0,145637,147669,209,135,217,135 M,0,147669,147825,217,135,837,135
Sprite,Foreground,Centre,"Lyrics\065.png",320,240 M,0,145169,145481,115,499,115,179 M,0,145481,147669,115,179,115,173 M,0,147669,147825,115,173,115,-67
Sprite,Foreground,Centre,"Lyrics\066.png",320,240 M,0,146575,146731,728,210,115,210 M,0,146731,147669,115,210,108,210 M,0,147669,147825,108,210,-263,210
Sprite,Foreground,Centre,"Lyrics\067.png",320,240 M,0,147981,148293,172,117 F,0,147981,148293,0,1 S,0,147981,148293,2,1 M,0,148293,150169,172,117,185,117 M,0,150169,150481,185,117,755,117
Sprite,Foreground,Centre,"Lyrics\068.png",320,240 M,0,148294,148606,739,157,216,157 M,0,148606,150169,216,157,203,157 M,0,150169,150481,203,157,-260,157
Sprite,Foreground,Centre,"Lyrics\069.png",320,240 M,0,150169,150794,188,-165,188,143 M,0,150794,152825,188,143,188,149 M,0,152825,152981,188,149,188,524
Sprite,Foreground,Centre,"Lyrics\0070.png",320,240 M,0,151106,151419,838,187,195,187 M,0,151419,152825,195,187,189,187 M,0,152825,152981,189,187,-209,187
Sprite,Foreground,Centre,"Lyrics\071.png",320,240 M,0,151731,152044,190,497,190,232 M,0,152044,152825,190,232,190,228 M,0,152825,152981,190,228,190,-124
Sprite,Foreground,Centre,"Lyrics\sa.png",320,240 F,0,152669,152825,0,1 S,0,152669,152825,2,0.5 F,0,152825,152981,1 S,0,152825,152981,0.5 F,0,152981,153294,1,0 S,0,152981,153294,0.5,2 M,0,153148,,320,240
Sprite,Foreground,Centre,"Lyrics\072.png",320,240 M,0,152981,153294,-213,76,231,76 M,0,153294,155169,231,76,264,76 M,0,155169,155325,264,76,968,76
Sprite,Foreground,Centre,"Lyrics\073.png",320,240 M,0,155169,155325,855,116,239,116 M,0,155325,157669,239,116,206,116 M,0,157669,157825,206,116,-156,116
Sprite,Foreground,Centre,"Lyrics\074.png",320,240 M,0,155950,156106,-144,160,169,160 M,0,156106,157669,169,160,192,160 M,0,157669,157825,192,160,836,160
Sprite,Foreground,Centre,"Lyrics\075.png",320,240 M,0,156575,156731,835,201,230,201 M,0,156731,157669,230,201,203,201 M,0,157669,157825,203,201,-216,201
Sprite,Foreground,Centre,"Lyrics\076.png",320,240 M,0,157981,,169,144 F,0,157981,158293,0,1 R,0,157981,158293,-3,0 S,0,157981,158294,2,1 F,0,158293,158450,1 S,0,158294,158450,1 F,0,158450,158606,1,0 S,0,158450,158606,1,2
Sprite,Foreground,Centre,"Lyrics\077.png",320,240 M,0,158450,158606,171,508,171,188 M,0,158606,160169,171,188,171,176 M,0,160169,160325,171,176,171,-122
Sprite,Foreground,Centre,"Lyrics\078.png",320,240 M,0,160325,160794,168,-77,168,222 M,0,160794,163450,168,222,168,232 F,0,163294,163606,1,0 S,0,163294,163606,1,1.5
Sprite,Foreground,Centre,"Lyrics\079.png",320,240 M,0,161106,161419,320,514,320,224 M,0,161419,163450,320,224,320,217 F,0,163294,163606,1,0 S,0,163294,163606,1,1.5
Sprite,Foreground,Centre,"Lyrics\0080.png",320,240 M,0,161731,162044,-172,271,238,271 M,0,162044,163450,238,271,247,271 F,0,163294,163606,1,0 S,0,163294,163606,1,1.5
Sprite,Foreground,Centre,"Lyrics\081.png",320,240 M,0,167512,167669,320,-32,320,240 F,0,168294,168606,1,0 S,0,168294,168606,1,2.904
Sprite,Foreground,Centre,"Lyrics\Aaaa.png",320,240 M,0,170481,170559,320,240,316,236 F,0,170481,170794,0,1 S,0,170481,172669,0.1,2.268 M,0,170559,170637,316,236,323,244 M,0,170637,170715,323,244,316,243 M,0,170715,170794,316,243,324,237 M,0,170794,170872,324,237,320,240 F,0,170794,172044,1 M,0,170872,170950,320,240,316,236 M,0,170950,171028,316,236,323,244 M,0,171028,171106,323,244,316,243 M,0,171106,171184,316,243,324,237 M,0,171184,171262,324,237,320,240 M,0,171262,171340,320,240,316,236 M,0,171340,171419,316,236,323,244 M,0,171419,171497,323,244,316,243 M,0,171497,171575,316,243,324,237 M,0,171575,171653,324,237,320,240 M,0,171653,171731,320,240,316,236 M,0,171731,171809,316,236,323,244 M,0,171809,171887,323,244,316,243 M,0,171887,171965,316,243,324,237 M,0,171965,172044,324,237,320,240 M,0,172044,172122,324,237,320,240 F,0,172044,172669,1,0 M,0,172122,172200,320,240,316,236 M,0,172200,172278,316,236,323,244 M,0,172278,172356,323,244,316,243 M,0,172356,172434,316,243,324,237 M,0,172434,172512,324,237,320,240 M,0,172512,172590,324,237,320,240 M,0,172590,172669,324,237,320,240
//Storyboard Sound Samples
//Background Colour Transformations
3,100,163,162,255

[TimingPoints]
794,312.5,4,1,0,80,1,0
43294,-100,4,1,0,80,0,1
53294,-100,4,1,0,80,0,0
93294,-100,4,1,0,80,0,1
103294,-100,4,1,0,80,0,0
143294,-100,4,1,0,80,0,1
163294,-100,4,1,0,80,0,0

[Colours]
Combo1 : 184,61,113
Combo2 : 96,48,32
Combo3 : 4,75,147
Combo4 : 67,30,98

[HitObjects]
256,192,794,1,4,0:0:0:0:
256,192,1262,1,12,0:0:0:0:
256,192,1731,1,4,0:0:0:0:
256,192,2200,1,8,0:0:0:0:
256,192,2356,1,0,0:0:0:0:
256,192,2512,1,0,0:0:0:0:
256,192,2669,1,8,0:0:0:0:
256,192,3294,5,0,0:0:0:0:
256,192,3450,1,0,0:0:0:0:
256,192,3606,1,8,0:0:0:0:
256,192,3919,1,0,0:0:0:0:
256,192,4075,1,0,0:0:0:0:
256,192,4231,1,8,0:0:0:0:
256,192,4544,1,0,0:0:0:0:
256,192,4700,1,0,0:0:0:0:
256,192,4856,1,8,0:0:0:0:
256,192,5012,1,0,0:0:0:0:
256,192,5169,1,8,0:0:0:0:
256,192,5481,1,8,0:0:0:0:
256,192,5794,1,0,0:0:0:0:
256,192,5950,1,0,0:0:0:0:
256,192,6106,1,8,0:0:0:0:
256,192,6419,1,0,0:0:0:0:
256,192,6575,1,0,0:0:0:0:
256,192,6731,1,8,0:0:0:0:
256,192,7044,1,8,0:0:0:0:
256,192,7200,1,8,0:0:0:0:
256,192,7356,1,0,0:0:0:0:
256,192,7512,1,8,0:0:0:0:
256,192,7669,1,8,0:0:0:0:
256,192,7981,1,8,0:0:0:0:
256,192,8294,1,0,0:0:0:0:
256,192,8450,1,0,0:0:0:0:
256,192,8606,1,8,0:0:0:0:
256,192,8919,1,0,0:0:0:0:
256,192,9075,1,0,0:0:0:0:
256,192,9231,1,8,0:0:0:0:
256,192,9544,1,0,0:0:0:0:
256,192,9700,1,0,0:0:0:0:
256,192,9856,1,8,0:0:0:0:
256,192,10012,1,0,0:0:0:0:
256,192,10169,1,8,0:0:0:0:
256,192,10481,1,8,0:0:0:0:
256,192,10794,1,0,0:0:0:0:
256,192,10950,1,0,0:0:0:0:
256,192,11106,1,8,0:0:0:0:
256,192,11419,1,0,0:0:0:0:
256,192,11575,1,0,0:0:0:0:
256,192,11731,1,8,0:0:0:0:
256,192,12044,1,8,0:0:0:0:
256,192,12200,1,8,0:0:0:0:
256,192,12356,1,0,0:0:0:0:
256,192,12512,1,0,0:0:0:0:
256,192,12669,1,0,0:0:0:0:
256,192,12981,1,12,0:0:0:0:
256,192,13294,5,4,0:0:0:0:
256,192,13450,1,8,0:0:0:0:
256,192,13762,1,8,0:0:0:0:
256,192,13919,1,0,0:0:0:0:
256,192,14075,1,8,0:0:0:0:
256,192,14387,1,8,0:0:0:0:
256,192,14544,1,8,0:0:0:0:
256,192,14700,1,0,0:0:0:0:
256,192,14856,1,8,0:0:0:0:
256,192,15012,1,8,0:0:0:0:
256,192,15325,1,8,0:0:0:0:
256,192,15637,1,0,0:0:0:0:
256,192,15794,1,8,0:0:0:0:
256,192,15950,1,0,0:0:0:0:
256,192,16262,1,0,0:0:0:0:
256,192,16575,1,0,0:0:0:0:
256,192,16887,1,0,0:0:0:0:
256,192,17044,1,8,0:0:0:0:
256,192,17200,1,0,0:0:0:0:
256,192,17512,1,0,0:0:0:0:
256,192,17669,1,8,0:0:0:0:
256,192,17825,1,8,0:0:0:0:
256,192,17981,1,8,0:0:0:0:
256,192,18137,1,8,0:0:0:0:
256,192,18294,1,0,0:0:0:0:
256,192,18450,1,8,0:0:0:0:
256,192,18762,1,8,0:0:0:0:
256,192,18919,1,0,0:0:0:0:
256,192,19075,1,8,0:0:0:0:
256,192,19387,1,8,0:0:0:0:
256,192,19544,1,8,0:0:0:0:
256,192,19700,1,8,0:0:0:0:
256,192,20012,1,0,0:0:0:0:
256,192,20169,1,0,0:0:0:0:
256,192,20325,1,0,0:0:0:0:
256,192,20637,1,0,0:0:0:0:
256,192,20794,1,8,0:0:0:0:
256,192,20950,1,8,0:0:0:0:
256,192,21262,1,8,0:0:0:0:
256,192,21419,1,8,0:0:0:0:
256,192,21575,1,0,0:0:0:0:
256,192,21887,1,0,0:0:0:0:
256,192,22044,1,8,0:0:0:0:
256,192,22200,1,8,0:0:0:0:
256,192,22356,1,0,0:0:0:0:
256,192,22512,1,0,0:0:0:0:
256,192,22669,1,8,0:0:0:0:
256,192,22981,1,12,0:0:0:0:
256,192,23294,5,4,0:0:0:0:
256,192,23450,1,8,0:0:0:0:
256,192,23762,1,8,0:0:0:0:
256,192,23919,1,0,0:0:0:0:
256,192,24075,1,8,0:0:0:0:
256,192,24387,1,0,0:0:0:0:
256,192,24544,1,0,0:0:0:0:
256,192,24700,1,0,0:0:0:0:
256,192,25012,1,8,0:0:0:0:
256,192,25169,1,0,0:0:0:0:
256,192,25325,1,8,0:0:0:0:
256,192,25637,1,0,0:0:0:0:
256,192,25794,1,8,0:0:0:0:
256,192,25950,1,0,0:0:0:0:
256,192,26262,1,8,0:0:0:0:
256,192,26575,1,8,0:0:0:0:
256,192,26887,1,0,0:0:0:0:
256,192,27044,1,8,0:0:0:0:
256,192,27200,1,0,0:0:0:0:
256,192,27512,1,0,0:0:0:0:
256,192,27669,1,8,0:0:0:0:
256,192,27825,1,8,0:0:0:0:
256,192,27981,1,8,0:0:0:0:
256,192,28137,1,8,0:0:0:0:
256,192,28294,1,0,0:0:0:0:
256,192,28450,1,8,0:0:0:0:
256,192,28762,1,8,0:0:0:0:
256,192,28919,1,0,0:0:0:0:
256,192,29075,1,8,0:0:0:0:
256,192,29387,1,8,0:0:0:0:
256,192,29544,1,8,0:0:0:0:
256,192,29700,1,8,0:0:0:0:
256,192,30012,1,0,0:0:0:0:
256,192,30169,1,0,0:0:0:0:
256,192,30325,1,0,0:0:0:0:
256,192,30637,1,0,0:0:0:0:
256,192,30794,1,8,0:0:0:0:
256,192,30950,1,8,0:0:0:0:
256,192,31262,1,8,0:0:0:0:
256,192,31419,1,8,0:0:0:0:
256,192,31575,1,0,0:0:0:0:
256,192,31887,1,0,0:0:0:0:
256,192,32044,1,8,0:0:0:0:
256,192,32200,1,8,0:0:0:0:
256,192,32356,1,0,0:0:0:0:
256,192,32512,1,0,0:0:0:0:
256,192,32669,1,8,0:0:0:0:
256,192,32981,1,12,0:0:0:0:
256,192,33294,5,0,0:0:0:0:
256,192,33450,1,0,0:0:0:0:
256,192,33606,1,8,0:0:0:0:
256,192,33762,1,0,0:0:0:0:
256,192,33919,1,0,0:0:0:0:
256,192,34231,1,8,0:0:0:0:
256,192,34544,1,0,0:0:0:0:
256,192,34700,1,8,0:0:0:0:
256,192,34856,1,8,0:0:0:0:
256,192,35012,1,8,0:0:0:0:
256,192,35169,1,0,0:0:0:0:
256,192,35481,1,12,0:0:0:0:
256,192,35794,1,0,0:0:0:0:
256,192,35950,1,0,0:0:0:0:
256,192,36106,1,8,0:0:0:0:
256,192,36262,1,0,0:0:0:0:
256,192,36419,1,0,0:0:0:0:
256,192,36731,1,8,0:0:0:0:
256,192,37044,1,8,0:0:0:0:
256,192,37200,1,8,0:0:0:0:
256,192,37356,1,0,0:0:0:0:
256,192,37512,1,0,0:0:0:0:
256,192,37669,1,0,0:0:0:0:
256,192,37981,1,8,0:0:0:0:
256,192,38294,1,4,0:0:0:0:
256,192,38450,1,4,0:0:0:0:
256,192,38762,1,12,0:0:0:0:
256,192,38919,1,12,0:0:0:0:
256,192,39231,1,8,0:0:0:0:
256,192,39544,1,8,0:0:0:0:
256,192,39700,1,8,0:0:0:0:
256,192,39856,1,8,0:0:0:0:
256,192,40012,1,0,0:0:0:0:
256,192,40169,1,8,0:0:0:0:
256,192,40481,1,8,0:0:0:0:
256,192,40794,1,0,0:0:0:0:
256,192,40950,1,0,0:0:0:0:
256,192,41106,1,8,0:0:0:0:
256,192,41262,1,0,0:0:0:0:
256,192,41419,1,0,0:0:0:0:
256,192,41575,1,0,0:0:0:0:
256,192,41731,1,8,0:0:0:0:
256,192,41887,1,0,0:0:0:0:
256,192,42200,1,0,0:0:0:0:
256,192,42356,1,8,0:0:0:0:
256,192,42512,1,0,0:0:0:0:
256,192,42669,1,0,0:0:0:0:
256,192,42981,1,8,0:0:0:0:
256,192,43294,5,4,0:0:0:0:
256,192,43606,1,8,0:0:0:0:
256,192,43919,1,0,0:0:0:0:
256,192,44231,1,8,0:0:0:0:
256,192,44387,1,0,0:0:0:0:
256,192,44544,1,0,0:0:0:0:
256,192,44700,1,0,0:0:0:0:
256,192,44856,1,8,0:0:0:0:
256,192,45012,1,8,0:0:0:0:
256,192,45325,1,0,0:0:0:0:
256,192,45481,1,8,0:0:0:0:
256,192,45637,1,0,0:0:0:0:
256,192,45794,1,0,0:0:0:0:
256,192,46106,1,8,0:0:0:0:
256,192,46262,1,0,0:0:0:0:
256,192,46419,1,8,0:0:0:0:
256,192,46731,1,8,0:0:0:0:
256,192,46887,1,0,0:0:0:0:
256,192,47044,1,8,0:0:0:0:
256,192,47356,1,8,0:0:0:0:
256,192,47669,1,8,0:0:0:0:
256,192,47981,1,8,0:0:0:0:
256,192,48137,1,8,0:0:0:0:
256,192,48294,1,4,0:0:0:0:
256,192,48606,1,8,0:0:0:0:
256,192,48919,1,0,0:0:0:0:
256,192,49231,1,8,0:0:0:0:
256,192,49387,1,0,0:0:0:0:
256,192,49544,1,0,0:0:0:0:
256,192,49700,1,0,0:0:0:0:
256,192,49856,1,8,0:0:0:0:
256,192,50012,1,8,0:0:0:0:
256,192,50325,1,0,0:0:0:0:
256,192,50481,1,8,0:0:0:0:
256,192,50637,1,0,0:0:0:0:
256,192,50794,1,0,0:0:0:0:
256,192,51106,1,8,0:0:0:0:
256,192,51262,1,0,0:0:0:0:
256,192,51419,1,8,0:0:0:0:
256,192,51731,1,8,0:0:0:0:
256,192,51887,1,8,0:0:0:0:
256,192,52044,1,4,0:0:0:0:
256,192,52356,1,12,0:0:0:0:
256,192,52669,1,4,0:0:0:0:
256,192,52981,1,12,0:0:0:0:
256,192,53294,1,4,0:0:0:0:
256,192,53606,5,8,0:0:0:0:
256,192,53762,1,0,0:0:0:0:
256,192,54075,1,0,0:0:0:0:
256,192,54231,1,8,0:0:0:0:
256,192,54700,1,8,0:0:0:0:
256,192,55012,1,8,0:0:0:0:
256,192,55169,1,0,0:0:0:0:
256,192,55325,1,0,0:0:0:0:
256,192,55481,1,8,0:0:0:0:
256,192,55794,1,4,0:0:0:0:
256,192,56106,1,8,0:0:0:0:
256,192,56262,1,0,0:0:0:0:
256,192,56575,1,0,0:0:0:0:
256,192,56731,1,8,0:0:0:0:
256,192,57200,1,0,0:0:0:0:
256,192,57356,1,0,0:0:0:0:
256,192,57512,1,8,0:0:0:0:
256,192,57669,1,8,0:0:0:0:
256,192,57825,1,0,0:0:0:0:
256,192,57981,1,0,0:0:0:0:
256,192,58137,1,8,0:0:0:0:
256,192,58294,1,4,0:0:0:0:
256,192,58606,1,8,0:0:0:0:
256,192,58762,1,0,0:0:0:0:
256,192,59075,1,0,0:0:0:0:
256,192,59231,1,8,0:0:0:0:
256,192,59700,1,0,0:0:0:0:
256,192,60012,1,0,0:0:0:0:
256,192,60169,1,8,0:0:0:0:
256,192,60325,1,8,0:0:0:0:
256,192,60481,1,0,0:0:0:0:
256,192,60794,1,4,0:0:0:0:
256,192,61262,1,12,0:0:0:0:
256,192,61731,1,12,0:0:0:0:
256,192,62200,1,8,0:0:0:0:
256,192,62512,1,8,0:0:0:0:
256,192,62825,1,8,0:0:0:0:
256,192,62981,1,8,0:0:0:0:
256,192,63294,5,4,0:0:0:0:
256,192,63450,1,8,0:0:0:0:
256,192,63762,1,8,0:0:0:0:
256,192,63919,1,0,0:0:0:0:
256,192,64075,1,8,0:0:0:0:
256,192,64387,1,8,0:0:0:0:
256,192,64544,1,8,0:0:0:0:
256,192,64700,1,0,0:0:0:0:
256,192,65012,1,8,0:0:0:0:
256,192,65169,1,0,0:0:0:0:
256,192,65325,1,8,0:0:0:0:
256,192,65637,1,0,0:0:0:0:
256,192,65794,1,8,0:0:0:0:
256,192,65950,1,0,0:0:0:0:
256,192,66262,1,0,0:0:0:0:
256,192,66575,1,0,0:0:0:0:
256,192,66887,1,0,0:0:0:0:
256,192,67044,1,8,0:0:0:0:
256,192,67200,1,0,0:0:0:0:
256,192,67512,1,0,0:0:0:0:
256,192,67669,1,8,0:0:0:0:
256,192,67825,1,8,0:0:0:0:
256,192,67981,1,8,0:0:0:0:
256,192,68137,1,8,0:0:0:0:
256,192,68294,1,0,0:0:0:0:
256,192,68450,1,8,0:0:0:0:
256,192,68762,1,8,0:0:0:0:
256,192,68919,1,0,0:0:0:0:
256,192,69075,1,8,0:0:0:0:
256,192,69387,1,8,0:0:0:0:
256,192,69544,1,8,0:0:0:0:
256,192,69700,1,8,0:0:0:0:
256,192,70012,1,0,0:0:0:0:
256,192,70169,1,0,0:0:0:0:
256,192,70325,1,0,0:0:0:0:
256,192,70637,1,0,0:0:0:0:
256,192,70794,1,8,0:0:0:0:
256,192,70950,1,8,0:0:0:0:
256,192,71262,1,8,0:0:0:0:
256,192,71419,1,8,0:0:0:0:
256,192,71575,1,0,0:0:0:0:
256,192,71887,1,0,0:0:0:0:
256,192,72044,1,8,0:0:0:0:
256,192,72200,1,8,0:0:0:0:
256,192,72356,1,0,0:0:0:0:
256,192,72512,1,0,0:0:0:0:
256,192,72669,1,8,0:0:0:0:
256,192,72981,1,12,0:0:0:0:
256,192,73294,5,4,0:0:0:0:
256,192,73450,1,8,0:0:0:0:
256,192,73762,1,8,0:0:0:0:
256,192,73919,1,0,0:0:0:0:
256,192,74075,1,8,0:0:0:0:
256,192,74387,1,0,0:0:0:0:
256,192,74544,1,0,0:0:0:0:
256,192,74700,1,0,0:0:0:0:
256,192,75012,1,8,0:0:0:0:
256,192,75169,1,0,0:0:0:0:
256,192,75325,1,8,0:0:0:0:
256,192,75637,1,0,0:0:0:0:
256,192,75794,1,8,0:0:0:0:
256,192,75950,1,0,0:0:0:0:
256,192,76262,1,0,0:0:0:0:
256,192,76419,1,8,0:0:0:0:
256,192,76575,1,8,0:0:0:0:
256,192,76887,1,0,0:0:0:0:
256,192,77044,1,8,0:0:0:0:
256,192,77200,1,0,0:0:0:0:
256,192,77512,1,0,0:0:0:0:
256,192,77669,1,8,0:0:0:0:
256,192,77825,1,8,0:0:0:0:
256,192,77981,1,8,0:0:0:0:
256,192,78137,1,8,0:0:0:0:
256,192,78294,1,0,0:0:0:0:
256,192,78450,1,8,0:0:0:0:
256,192,78762,1,8,0:0:0:0:
256,192,78919,1,0,0:0:0:0:
256,192,79075,1,8,0:0:0:0:
256,192,79387,1,8,0:0:0:0:
256,192,79544,1,8,0:0:0:0:
256,192,79700,1,8,0:0:0:0:
256,192,80012,1,0,0:0:0:0:
256,192,80169,1,0,0:0:0:0:
256,192,80325,1,0,0:0:0:0:
256,192,80637,1,0,0:0:0:0:
256,192,80794,1,8,0:0:0:0:
256,192,80950,1,8,0:0:0:0:
256,192,81262,1,8,0:0:0:0:
256,192,81575,1,0,0:0:0:0:
256,192,81887,1,0,0:0:0:0:
256,192,82044,1,8,0:0:0:0:
256,192,82200,1,8,0:0:0:0:
256,192,82356,1,0,0:0:0:0:
256,192,82512,1,0,0:0:0:0:
256,192,82669,1,8,0:0:0:0:
256,192,82981,1,12,0:0:0:0:
256,192,83294,5,0,0:0:0:0:
256,192,83450,1,0,0:0:0:0:
256,192,83606,1,8,0:0:0:0:
256,192,83762,1,0,0:0:0:0:
256,192,83919,1,0,0:0:0:0:
256,192,84231,1,8,0:0:0:0:
256,192,84544,1,0,0:0:0:0:
256,192,84700,1,8,0:0:0:0:
256,192,84856,1,8,0:0:0:0:
256,192,85012,1,8,0:0:0:0:
256,192,85169,1,0,0:0:0:0:
256,192,85481,1,12,0:0:0:0:
256,192,85794,1,0,0:0:0:0:
256,192,85950,1,0,0:0:0:0:
256,192,86106,1,8,0:0:0:0:
256,192,86262,1,0,0:0:0:0:
256,192,86419,1,0,0:0:0:0:
256,192,86731,1,8,0:0:0:0:
256,192,87044,1,8,0:0:0:0:
256,192,87200,1,8,0:0:0:0:
256,192,87356,1,0,0:0:0:0:
256,192,87512,1,0,0:0:0:0:
256,192,87669,1,0,0:0:0:0:
256,192,87981,1,8,0:0:0:0:
256,192,88294,1,4,0:0:0:0:
256,192,88450,1,4,0:0:0:0:
256,192,88762,1,12,0:0:0:0:
256,192,88919,1,12,0:0:0:0:
256,192,89231,1,8,0:0:0:0:
256,192,89544,1,8,0:0:0:0:
256,192,89700,1,8,0:0:0:0:
256,192,89856,1,8,0:0:0:0:
256,192,90012,1,0,0:0:0:0:
256,192,90169,1,8,0:0:0:0:
256,192,90481,1,8,0:0:0:0:
256,192,90794,1,0,0:0:0:0:
256,192,90950,1,0,0:0:0:0:
256,192,91106,1,8,0:0:0:0:
256,192,91262,1,0,0:0:0:0:
256,192,91419,1,0,0:0:0:0:
256,192,91575,1,0,0:0:0:0:
256,192,91731,1,8,0:0:0:0:
256,192,91887,1,0,0:0:0:0:
256,192,92200,1,0,0:0:0:0:
256,192,92356,1,8,0:0:0:0:
256,192,92512,1,0,0:0:0:0:
256,192,92669,1,0,0:0:0:0:
256,192,92981,1,8,0:0:0:0:
256,192,93294,5,4,0:0:0:0:
256,192,93606,1,8,0:0:0:0:
256,192,93919,1,0,0:0:0:0:
256,192,94231,1,8,0:0:0:0:
256,192,94387,1,0,0:0:0:0:
256,192,94544,1,0,0:0:0:0:
256,192,94700,1,0,0:0:0:0:
256,192,94856,1,8,0:0:0:0:
256,192,95012,1,8,0:0:0:0:
256,192,95325,1,0,0:0:0:0:
256,192,95481,1,8,0:0:0:0:
256,192,95637,1,0,0:0:0:0:
256,192,95794,1,0,0:0:0:0:
256,192,96106,1,8,0:0:0:0:
256,192,96262,1,8,0:0:0:0:
256,192,96419,1,0,0:0:0:0:
256,192,96731,1,8,0:0:0:0:
256,192,96887,1,0,0:0:0:0:
256,192,97044,1,8,0:0:0:0:
256,192,97200,1,0,0:0:0:0:
256,192,97356,1,8,0:0:0:0:
256,192,97512,1,0,0:0:0:0:
256,192,97669,1,8,0:0:0:0:
256,192,97981,1,8,0:0:0:0:
256,192,98137,1,8,0:0:0:0:
256,192,98294,1,4,0:0:0:0:
256,192,98606,1,8,0:0:0:0:
256,192,98919,2,0,L|416:192,1,140
256,192,99387,1,0,0:0:0:0:
256,192,99544,1,8,0:0:0:0:
256,192,99700,1,0,0:0:0:0:
256,192,99856,1,8,0:0:0:0:
256,192,100012,1,8,0:0:0:0:
256,192,100325,1,0,0:0:0:0:
256,192,100481,1,8,0:0:0:0:
256,192,100637,1,0,0:0:0:0:
256,192,100794,1,0,0:0:0:0:
256,192,101106,1,8,0:0:0:0:
256,192,101262,1,0,0:0:0:0:
256,192,101419,1,0,0:0:0:0:
256,192,101731,1,8,0:0:0:0:
256,192,101887,1,8,0:0:0:0:
256,192,102044,1,4,0:0:0:0:
256,192,102356,1,12,0:0:0:0:
256,192,102669,1,4,0:0:0:0:
256,192,102981,1,12,0:0:0:0:
256,192,103294,1,4,0:0:0:0:
256,192,103606,5,8,0:0:0:0:
256,192,103762,1,0,0:0:0:0:
256,192,103919,1,0,0:0:0:0:
256,192,104231,1,8,0:0:0:0:
256,192,104387,1,0,0:0:0:0:
256,192,104544,1,8,0:0:0:0:
256,192,104700,1,8,0:0:0:0:
256,192,104856,1,0,0:0:0:0:
256,192,105012,1,8,0:0:0:0:
256,192,105481,1,8,0:0:0:0:
256,192,105794,1,4,0:0:0:0:
256,192,106106,1,8,0:0:0:0:
256,192,106262,1,0,0:0:0:0:
256,192,106731,1,8,0:0:0:0:
256,192,107044,1,4,0:0:0:0:
256,192,107356,1,8,0:0:0:0:
256,192,107512,1,0,0:0:0:0:
256,192,107981,1,8,0:0:0:0:
256,192,108294,5,12,0:0:0:0:
256,192,108607,1,8,0:0:0:0:
256,192,108762,1,0,0:0:0:0:
256,192,108919,1,0,0:0:0:0:
256,192,109231,1,8,0:0:0:0:
256,192,109388,1,0,0:0:0:0:
256,192,109544,1,8,0:0:0:0:
256,192,109700,1,0,0:0:0:0:
256,192,109857,1,8,0:0:0:0:
256,192,110012,1,8,0:0:0:0:
256,192,110481,1,8,0:0:0:0:
256,192,110794,1,4,0:0:0:0:
256,192,111262,1,4,0:0:0:0:
256,192,111731,1,4,0:0:0:0:
256,192,112044,1,12,0:0:0:0:
256,192,112512,1,12,0:0:0:0:
256,192,112981,1,12,0:0:0:0:
256,192,113294,1,0,0:0:0:0:
256,192,113606,5,8,0:0:0:0:
256,192,113762,1,0,0:0:0:0:
256,192,113919,1,0,0:0:0:0:
256,192,114231,1,8,0:0:0:0:
256,192,114387,1,0,0:0:0:0:
256,192,114544,1,8,0:0:0:0:
256,192,114700,1,8,0:0:0:0:
256,192,114856,1,0,0:0:0:0:
256,192,115012,1,8,0:0:0:0:
256,192,115481,1,8,0:0:0:0:
256,192,115794,1,4,0:0:0:0:
256,192,116262,1,4,0:0:0:0:
256,192,116731,1,4,0:0:0:0:
256,192,117044,1,12,0:0:0:0:
256,192,117512,1,12,0:0:0:0:
256,192,117981,1,12,0:0:0:0:
256,192,118294,5,8,0:0:0:0:
256,192,118450,1,0,0:0:0:0:
256,192,118607,1,8,0:0:0:0:
256,192,118919,1,0,0:0:0:0:
256,192,119075,1,8,0:0:0:0:
256,192,119231,1,0,0:0:0:0:
256,192,119544,1,8,0:0:0:0:
256,192,119700,1,0,0:0:0:0:
256,192,119856,1,8,0:0:0:0:
256,192,120012,1,8,0:0:0:0:
256,192,120169,1,8,0:0:0:0:
256,192,120481,1,8,0:0:0:0:
256,192,120794,1,4,0:0:0:0:
256,192,121262,1,0,0:0:0:0:
256,192,121731,1,8,0:0:0:0:
256,192,122200,1,0,0:0:0:0:
256,192,122669,1,0,0:0:0:0:
256,192,122981,1,8,0:0:0:0:
256,192,123294,1,4,0:0:0:0:
256,192,123606,5,0,0:0:0:0:
256,192,123919,1,0,0:0:0:0:
256,192,124231,1,0,0:0:0:0:
256,192,124544,1,0,0:0:0:0:
256,192,124856,1,0,0:0:0:0:
256,192,125169,1,0,0:0:0:0:
256,192,125481,1,0,0:0:0:0:
256,192,125794,1,8,0:0:0:0:
256,192,126106,1,0,0:0:0:0:
256,192,126419,1,0,0:0:0:0:
256,192,126731,1,0,0:0:0:0:
256,192,127044,1,0,0:0:0:0:
256,192,127356,1,0,0:0:0:0:
256,192,127669,1,0,0:0:0:0:
256,192,127981,1,0,0:0:0:0:
256,192,128294,1,8,0:0:0:0:
256,192,128606,1,0,0:0:0:0:
256,192,128919,1,0,0:0:0:0:
256,192,129231,1,0,0:0:0:0:
256,192,129544,1,8,0:0:0:0:
256,192,129856,1,0,0:0:0:0:
256,192,130169,1,0,0:0:0:0:
256,192,130481,1,0,0:0:0:0:
256,192,130794,1,8,0:0:0:0:
256,192,131106,1,0,0:0:0:0:
256,192,131419,1,0,0:0:0:0:
256,192,131731,1,0,0:0:0:0:
256,192,132044,1,8,0:0:0:0:
256,192,132356,1,0,0:0:0:0:
256,192,132669,1,0,0:0:0:0:
256,192,132981,1,0,0:0:0:0:
256,192,133294,1,12,0:0:0:0:
256,192,133606,1,8,0:0:0:0:
256,192,134231,1,8,0:0:0:0:
256,192,134544,1,0,0:0:0:0:
256,192,134856,1,8,0:0:0:0:
256,192,135012,1,0,0:0:0:0:
256,192,135481,1,8,0:0:0:0:
256,192,135794,1,0,0:0:0:0:
256,192,136106,1,8,0:0:0:0:
256,192,136731,1,8,0:0:0:0:
256,192,137044,1,0,0:0:0:0:
256,192,137356,1,8,0:0:0:0:
256,192,137512,1,0,0:0:0:0:
256,192,137981,1,8,0:0:0:0:
256,192,138294,1,0,0:0:0:0:
256,192,138606,1,0,0:0:0:0:
256,192,138919,1,8,0:0:0:0:
256,192,139231,1,8,0:0:0:0:
256,192,139544,1,0,0:0:0:0:
256,192,139856,1,8,0:0:0:0:
256,192,140012,1,0,0:0:0:0:
256,192,140481,1,8,0:0:0:0:
256,192,140794,1,0,0:0:0:0:
256,192,140950,1,0,0:0:0:0:
256,192,141106,1,8,0:0:0:0:
256,192,141262,1,0,0:0:0:0:
256,192,141419,1,0,0:0:0:0:
256,192,141731,1,8,0:0:0:0:
256,192,142044,1,8,0:0:0:0:
256,192,142200,1,8,0:0:0:0:
256,192,142356,1,0,0:0:0:0:
256,192,142512,1,0,0:0:0:0:
256,192,142669,1,8,0:0:0:0:
256,192,142825,1,8,0:0:0:0:
256,192,142981,1,0,0:0:0:0:
256,192,143294,1,4,0:0:0:0:
256,192,143606,5,8,0:0:0:0:
256,192,143919,1,0,0:0:0:0:
256,192,144231,1,8,0:0:0:0:
256,192,144387,1,0,0:0:0:0:
256,192,144544,1,0,0:0:0:0:
256,192,144700,1,0,0:0:0:0:
256,192,144856,1,8,0:0:0:0:
256,192,145012,1,8,0:0:0:0:
256,192,145325,1,0,0:0:0:0:
256,192,145481,1,8,0:0:0:0:
256,192,145637,1,0,0:0:0:0:
256,192,145794,1,0,0:0:0:0:
256,192,146106,1,8,0:0:0:0:
256,192,146262,1,0,0:0:0:0:
256,192,146419,1,8,0:0:0:0:
256,192,146731,1,8,0:0:0:0:
256,192,146887,1,0,0:0:0:0:
256,192,147044,1,8,0:0:0:0:
256,192,147200,1,0,0:0:0:0:
256,192,147356,1,8,0:0:0:0:
256,192,147512,1,0,0:0:0:0:
256,192,147669,1,8,0:0:0:0:
256,192,147981,1,8,0:0:0:0:
256,192,148137,1,8,0:0:0:0:
256,192,148294,1,4,0:0:0:0:
256,192,148606,1,8,0:0:0:0:
256,192,148919,1,0,0:0:0:0:
256,192,149231,1,8,0:0:0:0:
256,192,149387,1,0,0:0:0:0:
256,192,149544,1,0,0:0:0:0:
256,192,149700,1,0,0:0:0:0:
256,192,149856,1,8,0:0:0:0:
256,192,150012,1,0,0:0:0:0:
256,192,150325,1,0,0:0:0:0:
256,192,150481,1,8,0:0:0:0:
256,192,150637,1,0,0:0:0:0:
256,192,150794,1,0,0:0:0:0:
256,192,151106,1,8,0:0:0:0:
256,192,151262,1,0,0:0:0:0:
256,192,151419,1,8,0:0:0:0:
256,192,151731,1,8,0:0:0:0:
256,192,151887,1,8,0:0:0:0:
256,192,152044,1,0,0:0:0:0:
256,192,152356,1,12,0:0:0:0:
256,192,152669,1,0,0:0:0:0:
256,192,152981,1,12,0:0:0:0:
256,192,153294,1,4,0:0:0:0:
256,192,153606,5,8,0:0:0:0:
256,192,153919,1,0,0:0:0:0:
256,192,154231,1,8,0:0:0:0:
256,192,154387,1,0,0:0:0:0:
256,192,154544,1,0,0:0:0:0:
256,192,154700,1,0,0:0:0:0:
256,192,154856,1,8,0:0:0:0:
256,192,155012,1,0,0:0:0:0:
256,192,155325,1,0,0:0:0:0:
256,192,155481,1,8,0:0:0:0:
256,192,155637,1,0,0:0:0:0:
256,192,155794,1,0,0:0:0:0:
256,192,156106,1,8,0:0:0:0:
256,192,156262,1,8,0:0:0:0:
256,192,156419,1,0,0:0:0:0:
256,192,156731,1,8,0:0:0:0:
256,192,156887,1,0,0:0:0:0:
256,192,157044,1,8,0:0:0:0:
256,192,157200,1,0,0:0:0:0:
256,192,157356,1,8,0:0:0:0:
256,192,157512,1,0,0:0:0:0:
256,192,157669,1,8,0:0:0:0:
256,192,157981,1,8,0:0:0:0:
256,192,158137,1,8,0:0:0:0:
256,192,158294,1,4,0:0:0:0:
256,192,158606,1,8,0:0:0:0:
256,192,158919,1,0,0:0:0:0:
256,192,159231,1,8,0:0:0:0:
256,192,159387,1,0,0:0:0:0:
256,192,159544,1,8,0:0:0:0:
256,192,159700,1,0,0:0:0:0:
256,192,159856,1,8,0:0:0:0:
256,192,160012,1,8,0:0:0:0:
256,192,160325,1,0,0:0:0:0:
256,192,160481,1,8,0:0:0:0:
256,192,160637,1,0,0:0:0:0:
256,192,160794,1,0,0:0:0:0:
256,192,161106,1,8,0:0:0:0:
256,192,161262,1,0,0:0:0:0:
256,192,161419,1,0,0:0:0:0:
256,192,161731,1,8,0:0:0:0:
256,192,161887,1,8,0:0:0:0:
256,192,162044,1,4,0:0:0:0:
256,192,162356,1,12,0:0:0:0:
256,192,162669,1,4,0:0:0:0:
256,192,162981,1,12,0:0:0:0:
256,192,163294,1,4,0:0:0:0:
256,192,163606,5,8,0:0:0:0:
256,192,163919,1,0,0:0:0:0:
256,192,164231,1,8,0:0:0:0:
256,192,164387,1,0,0:0:0:0:
256,192,164544,1,0,0:0:0:0:
256,192,164700,1,8,0:0:0:0:
256,192,165012,1,0,0:0:0:0:
256,192,165325,1,0,0:0:0:0:
256,192,165481,1,8,0:0:0:0:
256,192,165794,1,4,0:0:0:0:
256,192,166106,1,4,0:0:0:0:
256,192,166419,1,4,0:0:0:0:
256,192,166731,1,4,0:0:0:0:
256,192,167044,1,0,0:0:0:0:
256,192,167356,1,8,0:0:0:0:
256,192,167512,1,8,0:0:0:0:
256,192,167669,1,0,0:0:0:0:
256,192,167825,1,0,0:0:0:0:
256,192,167981,1,8,0:0:0:0:
256,192,168294,1,4,0:0:0:0:
256,192,168606,1,8,0:0:0:0:
256,192,168919,1,0,0:0:0:0:
256,192,169231,1,8,0:0:0:0:
256,192,169387,1,0,0:0:0:0:
256,192,169544,1,0,0:0:0:0:
256,192,169700,1,8,0:0:0:0:
256,192,170012,1,0,0:0:0:0:
256,192,170325,1,0,0:0:0:0:
256,192,170481,1,8,0:0:0:0:
256,192,170794,2,0,L|416:192,4,140
256,192,172669,1,8,0:0:0:0:
256,192,172981,1,8,0:0:0:0:
256,192,173137,1,8,0:0:0:0:
256,192,173294,1,4,0:0:0:0:
256,192,173606,1,8,0:0:0:0:
256,192,173919,1,0,0:0:0:0:
256,192,174231,1,8,0:0:0:0:
256,192,174387,1,0,0:0:0:0:
256,192,174544,1,0,0:0:0:0:
256,192,174700,1,8,0:0:0:0:
256,192,175012,1,0,0:0:0:0:
256,192,175325,1,0,0:0:0:0:
256,192,175481,1,8,0:0:0:0:
256,192,175794,1,4,0:0:0:0:
256,192,176106,1,4,0:0:0:0:
256,192,176419,1,4,0:0:0:0:
256,192,176731,1,4,0:0:0:0:
256,192,177044,1,8,0:0:0:0:
256,192,177200,1,8,0:0:0:0:
256,192,177356,1,0,0:0:0:0:
256,192,177512,1,8,0:0:0:0:
256,192,177669,1,8,0:0:0:0:
256,192,177825,1,0,0:0:0:0:
256,192,177981,1,0,0:0:0:0:
256,192,178294,1,4,0:0:0:0:
256,192,178606,1,8,0:0:0:0:
256,192,178919,1,0,0:0:0:0:
256,192,179231,1,8,0:0:0:0:
256,192,179387,1,0,0:0:0:0:
256,192,179544,1,0,0:0:0:0:
256,192,179700,1,8,0:0:0:0:
256,192,180012,1,0,0:0:0:0:
256,192,180325,1,0,0:0:0:0:
256,192,180481,1,8,0:0:0:0:
256,192,180794,1,4,0:0:0:0:
256,192,181106,1,4,0:0:0:0:
256,192,181419,1,4,0:0:0:0:
256,192,181731,1,4,0:0:0:0:
256,192,182044,1,0,0:0:0:0:
256,192,182200,1,0,0:0:0:0:
256,192,182356,1,8,0:0:0:0:
256,192,182512,1,0,0:0:0:0:
256,192,182669,1,0,0:0:0:0:
256,192,182825,1,0,0:0:0:0:
256,192,182981,1,8,0:0:0:0:
256,192,183294,5,0,0:0:0:0:
256,192,183450,1,0,0:0:0:0:
256,192,183606,1,8,0:0:0:0:
256,192,183919,1,0,0:0:0:0:
256,192,184075,1,0,0:0:0:0:
256,192,184231,1,8,0:0:0:0:
256,192,184544,1,0,0:0:0:0:
256,192,184700,1,0,0:0:0:0:
256,192,184856,1,8,0:0:0:0:
256,192,185012,1,0,0:0:0:0:
256,192,185169,1,8,0:0:0:0:
256,192,185481,1,8,0:0:0:0:
256,192,185794,1,0,0:0:0:0:
256,192,185950,1,0,0:0:0:0:
256,192,186106,1,8,0:0:0:0:
256,192,186419,1,0,0:0:0:0:
256,192,186575,1,0,0:0:0:0:
256,192,186731,1,8,0:0:0:0:
256,192,187044,1,8,0:0:0:0:
256,192,187200,1,8,0:0:0:0:
256,192,187356,1,0,0:0:0:0:
256,192,187512,1,8,0:0:0:0:
256,192,187669,1,8,0:0:0:0:
256,192,187981,1,8,0:0:0:0:
256,192,188294,1,0,0:0:0:0:
256,192,188450,1,0,0:0:0:0:
256,192,188606,1,8,0:0:0:0:
256,192,188919,1,0,0:0:0:0:
256,192,189075,1,0,0:0:0:0:
256,192,189231,1,8,0:0:0:0:
256,192,189544,1,0,0:0:0:0:
256,192,189700,1,0,0:0:0:0:
256,192,189856,1,8,0:0:0:0:
256,192,190012,1,0,0:0:0:0:
256,192,190169,1,8,0:0:0:0:
256,192,190481,1,8,0:0:0:0:
256,192,190794,1,0,0:0:0:0:
256,192,190950,1,0,0:0:0:0:
256,192,191106,1,8,0:0:0:0:
256,192,191419,1,0,0:0:0:0:
256,192,191575,1,0,0:0:0:0:
256,192,191731,1,8,0:0:0:0:
256,192,192044,1,0,0:0:0:0:
256,192,192200,1,0,0:0:0:0:
256,192,192356,1,8,0:0:0:0:
256,192,192512,1,8,0:0:0:0:
256,192,192669,1,4,0:0:0:0:
