osu file format v12

[General]
AudioFilename: e aa sou.mp3
AudioLeadIn: 1500
PreviewTime: 40750
Countdown: 0
SampleSet: Normal
StackLeniency: 0.7
Mode: 0
LetterboxInBreaks: 0

[Editor]
Bookmarks: 50481,63250,167468,183250,187937,192625
DistanceSpacing: 0.8
BeatDivisor: 4
GridSize: 4

[Metadata]
Title:E? Aa, Sou
TitleUnicode:え?あぁ、そう
Artist:Dasoku
ArtistUnicode:蛇足
Creator:Teru21
Version:Easy
Source:Choucho-P
Tags:papiyon hatsune miku vocaloid vocaloid2 winber1 niconicodouga Hinsvar -_t_e_n_n_y_a_-
BeatmapID:132740
BeatmapSetID:42156

[Difficulty]
HPDrainRate:1
CircleSize:3
OverallDifficulty:1
ApproachRate:2
SliderMultiplier:0.7
SliderTickRate:1

[Events]
//Background and Video events
0,0,"dasoku.jpg",0,0
//Break Periods
2,3494,11734
2,53494,61734
2,103494,111734
2,163493,166109
2,168494,169234
2,175994,176734
2,180681,181734
//Storyboard Layer 0 (Background)
//Storyboard Layer 1 (Fail)
//Storyboard Layer 2 (Pass)
//Storyboard Layer 3 (Foreground)
Sprite,Foreground,Centre,"dasoku.jpg",320,240 M,0,32981,33294,320,240,294,319 S,0,32981,33294,0.625,1 M,0,33294,35637,294,319 S,0,33294,35637,1 M,0,35637,35794,294,319,294,166 S,0,35637,35794,1,1.3 S,0,35794,38137,1.3 M,0,35794,40637,294,166 S,0,38137,38294,1.3,0.9 S,0,38294,40637,0.9 M,0,40637,40794,294,166,183,414 S,0,40637,40794,0.9,1.3 M,0,40794,41635,183,414 S,0,40794,42512,1.3 M,0,41635,42512,183,414 M,0,42512,42669,183,414 S,0,42512,42669,1.3 M,0,42669,42903,183,414 S,0,42669,43294,1.3 F,0,43294,,1 F,0,43294,43606,1,0 S,0,43294,43606,1.3,1.844 M,0,82981,83294,320,240,294,319 S,0,82981,83294,0.625,1 M,0,83294,85637,294,319 S,0,83294,85637,1 M,0,85637,85794,294,319,294,315 S,0,85637,85794,1,1.3 M,0,85794,88137,294,315 S,0,85794,88137,1.3 M,0,88137,88294,294,315 S,0,88137,88294,1.3,0.9 M,0,88294,90637,294,315 S,0,88294,90637,0.9 M,0,90637,90794,294,315,183,414 S,0,90637,90794,0.9,1.3 M,0,90794,91635,183,414 S,0,90794,92512,1.3 M,0,91635,92512,183,414 M,0,92512,92669,183,414 S,0,92512,92669,1.3 M,0,92669,92825,183,414 S,0,92669,93294,1.3 M,0,92825,92903,183,414 F,0,93294,,1 F,0,93294,93606,1,0 S,0,93294,93606,1.3,1.8
Sprite,Foreground,Centre,"dasoku.jpg",320,240 M,0,82981,83294,320,240,294,319 S,0,82981,83294,0.625,1 M,0,83294,85637,294,319 S,0,83294,85637,1 M,0,85637,85794,294,319,628,66 S,0,85637,85794,1,1.3 M,0,85794,88137,628,66 S,0,85794,88137,1.3 M,0,88137,88294,628,66,450,240 S,0,88137,88294,1.3,0.9 M,0,88294,90637,450,240 S,0,88294,90637,0.9 M,0,90637,90794,450,240,183,414 S,0,90637,90794,0.9,1.3 M,0,90794,91635,183,414 S,0,90794,92512,1.3 M,0,91635,92512,183,414 M,0,92512,92669,183,414 S,0,92512,92669,1.3 M,0,92669,92903,183,414 S,0,92669,93294,1.3 F,0,93294,,1 F,0,93294,93606,1,0 S,0,93294,93606,1.3,1.8
Sprite,Foreground,Centre,"dasoku.jpg",320,240 M,0,152981,153294,320,240,191,406 S,0,152981,153294,0.625,1.2 M,0,153294,163294,191,406 M,0,163294,163606,191,406 F,0,163294,163606,1,0 S,0,163294,163606,1.2,1.5
Sprite,Foreground,Centre,"dasokulight.jpg",320,240 S,0,3137,,0.625 F,0,3137,3294,0,1 F,0,3294,3919,1,0 F,0,3919,8137,0 F,0,8137,8294,0,1 F,0,8294,8606,1,0 F,0,8606,13137,0 F,0,13137,13294,0,1 F,0,13294,13606,1,0 F,0,13606,18137,0 F,0,18137,18294,0,1 F,0,18294,18606,1,0 F,0,18606,23137,0 F,0,23137,23294,0,1 F,0,23294,23606,1,0 F,0,23606,28137,0 F,0,28137,28294,0,1 F,0,28294,28606,1,0 F,0,28606,48137,0 F,0,48137,48294,0,1 F,0,48294,48606,1,0 F,0,48606,53137,0 F,0,53137,53294,0,1 F,0,53294,53606,1,0 F,0,53606,58137,0 F,0,58137,58294,0,1 F,0,58294,58606,1,0 F,0,58606,60637,0 F,0,60637,60794,0,1 F,0,60794,61106,1,0 F,0,61106,63137,0 F,0,63137,63294,0,1 F,0,63294,63606,1,0 F,0,63606,68137,0 F,0,68137,68294,0,1 F,0,68294,68606,1,0 F,0,68606,73137,0 F,0,73137,73294,0,1 F,0,73294,73606,1,0 F,0,73606,78137,0 F,0,78137,78294,0,1 F,0,78294,78606,1,0 F,0,78606,98137,0 F,0,98137,98294,0,1 F,0,98294,98606,1,0 F,0,98606,103137,0 F,0,103137,103294,0,1 F,0,103294,103606,1,0 F,0,103606,108137,0 F,0,108137,108294,0,1 F,0,108294,108606,1,0 F,0,108606,113137,0 F,0,113137,113294,0,1 F,0,113294,113606,1,0 F,0,113606,118137,0 F,0,118137,118294,0,1 F,0,118294,118606,1,0 F,0,118606,121262,0 F,0,121262,121419,0,1 F,0,121419,121731,1,0 F,0,121731,123137,0 F,0,123137,123294,0,1 F,0,123294,123606,1,0 F,0,123606,133137,0 F,0,133137,133294,0,1 F,0,133294,133606,1,0 F,0,133606,143137,0 F,0,143137,143294,0,1 F,0,143294,143606,1,0 F,0,143606,148137,0 F,0,148137,148294,0,1 F,0,148294,148606,1,0 F,0,148606,168137,0 F,0,168137,168294,0,1 F,0,168294,168606,1,0 F,0,168606,173137,0 F,0,173137,173294,0,1 F,0,173294,173606,1,0 F,0,173606,178137,0 F,0,178137,178294,0,1 F,0,178294,178606,1,0 F,0,178606,183137,0 F,0,183137,183294,0,1 F,0,183294,183606,1,0 F,0,183606,185637,0 F,0,185637,185794,0,1 F,0,185794,186106,1,0 F,0,186106,188137,0 F,0,188137,188294,0,1 F,0,188294,188606,1,0 F,0,188606,190637,0 F,0,190637,190794,0,1 F,0,190794,191106,1,0
Sprite,Foreground,Centre,"Lyrics\001.png",320,240 M,0,12669,13294,-400,140,210,140 M,0,13294,17669,210,140,230,140 M,0,17669,17825,230,140,800,140
Sprite,Foreground,Centre,"Lyrics\002.png",320,240 M,0,15325,15637,478,181,230,181 F,0,15325,15637,0,1 M,0,15637,17669,230,181,210,181 M,0,17669,17825,210,181,-140,181
Sprite,Foreground,Centre,"Lyrics\003.png",320,240 M,0,17825,18294,-400,140,210,140 M,0,18294,19387,210,140,230,140 M,0,19387,19856,230,140,-400,140
Sprite,Foreground,Centre,"Lyrics\004.png",320,240 M,0,19231,19387,689,140,276,140 M,0,19387,20012,276,140,263,140 M,0,20012,20481,263,140,-400,140
Sprite,Foreground,Centre,"Lyrics\005.png",320,240 M,0,19856,20012,561,140,281,140 M,0,20012,22512,281,140,267,140 M,0,22512,22669,267,140,-64,140
Sprite,Foreground,Centre,"Lyrics\006.png",320,240 M,0,20481,20794,-400,181,210,181 M,0,20794,22512,210,181,228,181 M,0,22512,22669,228,181,773,181
Sprite,Foreground,Centre,"Lyrics\007.png",320,240 M,0,22669,23294,-400,140,210,140 M,0,23294,24544,210,140,215,140 M,0,24544,24700,215,140,216,503
Sprite,Foreground,Centre,"Lyrics\0010.png",320,240 M,0,25481,25637,344,181,230,181 F,0,25481,25637,0,1 M,0,25637,27669,230,181,217,181 M,0,27669,27825,217,181,-140,181
Sprite,Foreground,Centre,"Lyrics\008.png",320,240 M,0,24387,24544,217,-26,217,127 M,0,24544,25169,217,127,217,135 M,0,25169,25325,217,135,217,514
Sprite,Foreground,Centre,"Lyrics\009.png",320,240 M,0,25012,25169,217,-24,217,127 M,0,25169,25637,217,127,217,128 M,0,25637,27669,217,128,217,133 M,0,27669,27825,217,133,217,496
Sprite,Foreground,Centre,"Lyrics\011.png",320,240 M,0,27825,28294,-400,140,210,140 M,0,28294,29231,210,140,213,140 M,0,29231,29387,213,140,109,140 M,0,29387,32669,109,140,156,140 M,0,32669,32825,156,140,800,140
Sprite,Foreground,Centre,"Lyrics\012.png",320,240 M,0,29075,29231,650,140,331,140 F,0,29075,29387,0,1 M,0,29231,29387,331,140,234,140 M,0,29387,29544,234,140,251,140 M,0,29544,32669,251,140,297,140 M,0,32669,32825,297,140,490,140
Sprite,Foreground,Centre,"Lyrics\013.png",320,240 M,0,30481,30637,344,181,230,181 F,0,30481,30637,0,1 M,0,30637,32669,230,181,210,181 M,0,32669,32825,210,181,-140,181
Sprite,Foreground,Centre,"Lyrics\Aaaa.png",320,240 F,0,32669,32825,0,1 S,0,32669,32825,2,0.5 F,0,32825,32981,1 S,0,32825,32981,0.5 F,0,32981,33294,1,0 S,0,32981,33294,0.5,2 M,0,33148,,320,240
Sprite,Foreground,Centre,"Lyrics\014.png",320,240 M,0,33137,33294,-92,112,220,112 M,0,33294,34544,220,112,239,112 M,0,34544,34700,239,112,239,-55
Sprite,Foreground,Centre,"Lyrics\015.png",320,240 M,0,34387,34544,241,498,241,121 M,0,34544,35637,241,121,241,110 F,0,35481,35637,1,0 S,0,35481,35637,1,2
Sprite,Foreground,Centre,"Lyrics\016.png",320,240 M,0,35481,35794,481,502,481,288 M,0,35794,37044,481,288,481,280 M,0,37044,37200,481,280,806,280
Sprite,Foreground,Centre,"Lyrics\017.png",320,240 M,0,36887,37044,-194,282,402,282 M,0,37044,38137,402,282,416,282 F,0,37981,38137,1,0 S,0,37981,38137,1,2
Sprite,Foreground,Centre,"Lyrics\018.png",320,240 F,0,37981,38294,0,1 S,0,37981,38294,2,1 M,0,37981,39544,147,375 M,0,39544,,147,375 M,0,39544,39700,147,375,-238,375
Sprite,Foreground,Centre,"Lyrics\019.png",320,240 M,0,39387,39544,724,376,229,376 M,0,39544,40481,229,376,207,376 M,0,40481,40637,207,376,229,376 F,0,40481,40637,1,0 S,0,40481,40637,1,2
Sprite,Foreground,Centre,"Lyrics\0020.png",320,240 R,0,40481,,-0.2 F,0,40481,40794,0,1 S,0,40481,40794,3.4,1 M,0,41106,42044,108,101 R,0,41262,,0 R,0,41731,,0.2 M,0,42044,42200,108,101,108,-100
Sprite,Foreground,Centre,"Lyrics\021.png",320,240 M,0,41887,42044,108,496,108,110 M,0,42044,42669,108,110,163,110 S,0,42044,42669,1,1.776 F,0,42669,42825,1,0
Sprite,Foreground,Centre,"Lyrics\nee.png",320,240 F,0,42825,42981,0,1 S,0,42825,42981,2,0.5 F,0,42981,43294,1 S,0,42981,43294,0.5 F,0,43294,43606,1,0 S,0,43294,43606,0.5,2
Sprite,Foreground,Centre,"Lyrics\022.png",320,240 M,0,42981,43294,-398,150,181,150 R,0,42981,45403,-0.6 M,0,43294,45403,181,150 R,0,45403,45481,-0.6,0 M,0,45403,45637,181,150,209,135 M,0,45637,47669,209,135,217,135 M,0,47669,47825,217,135,837,135
Sprite,Foreground,Centre,"Lyrics\023.png",320,240 M,0,45169,45481,115,499,115,179 M,0,45481,47669,115,179,115,173 M,0,47669,47825,115,173,115,-67
Sprite,Foreground,Centre,"Lyrics\024.png",320,240 M,0,46575,46731,728,210,115,210 M,0,46731,47669,115,210,108,210 M,0,47669,47825,108,210,-263,210
Sprite,Foreground,Centre,"Lyrics\025.png",320,240 M,0,47669,47981,172,117 F,0,47669,47981,0,1 S,0,47669,47981,2,1 M,0,47981,48294,172,117 M,0,48294,48606,172,117 M,0,48606,48762,172,117,91,117 M,0,48762,50169,91,117,99,117 M,0,50169,50325,99,117,100,-56
Sprite,Foreground,Centre,"Lyrics\026.png",320,240 M,0,48294,48606,739,117,267,117 M,0,48606,50169,267,117,277,117 M,0,50169,50325,277,117,230,-54
Sprite,Foreground,Centre,"Lyrics\027.png",320,240 M,0,48919,49231,157,504,157,162 M,0,49231,50169,157,162,157,155 M,0,50169,50325,157,155,157,-54
Sprite,Foreground,Centre,"Lyrics\028a.png",320,240 M,0,49856,50169,157,600,157,172 S,0,50169,50325,1,0.8959999 M,0,50169,51731,157,172 S,0,50325,50481,0.8959999,1 S,0,50481,50950,1 S,0,50950,51106,1,0.8880002 S,0,51106,51262,0.8880002,1 M,0,51731,51887,157,172,-175,172
Sprite,Foreground,Centre,"Lyrics\029.png",320,240 S,0,51419,,1 M,0,51419,51731,738,173,232,173 M,0,51731,52356,232,173,217,173 M,0,52356,52512,217,173,-39,173
Sprite,Foreground,Centre,"Lyrics\na.png",320,240 S,0,52200,,0.5 M,0,52200,52356,804,164,350,164 M,0,52356,52669,350,164,320,164 M,0,52669,52825,320,164,-166,164
Sprite,Foreground,Centre,"Lyrics\no.png",320,240 S,0,52512,,0.8 M,0,52512,52669,804,164,350,164 M,0,52669,52981,350,164,320,164 M,0,52981,53137,320,164,-166,164
Sprite,Foreground,Centre,"Lyrics\ka.png",320,240 M,0,52825,52981,804,164,350,164 M,0,52981,53137,350,164,335,164 M,0,53137,53450,335,164,320,652
Sprite,Foreground,Centre,"Lyrics\Shira.png",320,240 M,0,53137,53294,320,-195,320,240 M,0,53294,53606,320,240,320,320 F,0,53450,53606,1,0 S,0,53450,53606,1,2
Sprite,Foreground,Centre,"Lyrics\0030.png",320,240 M,0,62669,63294,-400,140,210,140 M,0,63294,67669,210,140,230,140 M,0,67669,67825,230,140,800,140
Sprite,Foreground,Centre,"Lyrics\031.png",320,240 M,0,65481,65793,478,181,230,181 F,0,65481,65793,0,1 M,0,65793,67669,230,181,211,181 M,0,67669,67825,211,181,-192,181
Sprite,Foreground,Centre,"Lyrics\032.png",320,240 M,0,67825,68294,-400,140,210,140 M,0,68294,69856,210,140,222,140 M,0,69856,70169,222,140,732,140
Sprite,Foreground,Centre,"Lyrics\033.png",320,240 M,0,69700,69856,-84,136,139,136 M,0,69856,70794,139,136,149,136 M,0,70794,70950,149,136,138,-53
Sprite,Foreground,Centre,"Lyrics\034.png",320,240 M,0,70481,70794,155,512,155,169 M,0,70794,72669,155,169,155,138 R,0,72356,72512,0,-0.1651611 R,0,72512,72669,-0.1651611,0 M,0,72669,72825,155,138,155,-58
Sprite,Foreground,Centre,"Lyrics\035.png",320,240 M,0,72669,73294,-400,140,210,140 M,0,73294,75794,210,140,215,140 M,0,75794,75950,215,140,215,497
Sprite,Foreground,Centre,"Lyrics\036.png",320,240 M,0,75637,75794,152,-53,152,114 M,0,75794,77044,152,114,152,123 M,0,77044,77200,152,123,152,498
Sprite,Foreground,Centre,"Lyrics\037.png",320,240 M,0,76262,76419,263,499,263,119 M,0,76419,77669,263,119,263,112 M,0,77669,77825,263,112,263,-90
Sprite,Foreground,Centre,"Lyrics\038.png",320,240 M,0,76887,77044,152,-53,152,114 M,0,77044,78137,152,114,152,117 M,0,78137,78294,152,117,810,117
Sprite,Foreground,Centre,"Lyrics\039.png",320,240 M,0,77512,77669,263,499,263,119 M,0,77669,78137,263,119,263,117 M,0,78137,78294,263,117,846,116
Sprite,Foreground,Centre,"Lyrics\0040.png",320,240 M,0,77981,78294,-195,118,199,118 M,0,78294,82669,199,118,233,118 M,0,82669,82825,233,118,825,118
Sprite,Foreground,Centre,"Lyrics\041.png",320,240 M,0,80481,80794,748,158,217,158 M,0,80794,82669,217,158,197,158 M,0,82669,82825,197,158,-162,158
Sprite,Foreground,Centre,"Lyrics\Aaaa.png",320,240 F,0,82669,82825,0,1 S,0,82669,82825,2,0.5 F,0,82825,82981,1 S,0,82825,82981,0.5 F,0,82981,83294,1,0 S,0,82981,83294,0.5,2 M,0,83148,,320,240
Sprite,Foreground,Centre,"Lyrics\042.png",320,240 M,0,82981,83294,-51,89,217,89 M,0,83294,84544,217,89,220,89 M,0,84544,84700,220,89,213,511
Sprite,Foreground,Centre,"Lyrics\043.png",320,240 M,0,84387,84544,215,-49,215,77 M,0,84544,,215,77 M,0,84544,85481,215,77,215,89 F,0,85325,85481,1,0 S,0,85325,85481,1,2.008
Sprite,Foreground,Centre,"Lyrics\044.png",320,240 M,0,85637,85794,-140,391,128,391 M,0,85794,87044,128,391,140,391 M,0,87044,87200,140,391,128,-50
Sprite,Foreground,Centre,"Lyrics\045.png",320,240 M,0,86887,87044,139,505,139,403 M,0,87044,88137,139,403,139,381 F,0,87981,88137,1,0 S,0,87981,88137,1,2.216
Sprite,Foreground,Centre,"Lyrics\046.png",320,240 F,0,88137,88294,0,1 S,0,88137,88294,1.608,1 S,0,88294,88606,1 S,0,88606,88762,1,1.16 S,0,88762,88919,1.16,1 M,0,89544,89700,320,240,768,240
Sprite,Foreground,Centre,"Lyrics\047.png",320,240 M,0,89387,89544,-81,240,320,240 M,0,89544,90637,320,240,334,240 F,0,90481,90637,1,0 S,0,90481,90637,1,1.744
Sprite,Foreground,Centre,"Lyrics\0020.png",320,240 R,0,90481,,-0.2 F,0,90481,90794,0,1 S,0,90481,90794,3.4,1 M,0,91106,92044,108,101 R,0,91262,,0 R,0,91731,,0.2 M,0,92044,92200,108,101,108,-100
Sprite,Foreground,Centre,"Lyrics\ta.png",320,240 M,0,91887,92044,94,580,94,99 M,0,92044,92825,94,99 M,0,92825,92981,94,99,94,-107
Sprite,Foreground,Centre,"Lyrics\ma.png",320,240 M,0,92200,92825,93,291 M,0,92825,92981,93,291,-211,291
Sprite,Foreground,Centre,"Lyrics\ra.png",320,240 M,0,92356,92825,270,93 M,0,92825,92981,270,93,856,93
Sprite,Foreground,Centre,"Lyrics\nai.png",320,240 M,0,92512,92825,369,289 M,0,92825,92981,369,289,369,580
Sprite,Foreground,Centre,"Lyrics\sa.png",320,240 F,0,92825,92981,0,1 S,0,92825,92981,2,0.5 F,0,92981,93294,1 S,0,92981,93294,0.5 F,0,93294,93606,1,0 S,0,93294,93606,0.5,2
Sprite,Foreground,Centre,"cat.png",320,240 M,0,98606,98919,890,577,403,231 S,0,98606,98919,0.6,0.8 M,0,98919,99231,403,231,304,231 M,0,99231,99544,304,231,304,759 F,0,99544,99700,1,0
Sprite,Foreground,Centre,"Lyrics\049.png",320,240 M,0,92981,93294,228,77 F,0,92981,93294,0,1 S,0,92981,93294,1.2,1 R,0,92981,93294,-3,0 M,0,93294,95169,228,77,252,77 M,0,95169,95325,252,77,918,77
Sprite,Foreground,Centre,"Lyrics\0050.png",320,240 F,0,95012,95169,0,1 R,0,95012,95169,-0.2,0 M,0,95012,97669,140,172,140,158 R,0,95169,95325,0,-0.2 M,0,97669,97825,140,158,140,-50
Sprite,Foreground,Centre,"Lyrics\051.png",320,240 R,0,95950,96106,0.2,0 M,0,95950,97669,259,95,259,120 R,0,96106,96262,0,0.2 M,0,97669,97825,259,120,259,506
Sprite,Foreground,Centre,"Lyrics\052.png",320,240 M,0,96575,96731,-130,236,195,236 M,0,96731,97669,195,236,212,236 M,0,97669,97825,212,236,816,236
Sprite,Foreground,Centre,"Lyrics\053.png",320,240 F,0,97669,97981,0,1 S,0,97669,97981,5,1.3 F,0,97981,98606,1 S,0,97981,98606,1.3 F,0,98606,98919,1,0 S,0,98606,98919,1.3,5
Sprite,Foreground,Centre,"Lyrics\054.png",320,240 F,0,99231,,1 S,0,99231,99544,3.056,1.104 M,0,100169,100325,320,240,320,511
Sprite,Foreground,Centre,"Lyrics\055.png",320,240 M,0,100012,100169,320,-31,320,231 S,0,100169,,1 M,0,100169,100325,320,231 M,0,100325,100481,320,231,320,220 M,0,100481,100637,320,220,320,231 M,0,100637,100950,320,231 M,0,100950,101106,320,231,320,220 M,0,101106,101262,320,220,320,231 M,0,101262,101575,320,231 M,0,101575,101731,320,231,320,220 M,0,101731,101887,320,220,320,505
Sprite,Foreground,Centre,"Lyrics\056.png",320,240 M,0,101575,101731,320,-34,320,219 M,0,101731,102356,320,219,320,234 M,0,102356,102512,320,234,320,506
Sprite,Foreground,Centre,"Lyrics\ga.png",320,240 M,0,101887,102044,127,-126,127,152 M,0,102044,103606,127,152 F,0,103450,103606,1,0 S,0,103450,103606,1,1.5 M,0,103606,103762,127,152,-198,152
Sprite,Foreground,Centre,"Lyrics\ru.png",320,240 M,0,102200,102356,320,-98,320,150 M,0,102356,103606,320,150 F,0,103450,103606,1,0 S,0,103450,103606,1,1.5 M,0,103606,103762,320,150,320,-110
Sprite,Foreground,Centre,"Lyrics\ku.png",320,240 M,0,102512,102669,533,-115,533,150 M,0,102669,103606,533,150 F,0,103450,103606,1,0 S,0,103450,103606,1,1.5 M,0,103606,103762,533,150,848,150
Sprite,Foreground,Centre,"Lyrics\se.png",320,240 M,0,102825,102981,215,589,215,352 M,0,102981,103606,215,352 F,0,103450,103606,1,0 S,0,103450,103606,1,1.5 M,0,103606,103762,215,352,215,586
Sprite,Foreground,Centre,"Lyrics\ni.png",320,240 M,0,103137,103294,428,583,424,352 F,0,103137,103450,1 M,0,103294,103606,424,352 F,0,103450,103606,1,0 S,0,103450,103606,1,1.5 M,0,103606,103762,424,352,424,576
Sprite,Foreground,Centre,"Lyrics\057.png",320,240 M,0,122981,123294,64,158,203,158 F,0,122981,123294,0,1 F,0,123294,125481,1 M,0,123294,125794,203,158,219,158 F,0,125481,125794,1,0
Sprite,Foreground,Centre,"Lyrics\058.png",320,240 M,0,125481,125794,662,333,456,333 F,0,125481,125794,0,1 F,0,125794,127981,1 M,0,125794,128294,456,333,439,333 F,0,127981,128294,1,0
Sprite,Foreground,Centre,"Lyrics\059.png",320,240 M,0,127981,128294,320,158,320,240 F,0,127981,128294,0,1 F,0,128294,132981,1 M,0,128294,133294,320,240,320,251 F,0,132981,133294,1,0
Sprite,Foreground,Centre,"Lyrics\0060.png",320,240 M,0,132981,133294,-129,376,200,376 F,0,132981,133294,0,1 F,0,133294,135481,1 M,0,133294,135794,200,376,211,376 F,0,135481,135794,1,0
Sprite,Foreground,Centre,"Lyrics\061.png",320,240 M,0,135481,135794,800,288,474,288 F,0,135481,135794,0,1 F,0,135794,137981,1 M,0,135794,138294,474,288,457,288 F,0,137981,138294,1,0
Sprite,Foreground,Centre,"Lyrics\062.png",320,240 M,0,137981,138294,-183,203,184,203 F,0,137981,138294,0,1 F,0,138294,140481,1 M,0,138294,140794,184,203,201,203 F,0,140481,140794,1,0
Sprite,Foreground,Centre,"Lyrics\063.png",320,240 M,0,140481,140794,719,132,316,132 S,0,140794,142669,1,1.486968 S,0,142669,142981,1.486968,2.856 R,0,142669,142981,0,-6.288001 F,0,142825,142981,1,0
Sprite,Foreground,Centre,"Lyrics\mou.png",320,240 F,0,142825,142981,0,1 S,0,142825,142981,2,0.5 F,0,142981,143294,1 S,0,142981,143294,0.5 F,0,143294,143606,1,0 S,0,143294,143606,0.5,2
Sprite,Foreground,Centre,"Lyrics\064.png",320,240 M,0,142981,143294,-398,150,181,150 R,0,142981,145403,-0.6 M,0,143294,145403,181,150 R,0,145403,145481,-0.6,0 M,0,145403,145637,181,150,209,135 M,0,145637,147669,209,135,217,135 M,0,147669,147825,217,135,837,135
Sprite,Foreground,Centre,"Lyrics\065.png",320,240 M,0,145169,145481,115,499,115,179 M,0,145481,147669,115,179,115,173 M,0,147669,147825,115,173,115,-67
Sprite,Foreground,Centre,"Lyrics\066.png",320,240 M,0,146575,146731,728,210,115,210 M,0,146731,147669,115,210,108,210 M,0,147669,147825,108,210,-263,210
Sprite,Foreground,Centre,"Lyrics\067.png",320,240 M,0,147981,148293,172,117 F,0,147981,148293,0,1 S,0,147981,148293,2,1 M,0,148293,150169,172,117,185,117 M,0,150169,150481,185,117,755,117
Sprite,Foreground,Centre,"Lyrics\068.png",320,240 M,0,148294,148606,739,157,216,157 M,0,148606,150169,216,157,203,157 M,0,150169,150481,203,157,-260,157
Sprite,Foreground,Centre,"Lyrics\069.png",320,240 M,0,150169,150794,188,-165,188,143 M,0,150794,152825,188,143,188,149 M,0,152825,152981,188,149,188,524
Sprite,Foreground,Centre,"Lyrics\0070.png",320,240 M,0,151106,151419,838,187,195,187 M,0,151419,152825,195,187,189,187 M,0,152825,152981,189,187,-209,187
Sprite,Foreground,Centre,"Lyrics\071.png",320,240 M,0,151731,152044,190,497,190,232 M,0,152044,152825,190,232,190,228 M,0,152825,152981,190,228,190,-124
Sprite,Foreground,Centre,"Lyrics\sa.png",320,240 F,0,152669,152825,0,1 S,0,152669,152825,2,0.5 F,0,152825,152981,1 S,0,152825,152981,0.5 F,0,152981,153294,1,0 S,0,152981,153294,0.5,2 M,0,153148,,320,240
Sprite,Foreground,Centre,"Lyrics\072.png",320,240 M,0,152981,153294,-213,76,231,76 M,0,153294,155169,231,76,264,76 M,0,155169,155325,264,76,968,76
Sprite,Foreground,Centre,"Lyrics\073.png",320,240 M,0,155169,155325,855,116,239,116 M,0,155325,157669,239,116,206,116 M,0,157669,157825,206,116,-156,116
Sprite,Foreground,Centre,"Lyrics\074.png",320,240 M,0,155950,156106,-144,160,169,160 M,0,156106,157669,169,160,192,160 M,0,157669,157825,192,160,836,160
Sprite,Foreground,Centre,"Lyrics\075.png",320,240 M,0,156575,156731,835,201,230,201 M,0,156731,157669,230,201,203,201 M,0,157669,157825,203,201,-216,201
Sprite,Foreground,Centre,"Lyrics\076.png",320,240 M,0,157981,,169,144 F,0,157981,158293,0,1 R,0,157981,158293,-3,0 S,0,157981,158294,2,1 F,0,158293,158450,1 S,0,158294,158450,1 F,0,158450,158606,1,0 S,0,158450,158606,1,2
Sprite,Foreground,Centre,"Lyrics\077.png",320,240 M,0,158450,158606,171,508,171,188 M,0,158606,160169,171,188,171,176 M,0,160169,160325,171,176,171,-122
Sprite,Foreground,Centre,"Lyrics\078.png",320,240 M,0,160325,160794,168,-77,168,222 M,0,160794,163450,168,222,168,232 F,0,163294,163606,1,0 S,0,163294,163606,1,1.5
Sprite,Foreground,Centre,"Lyrics\079.png",320,240 M,0,161106,161419,320,514,320,224 M,0,161419,163450,320,224,320,217 F,0,163294,163606,1,0 S,0,163294,163606,1,1.5
Sprite,Foreground,Centre,"Lyrics\0080.png",320,240 M,0,161731,162044,-172,271,238,271 M,0,162044,163450,238,271,247,271 F,0,163294,163606,1,0 S,0,163294,163606,1,1.5
Sprite,Foreground,Centre,"Lyrics\081.png",320,240 M,0,167512,167669,320,-32,320,240 F,0,168294,168606,1,0 S,0,168294,168606,1,2.904
Sprite,Foreground,Centre,"Lyrics\Aaaa.png",320,240 M,0,170481,170559,320,240,316,236 F,0,170481,170794,0,1 S,0,170481,172669,0.1,2.268 M,0,170559,170637,316,236,323,244 M,0,170637,170715,323,244,316,243 M,0,170715,170794,316,243,324,237 M,0,170794,170872,324,237,320,240 F,0,170794,172044,1 M,0,170872,170950,320,240,316,236 M,0,170950,171028,316,236,323,244 M,0,171028,171106,323,244,316,243 M,0,171106,171184,316,243,324,237 M,0,171184,171262,324,237,320,240 M,0,171262,171340,320,240,316,236 M,0,171340,171419,316,236,323,244 M,0,171419,171497,323,244,316,243 M,0,171497,171575,316,243,324,237 M,0,171575,171653,324,237,320,240 M,0,171653,171731,320,240,316,236 M,0,171731,171809,316,236,323,244 M,0,171809,171887,323,244,316,243 M,0,171887,171965,316,243,324,237 M,0,171965,172044,324,237,320,240 M,0,172044,172122,324,237,320,240 F,0,172044,172669,1,0 M,0,172122,172200,320,240,316,236 M,0,172200,172278,316,236,323,244 M,0,172278,172356,323,244,316,243 M,0,172356,172434,316,243,324,237 M,0,172434,172512,324,237,320,240 M,0,172512,172590,324,237,320,240 M,0,172590,172669,324,237,320,240
//Storyboard Sound Samples
//Background Colour Transformations
3,100,163,162,255

[TimingPoints]
794,312.5,4,1,1,70,1,0
13562,-100,4,1,2,70,0,0
13718,-100,4,1,1,70,0,0
14031,-100,4,1,2,70,0,0
14343,-100,4,1,1,70,0,0
15906,-100,4,1,2,70,0,0
16218,-100,4,1,1,70,0,0
16531,-100,4,1,2,70,0,0
16843,-100,4,1,1,70,0,0
18093,-100,4,1,1,70,0,0
18406,-100,4,1,2,70,0,0
18718,-100,4,1,1,70,0,0
19031,-100,4,1,2,70,0,0
19343,-100,4,1,1,70,0,0
20715,-100,4,1,2,70,0,0
23406,-100,4,1,2,70,0,0
23718,-100,4,1,1,70,0,0
24031,-100,4,1,2,70,0,0
24343,-100,4,1,1,70,0,0
25906,-100,4,1,2,70,0,0
26653,-100,4,1,1,70,0,0
26843,-100,4,1,2,70,0,0
27903,-100,4,1,1,70,0,0
28093,-100,4,1,1,70,0,0
28406,-100,4,1,2,70,0,0
28718,-100,4,1,1,70,0,0
29031,-100,4,1,2,70,0,0
29343,-100,4,1,1,70,0,0
30906,-100,4,1,2,70,0,0
31218,-100,4,1,1,70,0,0
31531,-100,4,1,2,70,0,0
31843,-100,4,1,1,70,0,0
32156,-100,4,1,2,70,0,0
32468,-100,4,1,1,70,0,0
34153,-100,4,1,2,70,0,0
34309,-100,4,1,1,70,0,0
34968,-100,4,1,2,70,0,0
35403,-100,4,1,1,70,0,0
35593,-100,4,1,1,70,0,0
36653,-100,4,1,2,70,0,0
36809,-100,4,1,1,70,0,0
37468,-100,4,1,2,70,0,0
37903,-100,4,1,1,70,0,0
38093,-100,4,1,1,70,0,0
39968,-100,4,1,2,70,0,0
40403,-100,4,1,1,70,0,0
40593,-100,4,1,1,70,0,0
40794,-100,4,1,2,70,0,0
41843,-100,4,1,2,70,0,0
42781,-100,4,1,1,70,0,0
43294,-100,4,1,1,70,0,1
44968,-100,4,1,1,70,0,1
47981,-100,4,1,1,70,0,0
48294,-100,4,1,1,70,0,1
49968,-100,4,1,1,70,0,1
52156,-100,4,1,2,70,0,1
53294,-100,4,1,1,70,0,0
63406,-100,4,1,2,70,0,0
63718,-100,4,1,1,70,0,0
64031,-100,4,1,2,70,0,0
64343,-100,4,1,1,70,0,0
65593,-100,4,1,2,70,0,0
66340,-100,4,1,1,70,0,0
66497,-100,4,1,2,70,0,0
67278,-100,4,1,1,70,0,0
68093,-100,4,1,1,70,0,0
68406,-100,4,1,2,70,0,0
68718,-100,4,1,1,70,0,0
69031,-100,4,1,2,70,0,0
69343,-100,4,1,1,70,0,0
70906,-100,4,1,2,70,0,0
73093,-100,4,1,2,70,0,0
73796,-100,4,1,1,70,0,0
73953,-100,4,1,2,70,0,0
74778,-100,4,1,1,70,0,0
74968,-100,4,1,2,70,0,0
75281,-100,4,1,1,70,0,0
75794,-100,4,1,2,70,0,0
76653,-100,4,1,1,70,0,0
76965,-100,4,1,2,70,0,0
77903,-100,4,1,1,70,0,0
78215,-100,4,1,2,70,0,0
78796,-100,4,1,1,70,0,0
78953,-100,4,1,2,70,0,0
79778,-100,4,1,1,70,0,0
81296,-100,4,1,1,70,0,0
84153,-100,4,1,2,70,0,0
84544,-100,4,1,1,70,0,0
85169,-100,4,1,2,70,0,0
85481,-100,4,1,1,70,0,0
86262,-100,4,1,1,70,0,0
86653,-100,4,1,2,70,0,0
87356,-100,4,1,1,70,0,0
87590,-100,4,1,2,70,0,0
87903,-100,4,1,1,70,0,0
88762,-100,4,1,1,70,0,0
89343,-100,4,1,2,70,0,0
89778,-100,4,1,1,70,0,0
90090,-100,4,1,2,70,0,0
90403,-100,4,1,1,70,0,0
90794,-100,4,1,2,70,0,0
91843,-100,4,1,2,70,0,0
92903,-100,4,1,1,70,0,0
93294,-100,4,1,1,70,0,1
94343,-100,4,1,1,70,0,1
97981,-100,4,1,1,70,0,0
98294,-100,4,1,1,70,0,1
98919,-100,4,2,0,100,0,1
99856,-100,4,1,1,70,0,1
102278,-100,4,1,2,70,0,1
103294,-100,4,1,1,70,0,0
113171,-100,4,1,2,70,0,0
114153,-100,4,1,1,70,0,0
114465,-100,4,1,2,70,0,0
115403,-100,4,1,1,70,0,0
115715,-100,4,1,2,70,0,0
116653,-100,4,1,1,70,0,0
117278,-100,4,1,2,70,0,0
117903,-100,4,1,1,70,0,0
123606,-100,4,1,2,15,0,0
124500,-100,4,1,1,20,0,0
125750,-100,4,1,2,25,0,0
127000,-100,4,1,2,30,0,0
128250,-100,4,1,2,35,0,0
129500,-100,4,1,2,40,0,0
130750,-100,4,1,2,45,0,0
132000,-100,4,1,2,50,0,0
133093,-100,4,1,1,70,0,0
141028,-100,4,1,2,70,0,0
141843,-100,4,1,1,70,0,0
142625,-100,4,1,1,70,0,0
143294,-100,4,1,1,70,0,1
147156,-100,4,1,2,70,0,1
147468,-100,4,1,1,70,0,1
147981,-100,4,1,2,70,0,0
148294,-100,4,1,1,70,0,1
150281,-100,4,1,1,70,0,1
152981,-100,4,1,1,70,0,0
153294,-100,4,1,1,70,0,1
157468,-100,4,1,1,70,0,1
157781,-100,4,1,1,70,0,1
157981,-100,4,1,1,70,0,0
158093,-100,4,1,2,70,0,0
158294,-100,4,1,1,70,0,1
159856,-100,4,1,2,70,0,1
159934,-100,4,1,1,70,0,1
160281,-100,4,1,1,70,0,1
161184,-100,4,1,1,70,0,1
162278,-100,4,1,2,70,0,1
163294,-100,4,1,1,70,0,0
173840,-100,4,1,2,70,0,0
174778,-100,4,1,1,70,0,0
174934,-100,4,1,2,70,0,0
179153,-100,4,1,1,70,0,0
179309,-100,4,1,2,70,0,0
180403,-100,4,1,1,70,0,0
183093,-100,4,1,2,50,0,0
183372,-100,4,1,2,20,0,0
184500,-100,4,1,1,30,0,0
185750,-100,4,1,2,40,0,0
187000,-100,4,1,1,45,0,0
188250,-100,4,1,2,50,0,0
189500,-100,4,1,1,55,0,0
190750,-100,4,1,2,60,0,0
192000,-100,4,1,2,65,0,0
192625,-100,4,1,2,70,0,0

[Colours]
Combo1 : 184,61,113
Combo2 : 96,48,32
Combo3 : 4,75,147
Combo4 : 67,30,98

[HitObjects]
256,312,794,2,0,B|256:192,1,105,0|0,0:0|0:0,0:0:0:0:
207,138,1731,2,0,B|260:101|315:146,2,105,0|0|0,0:0|0:0|0:0,0:0:0:0:
256,36,3294,1,4,2:0:0:0:
304,28,13294,6,0,B|132:64|152:232,1,280,4|0,2:0|0:0,0:0:0:0:
112,268,14856,2,0,B|44:232,2,70,8|2|8,0:0|0:0|0:0,0:0:0:0:
160,296,15794,6,0,B|228:296|228:296|260:280|272:240|272:240|252:216|256:176|256:176|280:140|320:140,1,280
368,144,17356,2,0,B|436:144,2,70,8|2|8,0:0|0:0|0:0,0:0:0:0:
356,92,18294,6,0,B|320:36|276:16|232:8|184:24|148:48|124:96,1,280,4|0,2:0|0:0,0:0:0:0:
124,148,19856,2,0,L|68:204,2,70,8|0|8,0:0|0:0|0:0,0:0:0:0:
176,168,20794,5,0,0:0:0:0:
264,236,21419,1,0,0:0:0:0:
236,344,22044,1,0,0:0:0:0:
140,288,22669,1,0,0:0:0:0:
40,336,23294,6,0,B|20:272|20:272|-20:248|-20:180|24:156|24:156|32:80|28:76,1,280,4|0,2:0|0:0,0:0:0:0:
80,56,24856,1,8,0:0:0:0:
136,56,25169,2,0,B|216:56,1,70,2|8,0:0|0:0,0:0:0:0:
260,40,25794,6,0,B|344:28|384:112,1,140
400,149,26731,1,8,0:0:0:0:
347,168,27044,2,0,B|263:180|223:96,1,140
180,140,27981,1,8,0:0:0:0:
124,140,28294,6,0,B|84:140|84:140|20:228|84:320|84:320|136:320,1,280,4|0,2:0|0:0,0:0:0:0:
188,320,29856,2,0,B|264:320,2,70,8|2|8,0:0|0:0|0:0,0:0:0:0:
188,264,30794,5,4,2:0:0:0:
268,184,31419,1,2,0:0:0:0:
356,112,32044,1,2,0:0:0:0:
444,40,32669,1,4,1:0:0:0:
444,96,32981,6,0,B|444:168,1,70,8|4,0:0|1:0,0:0:0:0:
444,224,33606,2,0,B|444:296|440:320|408:340|376:328|364:312|360:280|304:292,1,210,8|0,0:0|0:0,0:0:0:0:
292,240,34856,2,0,B|212:240,2,70,8|2|8,0:0|0:0|0:0,0:0:0:0:
324,192,35794,5,4,0:0:0:0:
296,144,36106,2,0,B|76:144,1,210,8|0,0:0|0:0,0:0:0:0:
48,104,37356,2,0,B|36:60|44:28,2,70,8|2|8,0:0|0:0|0:0,0:0:0:0:
86,144,38294,5,4,2:0:0:0:
168,224,38919,1,2,0:0:0:0:
244,140,39544,1,0,0:0:0:0:
300,140,39856,2,0,B|380:140,1,70,8|2,0:0|0:0,0:0:0:0:
428,140,40481,1,8,0:0:0:0:
444,192,40794,6,0,B|446:232|419:258|432:300|444:332|444:332|406:334|376:328|376:328|344:336|292:332,1,280,4|2,2:0|0:0,0:0:0:0:
252,332,42356,2,0,B|176:332,1,70,2|2,0:0|0:0,0:0:0:0:
132,308,42981,6,0,B|68:280,1,70,8|4,0:0|2:0,0:0:0:0:
56,224,43606,1,8,0:0:0:0:
56,112,44231,1,8,0:0:0:0:
160,68,44856,2,0,B|184:28|232:20|268:44|280:76,1,140,8|8,0:0|0:0,0:0:0:0:
312,108,45794,6,0,B|312:184,1,70,0|8,0:0|0:0,0:0:0:0:
280,224,46419,2,0,B|204:224,1,70,0|8,0:0|0:0,0:0:0:0:
176,268,47044,2,0,B|176:344,2,70,2|8|2,0:0|0:0|0:0,0:0:0:0:
176,212,47981,6,0,B|176:144,1,70,8|4,0:0|2:0,0:0:0:0:
204,92,48606,1,8,0:0:0:0:
316,92,49231,1,8,0:0:0:0:
392,176,49856,2,0,B|432:200|440:248|416:284|384:296,1,140,8|8,0:0|0:0,0:0:0:0:
352,332,50794,6,0,B|268:332,1,70,0|8,0:0|0:0,0:0:0:0:
228,320,51419,2,0,B|200:288|232:252,1,70,0|8,0:0|0:0,0:0:0:0:
276,228,52044,2,0,B|336:192|336:192|352:124|352:124|320:60|320:60|256:48|256:48|252:48,1,280,0|4,0:0|2:0,0:0:0:0:
208,356,63294,6,0,B|380:320|360:152,1,280,4|0,2:0|0:0,0:0:0:0:
400,116,64856,2,0,B|468:152,2,70,8|2|8,0:0|0:0|0:0,0:0:0:0:
352,88,65794,6,0,B|284:88|284:88|252:104|241:142|241:142|260:168|257:205|257:205|232:244|192:240,1,280
136,240,67356,2,0,B|68:240,2,70,8|2|8,0:0|0:0|0:0,0:0:0:0:
156,292,68294,6,0,B|192:348|236:368|280:376|328:360|364:336|388:288,1,280,4|0,2:0|0:0,0:0:0:0:
396,240,69856,2,0,L|464:192,2,70,8|0|8,0:0|0:0|0:0,0:0:0:0:
348,208,70794,5,0,0:0:0:0:
244,168,71419,1,0,0:0:0:0:
236,56,72044,1,0,0:0:0:0:
340,100,72669,1,0,0:0:0:0:
440,44,73294,6,0,B|460:108|460:108|500:136|500:200|456:228|456:228|448:300|452:304,1,280,4|0,2:0|0:0,0:0:0:0:
428,352,74856,1,8,0:0:0:0:
372,364,75169,2,0,B|292:364,1,70,2|8,0:0|0:0,0:0:0:0:
252,344,75794,6,0,B|168:356|128:272,1,140,0|0,0:0|0:0,0:0:0:0:
112,235,76731,1,8,0:0:0:0:
165,216,77044,2,0,B|249:204|289:288,1,140,0|0,0:0|0:0,0:0:0:0:
332,244,77981,1,8,0:0:0:0:
388,244,78294,6,0,B|428:244|428:244|492:156|428:64|428:64|376:64,1,280,4|0,2:0|0:0,0:0:0:0:
324,64,79856,2,0,B|248:64,2,70,8|2|8,0:0|0:0|0:0,0:0:0:0:
324,120,80794,5,4,2:0:0:0:
244,200,81419,1,2,0:0:0:0:
156,272,82044,1,2,0:0:0:0:
68,344,82669,1,4,0:0:0:0:
68,288,82981,6,0,B|68:216,1,70,8|4,0:0|2:0,0:0:0:0:
68,160,83606,2,0,B|68:88|72:64|104:44|136:56|148:72|152:104|208:92,1,210,8|0,0:0|0:0,0:0:0:0:
220,144,84856,2,0,B|300:144,2,70,8|2|8,0:0|0:0|0:0,0:0:0:0:
188,192,85794,5,4,0:0:0:0:
216,240,86106,2,0,B|436:240,1,210,8|0,0:0|0:0,0:0:0:0:
464,280,87356,2,0,B|476:324|468:356,2,70,8|2|8,0:0|0:0|0:0,0:0:0:0:
426,240,88294,5,4,2:0:0:0:
344,160,88919,1,2,0:0:0:0:
268,244,89544,1,0,0:0:0:0:
212,244,89856,2,0,B|132:244,1,70,8|2,0:0|0:0,0:0:0:0:
84,244,90481,1,8,0:0:0:0:
68,192,90794,6,0,B|66:152|93:126|80:84|68:52|68:52|106:50|136:56|136:56|168:48|220:52,1,280,4|2,2:0|0:0,0:0:0:0:
276,44,92356,2,0,B|352:44,1,70,2|2,0:0|0:0,0:0:0:0:
392,76,92981,6,0,B|456:104,1,70,8|4,0:0|2:0,0:0:0:0:
456,160,93606,1,8,0:0:0:0:
456,272,94231,1,8,0:0:0:0:
352,316,94856,2,0,B|328:356|280:364|244:340|232:308,1,140,8|8,0:0|0:0,0:0:0:0:
200,276,95794,6,0,B|200:200,1,70,0|8,0:0|0:0,0:0:0:0:
232,160,96419,2,0,B|308:160,1,70,0|8,0:0|0:0,0:0:0:0:
336,116,97044,2,0,B|336:40,2,70,2|8|2,0:0|0:0|0:0,0:0:0:0:
336,172,97981,6,0,B|336:240,1,70,8|4,0:0|2:0,0:0:0:0:
308,292,98606,1,8,0:0:0:0:
252,300,98919,2,2,L|168:300,1,70
120,208,99856,2,0,B|80:184|72:136|96:100|128:88,1,140,8|8,0:0|0:0,0:0:0:0:
160,52,100794,6,0,B|244:52,1,70,0|8,0:0|0:0,0:0:0:0:
284,64,101419,2,0,B|312:96|280:132,1,70,0|8,0:0|0:0,0:0:0:0:
236,156,102044,2,0,B|176:192|176:192|160:260|160:260|192:324|192:324|256:336|256:336|260:336,1,280,0|4,0:0|2:0,0:0:0:0:
52,92,113294,6,0,B|117:54|117:54|178:92,1,140,4|0,2:0|0:0,0:0:0:0:
214,124,114231,1,8,0:0:0:0:
256,160,114544,2,0,B|321:198|321:198|382:160,1,140
420,128,115481,1,8,0:0:0:0:
459,85,115794,6,0,B|500:85|500:85|500:189,1,140
496,239,116731,1,8,0:0:0:0:
460,282,117044,2,0,B|419:282|419:282|418:177,1,140
420,128,117981,1,8,0:0:0:0:
363,124,118294,6,0,B|253:124,2,105,4|0|0,2:0|0:0|0:0,0:0:0:0:
364,180,119544,2,0,B|365:287,2,105
308,180,120794,5,2,0:0:0:0:
196,183,121419,1,4,2:0:0:0:
84,181,122044,1,2,0:0:0:0:
81,292,122669,2,0,B|154:292,2,70,0|8|4,0:0|0:0|2:0,0:0:0:0:
83,235,123606,5,0,0:0:0:0:
84,123,124231,2,0,B|84:52,2,70,0|8|0,0:0|0:0|0:0,0:0:0:0:
196,120,125481,1,8,0:0:0:0:
252,120,125794,1,0,0:0:0:0:
308,120,126106,6,0,B|456:120,1,140
484,156,127044,1,0,0:0:0:0:
448,196,127356,2,0,B|300:196,1,140
196,196,128606,6,0,B|196:52,1,140
144,36,129544,1,0,0:0:0:0:
92,56,129856,2,0,B|92:200,1,140
144,220,130794,5,0,0:0:0:0:
196,240,131106,2,0,B|272:252|280:336,1,140
336,348,132044,1,0,0:0:0:0:
392,336,132356,2,0,B|404:260|480:232,1,140
476,176,133294,6,0,B|476:100,1,70,4|8,2:0|0:0,0:0:0:0:
372,64,134231,2,0,B|288:64,2,70,8|0|8,0:0|0:0|0:0,0:0:0:0:
372,176,135481,2,0,B|372:248,1,70,8|0,0:0|0:0,0:0:0:0:
372,304,136106,5,8,0:0:0:0:
260,308,136731,2,0,B|180:308,2,70,8|0|8,0:0|0:0|0:0,0:0:0:0:
260,196,137981,1,8,0:0:0:0:
260,140,138294,6,0,B|200:80,1,70,0|8,0:0|0:0,0:0:0:0:
180,136,138919,2,0,B|96:124,1,70,0|8,0:0|0:0,0:0:0:0:
96,180,139544,2,0,B|16:200,1,70,0|8,0:0|0:0,0:0:0:0:
52,248,140169,2,0,B|8:320,1,70,0|8,0:0|0:0,0:0:0:0:
56,348,140794,6,0,B|344:348,1,280,0|2,0:0|0:0,0:0:0:0:
396,252,142669,1,2,0:0:0:0:
424,204,142981,6,0,B|424:120,1,70,8|4,0:0|2:0,0:0:0:0:
396,84,143606,1,8,0:0:0:0:
296,32,144231,2,0,B|224:32,1,70,8|0,0:0|0:0,0:0:0:0:
168,32,144856,2,0,B|112:48|108:124|176:140,1,140,8|8,0:0|0:0,0:0:0:0:
220,136,145794,5,0,0:0:0:0:
220,136,146106,1,8,0:0:0:0:
332,136,146731,1,8,0:0:0:0:
332,136,147044,2,0,B|384:136|412:168|432:216|420:260|388:292|336:304|296:276,1,280,0|4,0:0|2:0,0:0:0:0:
248,256,148606,5,8,0:0:0:0:
144,216,149231,2,0,B|144:284,2,70,8|0|8,0:0|0:0|0:0,0:0:0:0:
88,212,150169,2,0,B|16:212,1,70,0|8,0:0|0:0,0:0:0:0:
16,156,150794,5,0,0:0:0:0:
16,100,151106,2,0,B|16:56|44:36,1,70,8|0,0:0|0:0,0:0:0:0:
93,59,151731,2,0,B|237:59,1,140,8|8,0:0|0:0,0:0:0:0:
285,38,152669,1,0,0:0:0:0:
336,60,152981,6,0,B|380:72|388:116,2,70,8|4|8,0:0|2:0|0:0,0:0:0:0:
288,160,154231,1,8,0:0:0:0:
224,252,154856,2,0,B|156:208|184:124,1,140,8|8,0:0|0:0,0:0:0:0:
204,80,155794,5,0,0:0:0:0:
160,44,156106,2,0,B|120:40|104:84,1,70,8|0,0:0|0:0,0:0:0:0:
104,136,156731,2,0,B|99:176|104:208,1,70,8|0,0:0|0:0,0:0:0:0:
136,252,157356,2,0,B|212:268|172:332|240:344,1,140,8|8,0:0|0:0,0:0:0:0:
288,344,158294,6,0,B|360:344,1,70,4|8,2:0|0:0,0:0:0:0:
420,252,159231,1,8,0:0:0:0:
420,196,159544,2,0,B|420:124|420:124|388:60,1,140,0|0,0:0|0:0,0:0:0:0:
336,44,160481,5,8,0:0:0:0:
280,40,160794,2,0,B|212:40,1,70,0|8,0:0|0:0,0:0:0:0:
156,60,161419,2,0,B|96:112,1,70,0|8,0:0|0:0,0:0:0:0:
64,148,162044,2,0,B|74:184|72:216|72:216|96:240|132:256|132:256|136:284|160:320|160:320|192:324|224:348,1,280,0|4,0:0|2:0,0:0:0:0:
256,192,167669,5,2,0:0:0:0:
256,192,167981,1,8,0:0:0:0:
256,192,168294,1,4,0:0:0:0:
256,192,170794,12,4,173294,2:0:0:0:
60,84,173919,6,0,B|204:84,1,140
256,84,174856,1,8,0:0:0:0:
312,84,175169,2,0,B|464:84,1,140
484,300,178294,6,0,B|340:300,1,140,4|0,2:0|0:0,0:0:0:0:
288,300,179231,1,8,0:0:0:0:
232,300,179544,2,0,B|80:300,1,140
36,300,180481,1,8,0:0:0:0:
256,48,183294,6,0,B|256:340,1,280,4|0,2:0|0:0,0:0:0:0:
312,328,184856,2,0,B|388:328,2,70,8|0|8,0:0|0:0|0:0,0:0:0:0:
256,328,185794,6,0,B|96:328|96:328|64:328|36:296|35:269|40:224,1,280
40,184,187356,2,0,B|40:112,1,70,8|0,0:0|0:0,0:0:0:0:
40,56,187981,1,8,0:0:0:0:
92,36,188294,6,0,B|200:36|200:36|216:84|272:108|324:80|328:24,1,280,4|0,2:0|0:0,0:0:0:0:
384,36,189856,1,8,0:0:0:0:
440,36,190169,2,0,B|440:120,1,70,0|8,0:0|0:0,0:0:0:0:
440,164,190794,6,0,B|208:164|208:164|184:164|160:168|136:208|152:248|176:264|200:264|200:264|236:264,1,420,4|4,2:0|0:0,0:0:0:0:
