osu file format v6

[General]
AudioFilename: Techno - Sand Storm.mp3
AudioLeadIn: 0
PreviewTime: 29536
Countdown: 1
SampleSet: Normal
StackLeniency: 0.8
Mode: 0
LetterboxInBreaks: 1

[Editor]
Bookmarks: 14495,29385,41667,56517,64679,70856,86186,100163,114281,149465,177700,191818,205935,219943
DistanceSpacing: 0.800000011920929
BeatDivisor: 4
GridSize: 8

[Metadata]
Title:Sandstorm
Artist:Darude
Creator:bmin11
Version:Insane
Source:
Tags:Techno Darude Shinxyn animask

[Difficulty]
HPDrainRate:7
CircleSize:5
OverallDifficulty:8
SliderMultiplier:2.6
SliderTickRate:4

[Events]
//Background and Video events
0,0,"01282.jpg"
//Break Periods
//Storyboard Layer 0 (Background)
//Storyboard Layer 1 (Fail)
//Storyboard Layer 2 (Pass)
//Storyboard Layer 3 (Foreground)
//Storyboard Sound Samples
//Background Colour Transformations
3,100,163,162,255

[TimingPoints]
15445,440.981919741291,4,1,0,70,1,0
85990,-100,4,1,0,100,0,0
87754,-100,4,1,1,0,0,0

[Colours]
Combo1 : 65,5,205
Combo2 : 221,11,16

[HitObjects]
256,192,15004,1,4
200,67,15444,2,0,L|152:128,4,65
200,67,16106,5,2
304,67,16326,1,2
305,223,16657,1,0
461,223,16988,1,2
463,119,17208,1,2
462,275,17539,1,0
305,276,17870,1,2
201,276,18090,1,0
198,58,18531,5,0
405,58,18972,1,0
438,97,19083,1,0
461,143,19193,1,0
443,189,19303,1,0
412,230,19413,1,0
412,334,19634,6,2,B|263:334,1,130
283,177,20185,1,0
133,133,20516,2,2,B|133:277,1,130
218,132,21067,1,0
299,265,21398,2,2,B|299:120,1,130
456,137,21949,1,0
299,136,22280,2,0,B|299:272,1,130,0|4
194,269,22721,5,0
194,269,22831,1,0
194,269,22941,1,0
152,64,23382,6,0,B|64:16,4,65
232,200,24044,1,8
392,312,24264,2,0,B|448:240,4,65
296,152,24926,1,8
112,120,25146,2,0,B|96:32,4,65
160,272,25808,1,8
295,198,26028,5,2
317,144,26138,1,0
354,179,26249,1,0
342,229,26359,1,0
295,252,26469,1,2
248,229,26579,1,0
236,178,26690,1,0
273,141,26800,1,0
318,146,26910,5,2
356,181,27020,1,0
340,230,27131,1,0
293,252,27241,1,0
254,286,27351,6,0,L|90:286,1,130,2|0
124,286,27682,1,2
124,182,27902,1,0
125,182,28012,2,0,L|10:68,1,130,0|0
72,56,28343,2,0,L|165:148,1,130,0|0
205,114,28674,2,0,L|298:206,1,130,0|0
337,172,29005,2,0,L|244:80,1,130,0|0
285,47,29335,2,0,L|378:139,1,130,0|4
463,198,29776,5,0
464,249,29887,2,0,B|464:320,1,65
361,314,30217,5,0
310,314,30328,1,0
259,313,30438,1,8
257,208,30658,1,0
205,208,30769,2,0,B|139:208,1,65,0|8
257,141,31099,5,0
257,141,31210,1,0
257,141,31320,1,0
257,141,31430,1,0
257,141,31540,1,0
256,141,31651,2,2,B|256:224,1,65
356,167,31981,5,0
356,167,32092,1,0
356,167,32202,1,0
356,167,32312,1,0
356,166,32422,2,0,B|356:68,2,65,0|2|2
442,225,32863,6,0,L|442:360,1,130
334,226,33304,2,0,L|334:365,1,130
253,253,33745,1,8
254,149,33966,2,0,L|101:149,1,130
124,254,34407,1,0
124,149,34627,2,8,L|262:149,1,130,8|0
253,254,35068,1,0
356,253,35289,1,8
424,176,35509,1,0
424,176,35619,1,0
424,176,35730,1,0
424,176,35840,1,0
424,176,35950,2,12,B|341:176,2,65
400,72,36391,5,0
400,72,36501,1,4
400,72,36612,1,0
400,72,36722,1,4
400,72,36832,2,0,B|465:72,2,65,0|0|0
334,153,37273,5,0
335,205,37383,1,0
333,257,37494,1,8
229,257,37714,1,0
228,203,37824,1,0
228,151,37935,1,8
228,255,38155,5,0
176,253,38265,1,0
123,253,38376,1,0
125,152,38596,1,0
124,203,38706,1,0
122,251,38817,1,2
127,57,39037,5,0
178,57,39147,1,0
229,58,39258,2,0,L|332:58,4,65,0|0|0|0|2
376,192,39919,6,0,L|470:192,6,65,0|0|0|0|0|0|8
256,72,40801,6,0,L|256:-22,6,65,0|0|0|0|0|0|8
136,192,41683,6,0,L|42:192,6,65,0|0|0|0|0|0|8
256,312,42565,6,0,L|256:406,6,65,0|0|0|0|0|0|8
339,353,43447,6,0,L|339:206,1,130,0|4
429,170,43888,1,0
387,138,43998,1,0
343,110,44108,1,4
239,109,44329,2,0,L|79:109,2,130,8|0|8
160,173,44990,1,8
83,243,45211,5,0
134,242,45321,1,0
185,244,45431,1,8
275,295,45652,1,0
273,243,45762,2,8,B|273:173,1,65,0|8
276,90,46093,2,0,L|357:31|451:52|480:138|386:214,1,390
400,307,46975,1,0
293,306,47195,1,4
292,201,47416,1,4
187,200,47636,1,4
98,145,47857,5,0
167,68,48077,1,8
219,70,48187,1,0
322,70,48408,1,0
269,70,48518,1,8
372,73,48739,6,0,L|408:115|347:169,1,135,0|4
431,224,49180,1,0
394,261,49290,1,0
359,299,49400,1,0
255,301,49621,6,0,L|255:183,1,65
162,187,49951,1,8
73,132,50172,2,0,L|73:52,1,65
177,65,50503,5,8
281,67,50723,1,4
280,170,50944,1,4
384,168,51164,1,4
388,67,51385,5,0
335,65,51495,1,0
283,68,51605,1,0
231,66,51715,1,0
179,66,51826,1,0
126,67,51936,1,0
74,68,52046,1,2
79,166,52266,5,0
130,165,52377,1,0
182,166,52487,1,0
234,165,52597,1,0
285,167,52707,1,0
336,168,52818,1,0
388,166,52928,1,2
472,244,53148,5,0
429,274,53259,1,0
386,303,53369,1,0
339,325,53479,1,0
289,310,53589,1,0
240,290,53700,1,0
194,263,53810,1,2
339,263,54030,6,4,L|339:119,1,130
289,41,54471,1,4
289,42,54692,1,4
214,115,54912,6,0,L|112:115,2,65,0|0|8
315,132,55353,1,0
348,171,55464,1,0
317,212,55574,1,8
317,315,55794,5,4
212,315,56015,1,4
213,211,56235,1,4
108,207,56456,1,4
108,103,56676,2,0,L|132:36|248:36|276:104,1,260,0|8
313,200,57338,1,2
346,299,57558,5,4
294,298,57669,1,4
242,298,57779,1,0
241,192,57999,1,0
241,88,58220,1,2
344,88,58440,2,0,L|344:231,1,130
344,348,58881,2,0,L|344:208,1,130
343,87,59322,1,2
235,88,59543,6,0,B|233:181,2,65
130,88,59984,1,2
131,192,60204,1,0
234,193,60425,2,0,B|234:281,2,65
338,196,60866,5,2
338,299,61086,1,2
233,301,61307,5,0
233,300,61417,1,0
233,300,61527,1,0
128,300,61748,5,2
129,197,61968,5,0
129,92,62189,1,4
233,93,62409,1,4
336,94,62630,1,4
440,95,62850,5,0
439,146,62960,1,0
439,197,63071,1,0
440,249,63181,1,0
440,300,63291,1,0
335,301,63512,5,2
335,197,63732,5,0
336,93,63953,1,0
440,197,64173,5,2
336,94,64393,1,2
237,94,64614,5,0
200,131,64724,1,0
162,167,64834,1,0
161,271,65055,1,0
264,271,65275,5,2
264,166,65496,5,0
224,132,65606,1,0
185,96,65716,1,0
270,36,65937,1,0
347,106,66157,5,0
347,209,66378,1,2
245,231,66598,2,0,L|244:376,1,130
188,274,67039,1,0
188,144,67260,6,0,L|188:285,1,130
83,276,67701,1,0
83,171,67921,2,0,L|83:98|181:67,1,130,2|2
242,81,68362,5,0
282,113,68473,1,0
243,147,68583,1,0
242,241,68803,5,2
336,197,69024,6,0,L|336:84|419:84|419:189,1,260
418,262,69685,5,2
336,327,69906,5,0
284,327,70016,2,0,B|211:327,1,65
286,246,70347,1,0
182,244,70567,5,2
184,139,70788,5,0
235,139,70898,1,0
286,140,71008,1,0
340,139,71118,1,0
341,87,71229,1,0
236,85,71449,5,2
64,202,71890,5,4
168,204,72111,1,0
169,100,72331,1,2
272,98,72552,1,0
306,139,72662,1,0
265,172,72772,1,0
224,205,72882,1,0
262,239,72993,1,0
365,237,73213,2,0,L|365:87,1,130,2|2
422,192,73654,5,0
422,241,73764,1,0
422,292,73875,1,0
317,293,74095,5,2
213,293,74316,6,0,B|100:293,1,65
149,240,74536,2,0,B|221:240,1,65
215,187,74757,1,0
127,131,74977,5,2
205,63,75198,1,2
289,121,75418,6,0,L|360:121|376:184,1,130
267,212,75859,5,2
146,250,76080,6,0,L|200:311|276:311,1,130
267,213,76520,5,0
145,184,76741,2,0,L|-12:184,1,130,2|2
91,81,77182,5,0
91,81,77292,1,0
91,81,77402,1,0
194,82,77623,5,2
298,84,77843,5,0
402,84,78064,2,0,B|400:176,2,65,0|0|0
402,225,78505,5,2
402,225,78725,1,2
298,223,78946,2,0,L|251:170|195:220,1,130,4|0
123,272,79387,5,2
123,272,79607,1,2
64,187,79828,2,0,L|17:137|72:99,1,130,4|0
158,50,80269,5,2
158,50,80489,1,2
261,50,80710,5,4
262,102,80820,1,0
262,50,80930,1,0
157,52,81151,5,2
157,52,81371,1,2
158,156,81592,5,4
159,207,81702,1,0
157,155,81812,1,0
247,209,82033,5,2
246,313,82253,1,2
247,209,82474,5,4
247,259,82584,1,4
245,311,82694,1,2
246,208,82915,5,4
297,208,83025,1,0
348,207,83135,1,6
246,209,83356,5,4
246,157,83466,1,4
248,105,83576,1,2
146,104,83797,5,4
146,155,83907,1,4
144,207,84017,1,2
146,104,84238,6,0,B|79:104,2,65,4|4|2
146,208,84679,5,4
144,257,84789,1,4
144,308,84899,1,2
144,206,85120,6,0,B|56:206,2,65,4|4|2
146,99,85561,5,0
183,62,85671,1,0
232,47,85781,1,0
283,47,85891,1,0
330,68,86002,1,4
256,192,86112,12,0,87766
