osu file format v14

[General]
AudioFilename: 07.mp3
AudioLeadIn: 0
PreviewTime: 48083
Countdown: 0
SampleSet: Soft
StackLeniency: 0.7
Mode: 0
LetterboxInBreaks: 1
WidescreenStoryboard: 0

[Editor]
Bookmarks: 16166
DistanceSpacing: 1
BeatDivisor: 2
GridSize: 4
TimelineZoom: 1

[Metadata]
Title:Terminal March
TitleUnicode:Terminal March
Artist:Darren Korb
ArtistUnicode:Darren Korb
Creator:[AppLoad]
Version:Normal
Source:Bastion
Tags:ost Supergiant Games Shprota
BeatmapID:509956
BeatmapSetID:217382

[Difficulty]
HPDrainRate:4
CircleSize:3
OverallDifficulty:5
ApproachRate:5
SliderMultiplier:1.2
SliderTickRate:2

[Events]
//Background and Video events
0,0,"bastion-wallpapers.html-855.jpg",0,0
//Break Periods
2,64364,68298
//Storyboard Layer 0 (Background)
//Storyboard Layer 1 (Fail)
//Storyboard Layer 2 (Pass)
//Storyboard Layer 3 (Foreground)
//Storyboard Sound Samples

[TimingPoints]
10832,333.333333333333,4,2,1,100,1,0
48165,-100,4,2,1,100,0,1
58831,-100,4,2,1,100,0,0

[HitObjects]
104,72,10832,6,0,P|64:108|52:196,1,120,0|0,0:0|0:0,0:0:0:0:
168,172,11498,2,0,P|180:196|160:300,1,120,0|0,0:0|0:0,0:0:0:0:
52,272,12165,2,0,P|80:332|164:380,1,120
236,328,12832,2,0,P|296:344|364:336,1,120
312,228,13498,6,0,L|432:200,1,120
456,148,13998,2,0,P|388:104|280:96,1,180
224,192,14832,2,0,L|84:224,1,120
204,288,15498,1,0,0:0:0:0:
92,336,15831,1,0,0:0:0:0:
108,216,16165,6,0,P|36:164|12:120,1,120,0|0,0:0|0:0,0:0:0:0:
68,28,16832,1,0,0:0:0:0:
184,48,17165,1,0,0:0:0:0:
228,160,17498,2,0,P|279:129|316:82,1,120,0|0,0:0|0:0,0:0:0:0:
436,72,18165,1,0,0:0:0:0:
440,192,18498,1,0,0:0:0:0:
360,284,18831,6,0,L|253:229,2,120,0|0|0,0:0|0:0|0:0,0:0:0:0:
336,384,19831,1,0,0:0:0:0:
224,344,20165,1,0,0:0:0:0:
132,264,20498,1,0,0:0:0:0:
96,148,20831,2,0,P|125:96|173:61,1,120
252,152,21498,6,0,P|223:204|175:239,1,120
64,284,22165,1,0,0:0:0:0:
228,360,22498,2,0,P|286:350|404:272,1,180,0|0,0:0|0:0,0:0:0:0:
296,208,23331,2,0,L|356:168,1,60
392,64,23831,2,0,P|312:24|256:24,1,120,0|0,0:0|0:0,0:0:0:0:
140,164,24665,6,0,L|156:240,1,60,0|0,0:0|0:0,0:0:0:0:
288,104,25331,2,0,L|320:28,1,60
380,148,25831,2,0,P|436:216|440:276,1,120
364,336,26498,1,0,0:0:0:0:
244,328,26831,6,0,P|156:276|148:188,1,180
272,80,27831,2,0,P|348:120|372:204,1,120
368,264,28498,2,0,L|380:348,2,60,0|0|0,0:0|0:0|0:0,0:0:0:0:
308,252,28998,2,0,L|276:192,1,60,0|0,0:0|0:0,0:0:0:0:
352,104,29498,5,0,0:0:0:0:
440,188,29831,2,0,P|415:205|387:214,1,60
352,104,30331,2,0,P|324:104|264:128,1,60
200,188,30831,1,0,0:0:0:0:
96,128,31165,2,0,L|2:202,1,120
104,268,31831,2,0,P|156:224|208:200,1,120
280,40,32665,6,0,L|376:76,1,60
400,164,33165,2,0,P|336:226|253:260,1,180
196,236,33831,2,0,L|104:220,1,60
144,164,34165,2,0,L|68:132,1,60
76,80,34498,1,0,0:0:0:0:
192,48,34831,5,0,0:0:0:0:
308,76,35165,2,0,P|364:96|413:131,2,120,0|0|0,0:0|0:0|0:0,0:0:0:0:
308,196,36165,1,0,0:0:0:0:
292,316,36498,6,0,L|180:260,1,120
88,192,37165,1,0,0:0:0:0:
136,80,37498,2,0,P|196:32|280:12,1,120
356,28,38165,1,0,0:0:0:0:
360,168,38831,6,0,P|400:256|368:312,2,120,0|0|0,0:0|0:0|0:0,0:0:0:0:
268,256,39831,1,0,0:0:0:0:
180,176,40165,1,0,0:0:0:0:
44,292,40665,6,0,L|96:224,1,60
196,272,41165,2,0,B|244:304|244:304|276:372,2,120,0|0|0,0:0|0:0|0:0,0:0:0:0:
76,220,42165,1,0,0:0:0:0:
16,116,42498,1,0,0:0:0:0:
112,44,42831,2,0,B|220:92|212:248,1,240
256,344,43831,1,0,0:0:0:0:
348,284,44165,6,0,L|392:220,4,60,0|0|0|0|0,0:0|0:0|0:0|0:0|0:0,0:0:0:0:
232,320,45165,2,0,P|176:292|124:236,1,120
112,76,45998,2,0,B|80:84|52:128,1,60
136,252,46498,1,0,0:0:0:0:
244,268,46831,2,0,P|316:196|328:116,1,180
272,136,47498,2,0,P|224:180|144:204,1,120,0|0,0:0|0:0,0:0:0:0:
56,216,48165,5,0,0:0:0:0:
72,96,48498,2,0,P|172:24|228:24,1,180
340,56,49331,2,0,P|352:136|272:232,1,180
188,256,50165,2,0,P|204:324|280:376,1,120
320,272,50831,6,0,P|304:204|228:152,2,120,0|0|0,0:0|0:0|0:0,0:0:0:0:
200,292,51831,2,0,L|120:280,1,60
64,188,52331,1,0,0:0:0:0:
16,80,52665,2,0,L|48:16,1,60
140,96,53165,6,0,L|196:201,1,120
248,308,53831,2,0,L|308:192,1,120
288,84,54498,2,0,L|360:164,2,60,0|0|0,0:0|0:0|0:0,0:0:0:0:
236,112,54998,2,0,L|172:204,2,60,0|0|0,0:0|0:0|0:0,0:0:0:0:
176,96,55498,1,0,0:0:0:0:
76,160,55831,6,0,B|20:192|20:192|-12:272,1,120
116,264,56498,2,0,B|172:232|172:232|204:152,1,120
312,160,57165,1,0,0:0:0:0:
340,44,57498,2,0,B|384:18|384:18|452:14,1,120
476,132,58165,1,0,0:0:0:0:
420,240,58498,1,0,0:0:0:0:
420,240,58831,6,0,L|148:296,1,240
64,280,59831,1,0,0:0:0:0:
36,164,60165,1,0,0:0:0:0:
116,76,60498,2,0,B|196:52|196:52|244:56,1,120
340,108,61165,1,0,0:0:0:0:
272,208,61498,6,0,B|235:211|235:211|155:187,1,120
60,116,62165,1,0,0:0:0:0:
64,236,62498,2,0,L|76:308,6,60,0|0|0|0|0|0|0,0:0|0:0|0:0|0:0|0:0|0:0|0:0,0:0:0:0:
96,120,63831,2,0,P|153:103|211:115,1,120
72,184,69498,6,0,P|88:112|208:68,1,180
236,76,70165,1,0,0:0:0:0:
292,180,70498,1,0,0:0:0:0:
367,364,71165,2,0,P|427:359|480:332,2,120,0|0|0,0:0|0:0|0:0,0:0:0:0:
256,320,72165,1,0,0:0:0:0:
428,272,72665,6,0,L|408:212,1,60,0|0,0:0|0:0,0:0:0:0:
324,132,73165,1,0,0:0:0:0:
488,304,73831,2,0,P|444:352|388:376,1,120
280,344,74498,1,0,0:0:0:0:
232,232,74831,6,0,B|256:164|216:152|252:196|448:204,1,240
496,108,75831,1,0,0:0:0:0:
380,80,76165,2,0,L|316:64,4,60,0|0|0|0|0,0:0|0:0|0:0|0:0|0:0,0:0:0:0:
304,172,77165,2,0,L|197:227,1,120
376,200,77998,6,0,B|384:228|384:228|416:280,1,60
496,328,78498,1,0,0:0:0:0:
380,364,78831,1,0,0:0:0:0:
260,344,79165,2,0,P|228:336|188:316,2,60,0|0|0,0:0|0:0|0:0,0:0:0:0:
160,280,79831,2,0,P|128:232|136:160,1,120
252,176,80498,2,0,P|272:112|332:76,1,120
420,136,81165,2,0,L|416:220,2,60,0|0|0,0:0|0:0|0:0,0:0:0:0:
360,124,81665,2,0,L|360:64,2,60,0|0|0,0:0|0:0|0:0,0:0:0:0:
312,156,82165,1,0,0:0:0:0:
368,264,82498,5,0,0:0:0:0:
260,316,82831,2,0,P|196:340|136:344,2,120,0|0|0,0:0|0:0|0:0,0:0:0:0:
224,200,83831,2,0,P|192:184|156:176,6,60,0|0|0|0|0|0|0,0:0|0:0|0:0|0:0|0:0|0:0|0:0,0:0:0:0:
144,292,85165,1,0,0:0:0:0:
260,316,85498,6,0,P|300:224|436:188,1,240
404,68,86498,2,0,L|448:204,1,120
396,292,87165,1,0,0:0:0:0:
284,252,87498,2,0,B|239:222|239:222|203:166,1,120
172,296,88165,5,0,0:0:0:0:
292,300,88498,1,0,0:0:0:0:
388,232,88831,2,0,P|428:160|408:72,1,120
328,56,89498,2,0,L|328:212,1,120
268,280,90165,1,0,0:0:0:0:
180,200,90498,1,0,0:0:0:0:
100,292,90831,6,0,B|132:348|132:348|216:364,1,120
296,308,91498,1,0,0:0:0:0:
332,192,91831,2,0,L|439:138,2,120,0|0|0,0:0|0:0|0:0,0:0:0:0:
212,192,92831,1,0,0:0:0:0:
284,88,93165,1,0,0:0:0:0:
160,96,93498,6,0,P|88:116|44:168,1,120,0|0,0:0|0:0,0:0:0:0:
144,228,94165,2,0,P|136:304|92:360,1,120
64,308,94665,2,0,L|48:232,5,60,0|0|0|0|0|0,0:0|0:0|0:0|0:0|0:0|0:0,0:0:0:0:
108,144,95831,1,0,0:0:0:0:
220,104,96165,6,0,P|288:108|364:172,1,120
420,216,96831,1,0,0:0:0:0:
304,252,97165,2,0,P|316:292|396:364,2,120,0|0|0,0:0|0:0|0:0,0:0:0:0:
204,184,98165,1,0,0:0:0:0:
108,256,98498,1,0,0:0:0:0:
72,156,98831,6,0,P|120:108|192:88,2,120,0|0|0,0:0|0:0|0:0,0:0:0:0:
76,276,99831,1,0,0:0:0:0:
192,244,100165,2,0,P|247:221|287:178,1,120,0|0,0:0|0:0,0:0:0:0:
244,68,100831,1,0,0:0:0:0:
136,116,101165,2,0,L|56:164,1,60
