osu file format v14

[General]
AudioFilename: 07.mp3
AudioLeadIn: 0
PreviewTime: 48083
Countdown: 0
SampleSet: Soft
StackLeniency: 0.7
Mode: 0
LetterboxInBreaks: 1
WidescreenStoryboard: 0

[Editor]
DistanceSpacing: 1
BeatDivisor: 4
GridSize: 8
TimelineZoom: 1

[Metadata]
Title:Terminal March
TitleUnicode:Terminal March
Artist:Darren Korb
ArtistUnicode:Darren Korb
Creator:[AppLoad]
Version:Insane
Source:Bastion
Tags:ost Supergiant Games Shprota
BeatmapID:509957
BeatmapSetID:217382

[Difficulty]
HPDrainRate:7
CircleSize:4
OverallDifficulty:8
ApproachRate:9
SliderMultiplier:1.6
SliderTickRate:2

[Events]
//Background and Video events
0,0,"bastion-wallpapers.html-855.jpg",0,0
//Break Periods
//Storyboard Layer 0 (Background)
//Storyboard Layer 1 (Fail)
//Storyboard Layer 2 (Pass)
//Storyboard Layer 3 (Foreground)
//Storyboard Sound Samples

[TimingPoints]
10832,333.333333333333,4,2,1,100,1,0
18499,-200,4,2,1,100,0,0
21499,-66.6666666666667,4,2,1,100,0,0
21833,-100,4,2,1,100,0,0
26833,-66.6666666666667,4,2,1,100,0,0
29833,-100,4,2,1,100,0,0
42499,-66.6666666666667,4,2,1,100,0,0
42833,-100,4,2,1,100,0,0
46831,-66.6666666666667,4,2,1,100,0,0
48165,-50,4,2,1,100,0,1
50999,-100,4,2,1,100,0,1
58831,-100,4,2,1,100,0,0
79165,-133.333333333333,4,2,1,100,0,0
79498,-100,4,2,1,100,0,0
79831,-80,4,2,1,100,0,0
80165,-66.6666666666667,4,2,1,100,0,0
81665,-80,4,2,1,100,0,0
82665,-66.6666666666667,4,2,1,100,0,0
83998,-50,4,2,1,100,0,0
85165,-200,4,2,1,100,0,0
86165,-100,4,2,1,100,0,0
86665,-100,4,2,1,100,0,0
91831,-133.333333333333,4,2,1,100,0,0
92165,-100,4,2,1,100,0,0
92498,-66.6666666666667,4,2,1,100,0,0
92831,-100,4,2,1,100,0,0
93498,-66.6666666666667,4,2,1,100,0,0
97165,-100,4,2,1,100,0,0

[HitObjects]
108,240,10832,5,0,0:0:0:0:
72,156,10998,1,0,0:0:0:0:
164,116,11165,1,0,0:0:0:0:
208,200,11332,1,0,0:0:0:0:
208,200,11415,1,0,0:0:0:0:
208,200,11498,1,0,0:0:0:0:
208,200,11582,1,0,0:0:0:0:
208,200,11665,5,0,0:0:0:0:
424,144,11832,1,0,0:0:0:0:
288,64,11998,1,0,0:0:0:0:
416,280,12165,1,0,0:0:0:0:
288,64,12332,1,0,0:0:0:0:
424,144,12498,1,0,0:0:0:0:
164,116,12665,1,0,0:0:0:0:
284,220,12832,1,0,0:0:0:0:
284,220,12915,1,0,0:0:0:0:
284,220,12998,1,0,0:0:0:0:
76,248,13165,6,0,L|48:212,2,40,0|0|0,0:0|0:0|0:0,0:0:0:0:
136,216,13498,2,0,L|120:168,2,40,0|0|0,0:0|0:0|0:0,0:0:0:0:
200,216,13832,2,0,L|220:168,2,40,0|0|0,0:0|0:0|0:0,0:0:0:0:
256,248,14165,2,0,L|288:216,5,40,0|0|0|0|0|0,0:0|0:0|0:0|0:0|0:0|0:0,0:0:0:0:
120,248,14665,2,0,L|192:292,1,80
396,128,14998,2,0,L|320:80,1,80
120,248,15332,1,0,0:0:0:0:
396,128,15498,1,0,0:0:0:0:
240,144,15831,5,0,0:0:0:0:
184,296,16166,1,12,0:0:0:0:
168,136,16499,2,0,P|148:100|148:56,1,80,10|0,0:0|0:0,0:0:0:0:
304,152,16833,2,0,P|324:112|428:76,1,160,8|0,0:0|0:0,0:0:0:0:
168,328,17333,2,0,P|116:292|76:316,1,80,8|0,0:0|0:0,0:0:0:0:
216,220,17666,2,0,P|256:180|304:176,1,80,8|0,0:0|0:0,0:0:0:0:
52,200,17999,1,0,0:0:0:0:
164,80,18166,1,0,0:0:0:0:
440,88,18499,6,0,L|388:172,1,80,2|0,0:0|0:0,0:0:0:0:
220,92,19331,1,0,0:0:0:0:
137,231,19499,2,0,L|64:200,1,80,8|0,0:0|0:0,0:0:0:0:
328,192,19999,1,2,0:0:0:0:
336,184,20081,1,0,0:0:0:0:
344,176,20166,2,0,L|376:136,1,40
196,152,20499,1,8,0:0:0:0:
220,332,20666,1,0,0:0:0:0:
400,316,20831,1,8,0:0:0:0:
388,148,21166,5,0,0:0:0:0:
344,200,21499,2,0,P|345:93|448:116,1,240.000009155274,10|10,0:0|0:0,0:0:0:0:
376,332,22166,1,0,0:0:0:0:
64,264,22499,5,0,0:0:0:0:
56,248,22580,1,0,0:0:0:0:
48,232,22665,1,0,0:0:0:0:
144,236,22830,1,0,0:0:0:0:
152,224,22915,1,0,0:0:0:0:
160,208,22997,1,0,0:0:0:0:
244,276,23165,1,0,0:0:0:0:
256,296,23247,1,0,0:0:0:0:
272,312,23331,2,0,P|312:320|352:304,1,80,0|2,0:0|0:0,0:0:0:0:
416,216,23831,1,8,0:0:0:0:
400,56,24165,6,0,P|428:124|436:164,2,80,0|0|0,0:0|0:0|0:0,0:0:0:0:
312,32,24665,1,0,0:0:0:0:
224,64,24831,1,2,0:0:0:0:
280,216,25331,5,0,0:0:0:0:
280,216,25666,1,0,0:0:0:0:
144,84,25831,1,0,0:0:0:0:
200,216,25999,1,0,0:0:0:0:
260,80,26166,2,0,P|228:116|224:156,1,80,0|0,0:0|0:0,0:0:0:0:
216,168,26416,1,0,0:0:0:0:
196,184,26499,1,0,0:0:0:0:
404,260,26831,6,0,L|424:144,1,80,4|0,0:0|0:0,0:0:0:0:
472,56,27165,1,0,0:0:0:0:
488,220,27331,1,0,0:0:0:0:
336,112,27498,2,0,P|288:112|224:160,1,120.000004577637
208,256,27831,1,0,0:0:0:0:
75,311,27999,2,0,P|48:258|56:200,1,120.000004577637
248,56,28499,5,2,0:0:0:0:
160,160,28666,1,8,0:0:0:0:
296,128,28831,1,8,0:0:0:0:
168,80,28999,1,8,0:0:0:0:
240,192,29166,1,4,0:0:0:0:
280,276,29499,6,2,P|372:308|344:196,1,240.000009155274
84,244,29999,1,2,0:0:0:0:
304,80,30331,5,2,0:0:0:0:
176,176,30498,1,6,0:0:0:0:
348,272,30665,1,2,0:0:0:0:
164,352,30831,1,6,0:0:0:0:
364,84,31166,6,0,P|400:40|432:24,1,80,4|0,0:0|0:0,0:0:0:0:
160,296,31499,2,0,P|124:340|92:356,1,80,4|0,0:0|0:0,0:0:0:0:
256,116,31831,2,0,L|256:36,1,80,4|0,0:0|0:0,0:0:0:0:
256,336,32166,1,10,0:0:0:0:
208,168,32666,6,0,L|200:216,1,40
176,220,32831,2,0,L|116:148,1,80
384,176,33166,1,12,0:0:0:0:
248,272,33331,1,8,0:0:0:0:
360,80,33498,1,12,0:0:0:0:
56,344,33831,6,0,L|144:276,1,80
184,192,34165,1,0,0:0:0:0:
168,336,34331,1,0,0:0:0:0:
120,152,34499,2,0,L|159:82,1,80
360,80,34831,1,0,0:0:0:0:
176,312,35165,5,0,0:0:0:0:
328,272,35331,2,0,P|380:224|396:184,1,80
404,164,35581,1,0,0:0:0:0:
376,112,35665,1,0,0:0:0:0:
240,328,35831,1,0,0:0:0:0:
264,152,35998,1,0,0:0:0:0:
88,352,36165,1,0,0:0:0:0:
80,112,36499,6,0,L|156:160,1,80
424,244,36831,1,0,0:0:0:0:
356,292,36998,1,0,0:0:0:0:
288,340,37166,1,0,0:0:0:0:
288,340,37249,1,0,0:0:0:0:
288,340,37331,1,0,0:0:0:0:
392,72,37499,1,2,0:0:0:0:
100,340,38166,5,8,0:0:0:0:
48,144,38831,6,0,L|100:136,6,40,2|2|2|2|2|2|2,0:0|0:0|0:0|0:0|0:0|0:0|0:0,0:0:0:0:
96,104,39416,2,0,P|112:88|152:72,1,40,4|4,0:0|0:0,0:0:0:0:
144,88,39581,2,0,P|168:136|152:232,1,120
112,296,40166,1,12,0:0:0:0:
448,80,40666,6,0,P|437:101|421:109,1,40
400,116,40831,2,0,P|348:164|384:248,1,160,0|0,0:0|0:0,0:0:0:0:
256,152,41499,5,4,0:0:0:0:
264,264,41666,2,0,L|184:192,1,80,2|0,0:0|0:0,0:0:0:0:
292,186,41999,2,0,L|352:240,1,80,2|0,0:0|0:0,0:0:0:0:
198,245,42499,6,2,P|97:260|116:160,1,240.000009155274
416,128,43331,2,0,L|400:164,2,40,0|0|0,0:0|0:0|0:0,0:0:0:0:
192,112,43831,5,0,0:0:0:0:
288,296,43999,1,0,0:0:0:0:
288,144,44166,1,0,0:0:0:0:
168,352,44331,1,0,0:0:0:0:
104,112,44499,1,0,0:0:0:0:
212,272,44666,1,0,0:0:0:0:
192,112,44831,1,0,0:0:0:0:
56,236,44999,1,0,0:0:0:0:
64,280,45082,1,0,0:0:0:0:
100,300,45165,1,0,0:0:0:0:
192,112,45499,5,0,0:0:0:0:
184,272,45999,2,0,L|272:344,1,80,4|0,0:0|0:0,0:0:0:0:
276,204,46831,6,2,P|380:244|288:136,1,360.000013732911,0|0,0:0|0:0,0:0:0:0:
144,296,47498,1,0,0:0:0:0:
80,112,47831,1,0,0:0:0:0:
276,208,48166,6,4,P|364:224|280:80,1,320
152,96,48831,1,0,0:0:0:0:
128,104,48916,1,0,0:0:0:0:
112,120,48999,1,0,0:0:0:0:
104,144,49081,1,0,0:0:0:0:
104,168,49165,1,0,0:0:0:0:
432,80,49331,5,8,0:0:0:0:
328,288,49498,1,8,0:0:0:0:
312,120,49665,1,8,0:0:0:0:
416,344,49831,1,8,0:0:0:0:
480,224,49998,1,8,0:0:0:0:
480,224,50081,1,4,0:0:0:0:
480,224,50165,1,8,0:0:0:0:
336,168,50499,5,0,0:0:0:0:
368,328,50665,1,0,0:0:0:0:
184,304,50831,1,0,0:0:0:0:
424,272,50999,2,0,L|394:346,1,80
284,260,51331,2,0,L|324:168,1,80
308,156,51581,1,0,0:0:0:0:
288,132,51666,1,0,0:0:0:0:
256,124,51749,1,0,0:0:0:0:
224,128,51832,5,0,0:0:0:0:
72,260,51999,1,8,0:0:0:0:
128,96,52165,1,8,0:0:0:0:
244,224,52332,1,4,0:0:0:0:
52,168,52499,1,4,0:0:0:0:
172,292,52665,1,8,0:0:0:0:
220,128,52831,1,8,0:0:0:0:
464,200,53166,6,2,L|424:276,1,80
336,128,53499,1,4,0:0:0:0:
312,280,53666,2,2,L|276:352,1,80,0|0,0:0|0:0,0:0:0:0:
448,128,53999,1,6,0:0:0:0:
240,68,54166,1,0,0:0:0:0:
212,84,54249,1,0,0:0:0:0:
192,108,54331,1,0,0:0:0:0:
180,136,54416,1,0,0:0:0:0:
176,168,54499,5,0,0:0:0:0:
216,312,54666,1,0,0:0:0:0:
384,52,54831,1,0,0:0:0:0:
216,312,54999,1,0,0:0:0:0:
264,112,55166,1,0,0:0:0:0:
216,312,55332,1,0,0:0:0:0:
132,184,55499,1,0,0:0:0:0:
216,312,55831,5,0,0:0:0:0:
72,208,55999,1,0,0:0:0:0:
72,208,56081,1,0,0:0:0:0:
72,208,56166,1,4,0:0:0:0:
188,72,56331,2,2,P|224:56|272:52,1,80
472,224,56666,2,0,P|432:224|384:252,1,80,2|0,0:0|0:0,0:0:0:0:
368,256,56916,1,0,0:0:0:0:
340,268,56999,1,0,0:0:0:0:
308,268,57081,1,0,0:0:0:0:
276,260,57166,1,0,0:0:0:0:
396,104,57331,5,4,0:0:0:0:
144,256,57498,1,8,0:0:0:0:
328,64,57665,1,4,0:0:0:0:
312,352,57831,1,8,0:0:0:0:
136,176,57998,1,4,0:0:0:0:
384,328,58165,1,8,0:0:0:0:
256,212,58499,2,2,B|256:160|256:160|268:152|268:152|244:140|244:140|256:132|256:132|256:72,1,160
452,288,59499,6,2,B|376:260|336:296|268:304|216:264,1,240
276,200,60166,1,4,0:0:0:0:
192,172,60331,1,0,0:0:0:0:
120,232,60499,1,8,0:0:0:0:
132,316,60666,1,0,0:0:0:0:
216,340,60831,1,8,0:0:0:0:
456,80,61165,5,0,0:0:0:0:
440,88,61331,2,0,L|412:188,1,80,0|0,0:0|0:0,0:0:0:0:
340,112,61666,2,0,L|316:200,1,80
236,136,61999,2,0,L|212:224,1,80
192,220,62248,1,0,0:0:0:0:
184,248,62331,1,0,0:0:0:0:
176,276,62416,1,0,0:0:0:0:
168,304,62499,1,0,0:0:0:0:
356,224,62666,5,4,0:0:0:0:
120,144,62831,2,2,L|44:224,1,80
156,224,63166,1,4,0:0:0:0:
392,144,63331,2,2,L|468:224,1,80
216,136,63831,1,8,0:0:0:0:
352,264,64165,5,12,0:0:0:0:
352,264,64498,1,12,0:0:0:0:
440,208,64665,1,8,0:0:0:0:
392,112,64832,1,12,0:0:0:0:
296,160,64998,1,8,0:0:0:0:
168,72,65165,2,0,B|224:32|248:128|344:56,1,160,8|8,0:0|0:0,0:0:0:0:
440,272,65831,5,8,0:0:0:0:
440,272,65998,1,8,0:0:0:0:
272,360,66331,1,4,0:0:0:0:
272,360,66498,1,4,0:0:0:0:
112,256,66831,5,2,0:0:0:0:
368,152,67165,2,2,L|384:64,1,80
216,136,67665,2,2,L|200:214,1,80
368,150,67998,2,2,L|384:72,1,80
360,296,68498,5,0,0:0:0:0:
256,240,68664,1,0,0:0:0:0:
360,184,68831,1,0,0:0:0:0:
256,128,68998,1,4,0:0:0:0:
160,56,69164,1,0,0:0:0:0:
56,128,69331,1,4,0:0:0:0:
160,192,69498,1,8,0:0:0:0:
488,216,69999,5,0,0:0:0:0:
232,308,70166,1,4,0:0:0:0:
444,68,70499,1,8,0:0:0:0:
168,96,71166,5,0,0:0:0:0:
56,332,71332,1,0,0:0:0:0:
476,92,71831,6,0,L|384:144,1,80
352,96,72165,1,0,0:0:0:0:
256,192,72498,1,0,0:0:0:0:
160,96,72665,1,0,0:0:0:0:
352,288,72832,1,0,0:0:0:0:
352,96,72998,1,0,0:0:0:0:
160,288,73165,1,0,0:0:0:0:
160,296,73248,1,0,0:0:0:0:
160,304,73331,1,0,0:0:0:0:
272,88,73831,6,2,L|220:104,1,40
213,171,73998,2,0,L|252:160,1,40
312,216,74164,2,2,L|260:232,1,40
253,307,74331,2,0,L|292:296,1,40
352,344,74498,1,2,0:0:0:0:
258,143,74831,2,2,P|156:236|96:112,1,320
200,92,76165,5,0,0:0:0:0:
252,68,76248,1,0,0:0:0:0:
304,84,76331,1,0,0:0:0:0:
336,132,76415,1,0,0:0:0:0:
352,184,76498,2,4,L|412:212,1,40
340,224,76665,2,2,L|288:256,1,40
344,288,76832,2,0,L|380:308,1,40
304,84,77165,1,0,0:0:0:0:
304,84,77498,5,0,0:0:0:0:
136,188,77665,2,0,L|100:264,1,80
220,248,77998,2,0,L|256:168,1,80,0|8,0:0|0:0,0:0:0:0:
240,160,78248,2,2,P|196:148|124:216,1,120.000004577637,4|0,0:0|0:0,0:0:0:0:
284,244,78831,1,0,0:0:0:0:
88,292,79165,6,0,L|168:288,1,60.0000022888184
80,228,79498,2,0,L|192:220,1,80
72,160,79831,2,0,L|192:152,1,100
136,208,80165,2,0,P|108:144|232:168,1,240.000009155274,8|0,0:0|0:0,0:0:0:0:
316,208,80831,5,0,0:0:0:0:
76,156,81165,1,8,0:0:0:0:
280,64,81331,1,8,0:0:0:0:
436,224,81498,1,8,0:0:0:0:
232,320,81665,2,0,L|100:272,1,100,8|4,0:0|0:0,0:0:0:0:
136,148,81998,2,0,L|248:192,1,100,8|4,0:0|0:0,0:0:0:0:
480,312,82498,5,8,0:0:0:0:
408,264,82665,2,0,L|448:96,1,120.000004577637,4|0,0:0|0:0,0:0:0:0:
432,64,82998,2,0,P|376:100|356:164,1,120.000004577637,4|0,0:0|0:0,0:0:0:0:
468,360,83331,1,0,0:0:0:0:
208,312,83498,2,2,P|156:272|272:264,1,240.000009155274
328,260,83998,6,0,B|384:168|384:168|428:280,1,180.000006866455,0|2,0:0|0:0,0:0:0:0:
436,336,84331,1,6,0:0:0:0:
152,56,84498,1,8,0:0:0:0:
336,312,84665,1,8,0:0:0:0:
308,92,84831,1,2,0:0:0:0:
424,108,85165,6,0,L|432:152,1,40
348,144,85498,2,0,L|356:188,1,40
276,188,85831,2,0,L|284:232,1,40
352,288,86165,2,2,P|430:289|487:236,1,160
416,112,86665,2,0,L|392:200,1,80
312,200,86998,2,0,L|256:280,1,80
176,248,87331,2,0,L|72:288,1,80
144,192,87831,5,0,0:0:0:0:
244,168,87998,1,0,0:0:0:0:
256,176,88165,1,0,0:0:0:0:
136,208,88331,1,0,0:0:0:0:
128,224,88498,1,0,0:0:0:0:
272,184,88665,1,0,0:0:0:0:
296,184,88748,1,0,0:0:0:0:
310,176,88831,2,2,B|408:108|400:-36|256:40|328:64,1,240
440,232,89498,5,0,0:0:0:0:
128,80,89664,1,0,0:0:0:0:
128,80,89831,1,0,0:0:0:0:
104,344,89998,1,0,0:0:0:0:
104,344,90165,2,2,P|152:320|200:224,1,160
40,272,90831,1,0,0:0:0:0:
232,208,91498,5,0,0:0:0:0:
304,224,91831,2,2,L|344:280,1,60.0000022888184
360,160,92165,6,2,L|296:80,1,80
256,96,92498,6,2,L|344:200,1,120
157,220,92831,6,2,L|80:240,1,80,0|0,0:0|0:0,0:0:0:0:
256,336,93165,1,0,0:0:0:0:
416,128,93498,6,2,P|432:152|352:320,2,240.000009155274,0|0|0,0:0|0:0|0:0,0:0:0:0:
128,240,94498,1,0,0:0:0:0:
80,88,94665,2,0,L|208:120,1,120.000004577637
384,240,94998,1,0,0:0:0:0:
432,88,95165,2,0,L|304:120,1,120.000004577637
80,88,95498,1,0,0:0:0:0:
432,88,95831,1,0,0:0:0:0:
488,144,96165,6,0,P|413:168|408:16,1,240.000009155274,10|0,0:0|0:0,0:0:0:0:
80,88,96831,1,0,0:0:0:0:
288,288,97165,2,0,L|192:320,1,80
200,240,97498,2,0,L|120:224,1,80
152,160,97831,2,0,P|120:128|72:128,1,80
88,56,98165,2,0,P|160:72|216:144,1,160
208,176,98665,1,0,0:0:0:0:
168,200,98831,1,0,0:0:0:0:
144,64,99165,5,0,0:0:0:0:
352,32,99498,1,0,0:0:0:0:
288,112,99665,1,0,0:0:0:0:
296,128,99748,1,0,0:0:0:0:
312,144,99831,1,0,0:0:0:0:
496,224,99998,1,0,0:0:0:0:
336,328,100165,1,0,0:0:0:0:
312,144,100332,1,0,0:0:0:0:
304,128,100415,1,0,0:0:0:0:
288,112,100498,5,0,0:0:0:0:
216,80,100665,1,0,0:0:0:0:
136,88,100831,1,0,0:0:0:0:
72,136,100998,1,8,0:0:0:0:
48,216,101165,1,4,0:0:0:0:
64,296,101331,2,2,L|88:360,1,40,2|2,0:0|0:0,0:0:0:0:
