osu file format v13

[General]
AudioFilename: bastion.mp3
AudioLeadIn: 1985
PreviewTime: 32242
Countdown: 0
SampleSet: Soft
StackLeniency: 0.7
Mode: 0
LetterboxInBreaks: 1
WidescreenStoryboard: 1

[Editor]
Bookmarks: 104242,134742
DistanceSpacing: 1
BeatDivisor: 4
GridSize: 4
TimelineZoom: 1

[Metadata]
Title:Setting Sail, Coming Home
TitleUnicode:Setting Sail, Coming Home
Artist:Darren Korb
ArtistUnicode:Darren Korb
Creator:Metal
Version:Moway's Normal
Source:Bastion
Tags:bastion end theme ED zulf zia kid game metal509 moway ashley barrett
BeatmapID:289109
BeatmapSetID:108461

[Difficulty]
HPDrainRate:4
CircleSize:3
OverallDifficulty:4
ApproachRate:5
SliderMultiplier:1.6
SliderTickRate:2

[Events]
//Background and Video events
0,0,"kid_winter_wallpaper_1920x1080.jpg",0,0
//Break Periods
//Storyboard Layer 0 (Background)
//Storyboard Layer 1 (Fail)
//Storyboard Layer 2 (Pass)
//Storyboard Layer 3 (Foreground)
//Storyboard Sound Samples
//Background Colour Transformations
3,100,163,162,255

[TimingPoints]
242,500,4,2,0,100,1,0
80242,-100,4,2,0,100,0,1
112242,-100,4,2,0,100,0,0

[Colours]
Combo1 : 168,193,142
Combo2 : 0,200,0
Combo3 : 85,85,255
Combo4 : 100,68,38
Combo5 : 255,255,0
Combo6 : 193,168,142

[HitObjects]
16,168,242,70,0,B|80:168|80:168|116:200|116:200|172:200,1,160,4|0,1:0|0:0,0:0:0:0:
320,160,1242,2,0,L|320:80,2,80,2|0|0,0:0|0:0|0:0,0:0:0:0:
384,304,2242,2,0,L|453:344,2,80,0|0|0,0:0|0:0|0:0,0:0:0:0:
316,260,2992,1,0,0:0:0:0:
236,248,3242,2,0,B|184:248|184:248|128:248|100:304,1,160,2|0,0:0|0:0,0:0:0:0:
100,144,4242,6,0,P|164:96|176:20,1,160,0|0,0:0|0:0,0:0:0:0:
335,20,5242,2,0,P|349:97|412:144,1,160,2|0,0:0|0:0,0:0:0:0:
379,300,6242,2,0,P|359:338|321:358,1,80,0|0,0:0|0:0,0:0:0:0:
300,280,6742,2,0,P|257:281|220:258,1,80,0|0,0:0|0:0,0:0:0:0:
279,204,7242,2,0,P|210:167|130:172,1,160,2|0,0:0|0:0,0:0:0:0:
213,307,8242,70,0,P|359:294|385:139,1,320,0|2,0:0|0:0,0:0:0:0:
229,102,9742,1,2,0:0:0:0:
150,113,9992,2,0,P|71:105|-5:61,2,160,0|0|0,0:0|0:0|0:0,0:0:0:0:
229,102,11242,1,2,0:0:0:0:
368,22,11742,1,0,0:0:0:0:
440,164,12242,6,0,B|485:266|485:266|361:238|334:369,1,320,0|2,0:0|0:0,0:0:0:0:
72,164,14242,2,0,B|27:266|27:266|151:238|178:369,1,320,0|2,0:0|0:0,0:0:0:0:
256,228,15742,1,0,0:0:0:0:
256,228,16242,70,0,B|256:188|240:176|240:176|272:168|272:168|256:160|256:72,1,160,4|0,1:0|0:0,0:0:0:0:
100,72,17242,2,0,P|56:88|32:128,1,80,2|0,0:0|0:0,0:0:0:0:
44,192,17742,2,0,P|88:176|112:136,1,80,0|0,0:0|0:0,0:0:0:0:
172,104,18242,2,0,P|216:120|240:160,2,80,0|0|0,0:0|0:0|0:0,0:0:0:0:
132,260,19242,2,0,P|200:312|280:312,1,160,2|0,0:0|0:0,0:0:0:0:
368,188,20242,6,0,B|368:128|368:128|344:96|344:96|344:36,1,160,0|0,0:0|0:0,0:0:0:0:
168,36,21242,2,0,B|168:96|168:96|144:128|144:128|144:188,1,160,2|0,0:0|0:0,0:0:0:0:
256,304,22242,2,0,L|336:304,2,80,0|0|0,0:0|0:0|0:0,0:0:0:0:
96,304,23242,2,0,P|60:240|96:168,1,160,2|0,0:0|0:0,0:0:0:0:
188,144,23992,1,0,0:0:0:0:
281,166,24242,70,0,P|233:226|145:230,1,160,0|0,0:0|0:0,0:0:0:0:
264,73,25242,2,0,P|317:17|405:21,1,160,2|0,0:0|0:0,0:0:0:0:
354,104,25992,1,0,0:0:0:0:
281,166,26242,2,0,P|251:204|248:236,2,80,0|0|0,0:0|0:0|0:0,0:0:0:0:
428,292,27242,2,0,P|360:340|268:324,1,160,2|0,0:0|0:0,0:0:0:0:
132,300,28242,6,0,B|100:208|12:240|12:240|93:168|12:95|12:95|100:128|132:35,1,480,0|0,0:0|0:0,0:0:0:0:
292,48,30242,2,0,L|372:80,1,80,0|2,0:0|0:0,0:0:0:0:
316,140,30742,2,0,L|349:219,1,80,0|0,0:0|0:0,0:0:0:0:
268,228,31242,2,0,P|188:276|168:356,1,160,2|0,0:0|0:0,0:0:0:0:
324,364,32242,6,0,P|404:316|424:236,1,160,4|0,1:0|0:0,0:0:0:0:
336,124,33242,2,0,B|216:32|140:216|40:124,1,320,2|0,0:0|0:0,0:0:0:0:
168,28,34742,1,0,0:0:0:0:
268,192,35242,2,0,P|292:264|272:344,1,160,2|0,0:0|0:0,0:0:0:0:
112,348,36242,6,0,P|67:355|30:340,1,80,0|0,0:0|0:0,0:0:0:0:
80,276,36742,2,0,P|43:250|28:213,1,80,0|0,0:0|0:0,0:0:0:0:
108,200,37242,2,0,P|193:200|270:147,1,160,2|0,0:0|0:0,0:0:0:0:
324,120,37992,1,0,0:0:0:0:
404,116,38242,2,0,P|450:127|485:152,2,80,0|0|0,0:0|0:0|0:0,0:0:0:0:
260,44,39242,2,0,P|233:129|264:195,1,160,2|0,0:0|0:0,0:0:0:0:
352,324,40242,5,0,0:0:0:0:
160,324,40742,1,0,0:0:0:0:
180,168,41242,2,0,B|248:136|268:208|332:168,1,160,2|0,0:0|0:0,0:0:0:0:
256,308,42242,1,0,0:0:0:0:
100,264,42742,2,0,P|44:192|52:128,2,160,0|2|0,0:0|0:0|0:0,0:0:0:0:
256,308,44242,5,0,0:0:0:0:
404,248,44742,1,0,0:0:0:0:
476,104,45242,2,0,P|484:64|476:24,1,80,2|0,0:0|0:0,0:0:0:0:
404,64,45742,2,0,P|381:30|347:8,1,80,0|0,0:0|0:0,0:0:0:0:
324,84,46242,2,0,P|284:76|244:83,2,80,0|0|0,0:0|0:0|0:0,0:0:0:0:
420,216,47242,2,0,P|400:284|336:344,1,160,2|0,0:0|0:0,0:0:0:0:
175,343,48242,38,0,P|116:291|92:216,1,160,4|0,1:0|0:0,0:0:0:0:
156,68,49242,2,0,B|228:104|255:188|255:188|284:104|356:68,1,320,2|0,0:0|0:0,0:0:0:0:
420,216,50742,2,0,P|400:284|336:344,1,160,0|2,0:0|0:0,0:0:0:0:
175,343,51742,1,0,0:0:0:0:
60,232,52242,6,0,P|24:156|64:84,1,160,0|0,0:0|0:0,0:0:0:0:
192,172,53242,2,0,P|272:184|348:152,1,160,2|0,0:0|0:0,0:0:0:0:
412,116,53992,1,0,0:0:0:0:
492,116,54242,2,0,P|512:152|508:200,2,80,0|0|0,0:0|0:0|0:0,0:0:0:0:
360,28,55242,1,2,0:0:0:0:
300,176,55742,1,0,0:0:0:0:
164,88,56242,6,0,P|72:128|48:192,1,160,0|0,0:0|0:0,0:0:0:0:
109,327,57242,2,0,B|186:347|250:268|250:268|344:296|397:223,1,320,2|0,0:0|0:0,0:0:0:0:
277,116,58742,2,0,P|194:113|131:174,2,160,0|2|0,0:0|0:0|0:0,0:0:0:0:
428,168,60242,5,0,0:0:0:0:
152,328,61242,2,0,P|108:272|132:184,1,160,2|0,0:0|0:0,0:0:0:0:
260,100,62242,2,0,L|344:68,1,80,0|0,0:0|0:0,0:0:0:0:
352,148,62742,2,0,L|440:162,1,80,0|0,0:0|0:0,0:0:0:0:
408,236,63242,2,0,P|412:340|376:388,1,160,2|0,0:0|0:0,0:0:0:0:
236,320,64242,38,0,B|161:287|161:287|81:287,1,160,0|0,0:0|0:0,0:0:0:0:
160,148,65242,2,0,B|235:181|235:181|315:181,1,160,2|0,0:0|0:0,0:0:0:0:
460,120,66242,2,0,P|472:80|456:36,2,80,0|0|0,0:0|0:0|0:0,0:0:0:0:
336,224,67242,1,2,0:0:0:0:
452,332,67742,1,0,0:0:0:0:
336,224,68242,5,0,0:0:0:0:
208,324,68742,2,0,P|140:360|52:352,2,160,0|2|0,0:0|0:0|0:0,0:0:0:0:
184,164,70242,2,0,L|140:92,2,80,0|0|0,0:0|0:0|0:0,0:0:0:0:
272,296,71242,2,0,P|312:328|352:340,1,80,2|0,0:0|0:0,0:0:0:0:
348,256,71742,2,0,P|398:250|435:230,1,80,0|0,0:0|0:0,0:0:0:0:
370,178,72242,6,0,P|382:94|322:46,1,160,0|0,0:0|0:0,0:0:0:0:
185,114,73242,2,0,P|105:154|29:154,1,160,2|0,0:0|0:0,0:0:0:0:
139,33,74242,1,0,0:0:0:0:
281,104,74742,1,0,0:0:0:0:
176,224,75242,2,0,P|148:288|176:372,1,160,2|0,0:0|0:0,0:0:0:0:
337,370,76242,6,0,P|364:296|336:224,1,160,0|0,0:0|0:0,0:0:0:0:
208,128,77242,2,0,L|128:128,1,80,2|0,0:0|0:0,0:0:0:0:
108,204,77742,2,0,L|188:204,1,80,0|0,0:0|0:0,0:0:0:0:
268,204,78242,2,0,P|300:168|304:132,2,80,0|0|0,0:0|0:0|0:0,0:0:0:0:
124,272,79242,2,0,L|64:208,1,80,2|0,0:0|0:0,0:0:0:0:
108,144,79742,2,0,L|162:202,1,80,0|0,0:0|0:0,0:0:0:0:
240,228,80242,38,0,P|324:236|396:200,1,160,4|0,1:0|0:0,0:0:0:0:
292,80,81242,1,2,2:0:0:0:
96,216,81992,1,0,0:0:0:0:
96,216,82242,2,0,P|104:264|132:300,1,80,0|0,0:0|0:0,0:0:0:0:
200,304,82742,2,0,P|192:256|164:220,1,80,0|0,0:0|0:0,0:0:0:0:
220,164,83242,2,0,P|268:236|276:328,1,160,2|0,0:0|0:0,0:0:0:0:
440,292,84242,6,0,B|500:232|500:232|440:172|476:88,1,240,0|0,0:0|0:0,0:0:0:0:
404,56,85242,2,0,B|324:20|324:92|248:56,1,160,2|0,0:0|0:0,0:0:0:0:
172,36,85992,1,0,0:0:0:0:
92,32,86242,2,0,P|48:52|24:84,2,80,0|0|0,0:0|0:0|0:0,0:0:0:0:
208,144,87242,2,0,P|219:181|213:221,2,80,2|0|0,0:0|0:0|0:0,0:0:0:0:
88,252,88242,6,0,P|136:332|216:344,1,160,0|0,0:0|0:0,0:0:0:0:
336,272,89242,2,0,P|400:216|480:216,1,160,2|0,0:0|0:0,0:0:0:0:
384,348,90242,2,0,P|348:358|304:356,1,80,0|0,0:0|0:0,0:0:0:0:
228,332,90742,2,0,P|192:321|148:324,1,80,0|0,0:0|0:0,0:0:0:0:
72,332,91242,2,0,P|40:264|56:176,1,160,2|0,0:0|0:0,0:0:0:0:
148,56,92242,6,0,P|276:64|188:172,1,320,0|2,0:0|0:0,0:0:0:0:
264,320,93742,2,0,L|352:336,1,80,0|0,0:0|0:0,0:0:0:0:
412,292,94242,2,0,P|428:260|428:212,1,80,0|0,0:0|0:0,0:0:0:0:
376,156,94742,2,0,P|360:124|360:76,1,80,0|0,0:0|0:0,0:0:0:0:
280,60,95242,2,0,P|212:112|128:116,1,160,2|0,0:0|0:0,0:0:0:0:
244,240,96242,38,0,P|292:280|312:344,2,120,0|0|0,0:0|0:0|0:0,0:0:0:0:
164,224,97242,2,0,P|88:212|40:148,2,160,2|0|0,0:0|0:0|0:0,0:0:0:0:
224,168,98492,2,0,L|248:128,2,40,2|0|2,0:0|0:0|0:0,0:0:0:0:
164,224,98992,1,0,0:0:0:0:
104,276,99242,2,0,P|72:312|64:352,2,80,2|0|0,0:0|0:0|0:0,0:0:0:0:
260,312,100242,6,0,B|340:332|340:332|360:244|440:216,1,240,0|0,0:0|0:0,0:0:0:0:
388,152,101242,2,0,B|340:176|316:204|316:204|240:180,1,160,2|0,0:0|0:0,0:0:0:0:
176,148,101992,1,0,0:0:0:0:
112,196,102242,2,0,P|160:256|244:260,1,160,0|0,0:0|0:0,0:0:0:0:
376,180,103242,2,0,L|416:104,1,80,2|0,0:0|0:0,0:0:0:0:
352,60,103742,2,0,L|314:130,1,80,0|0,0:0|0:0,0:0:0:0:
276,200,104242,5,0,0:0:0:0:
276,200,104492,2,0,P|188:240|120:228,2,160,0|0|0,0:0|0:0|0:0,0:0:0:0:
284,120,105742,2,0,P|260:84|224:68,1,80,0|0,0:0|0:0,0:0:0:0:
72,100,106492,2,0,L|36:116,2,40,0|0|2,0:0|0:0|0:0,0:0:0:0:
148,124,106992,2,0,P|184:192|144:260,1,160,0|0,0:0|0:0,0:0:0:0:
84,312,107742,1,0,0:0:0:0:
240,356,108242,6,0,P|336:340|372:288,1,160,0|0,0:0|0:0,0:0:0:0:
288,156,109242,2,0,P|248:139|216:112,2,80,2|0|0,0:0|0:0|0:0,0:0:0:0:
444,188,110242,2,0,P|481:164|528:160,2,80,0|0|0,0:0|0:0|0:0,0:0:0:0:
384,240,110992,1,0,0:0:0:0:
328,296,111242,2,0,P|260:324|172:284,1,160,2|2,0:0|0:0,0:0:0:0:
120,244,111992,1,0,0:0:0:0:
88,172,112242,37,4,1:0:0:0:
184,44,112742,2,0,P|244:96|244:176,2,160,0|2|0,0:0|0:0|0:0,0:0:0:0:
24,32,114242,1,0,0:0:0:0:
8,192,114742,1,0,0:0:0:0:
160,240,115242,2,0,P|200:264|224:296,2,80,2|0|0,0:0|0:0|0:0,0:0:0:0:
300,164,116242,6,0,P|388:140|472:144,1,160,0|0,0:0|0:0,0:0:0:0:
448,300,117242,2,0,P|360:324|276:320,1,160,2|0,0:0|0:0,0:0:0:0:
196,196,118242,2,0,L|168:116,1,80,0|0,0:0|0:0,0:0:0:0:
88,128,118742,2,0,B|128:248|128:248|168:276,1,160,0|2,0:0|0:0,0:0:0:0:
236,272,119492,1,0,0:0:0:0:
296,220,119742,2,0,P|336:196|376:196,1,80,0|0,0:0|0:0,0:0:0:0:
444,216,120242,5,0,0:0:0:0:
400,368,120742,1,0,0:0:0:0:
256,300,121242,1,2,0:0:0:0:
112,368,121742,1,0,0:0:0:0:
256,300,122242,2,0,P|312:232|304:160,2,160,0|0|2,0:0|0:0|0:0,0:0:0:0:
180,280,123492,2,0,L|96:252,2,80,0|0|0,0:0|0:0|0:0,0:0:0:0:
256,300,124242,6,0,P|340:328|400:376,1,160,0|0,0:0|0:0,0:0:0:0:
332,224,125242,2,0,P|248:196|188:148,1,160,2|0,0:0|0:0,0:0:0:0:
352,132,126242,2,0,P|388:148|416:176,2,80,0|0|0,0:0|0:0|0:0,0:0:0:0:
200,88,127242,2,0,P|195:48|206:10,2,80,2|0|0,0:0|0:0|0:0,0:0:0:0:
232,160,127992,1,2,0:0:0:0:
264,232,128242,38,0,P|293:302|247:364,1,160,4|0,1:0|0:0,0:0:0:0:
183,220,129242,2,0,P|154:149|199:88,1,160,2|0,0:0|0:0,0:0:0:0:
368,112,130242,2,0,L|528:156,1,160,0|0,0:0|0:0,0:0:0:0:
372,212,131242,2,0,L|292:192,2,80,2|0|0,0:0|0:0|0:0,0:0:0:0:
256,324,132242,6,0,L|101:281,1,160,0|0,0:0|0:0,0:0:0:0:
20,144,133242,1,2,0:0:0:0:
140,36,133742,1,0,0:0:0:0:
244,156,134242,2,0,P|216:188|180:200,2,80,0|0|0,0:0|0:0|0:0,0:0:0:0:
364,48,135242,2,0,P|392:16|428:4,1,80,2|0,0:0|0:0,0:0:0:0:
436,84,135742,2,0,P|478:81|512:98,1,80,0|0,0:0|0:0,0:0:0:0:
460,160,136242,5,0,0:0:0:0:
340,268,136742,1,0,0:0:0:0:
500,248,137242,1,2,0:0:0:0:
360,172,137742,1,0,0:0:0:0:
425,317,138242,2,0,P|381:357|285:349,1,160,0|0,0:0|0:0,0:0:0:0:
140,288,139242,2,0,L|72:240,1,80,2|0,0:0|0:0,0:0:0:0:
132,184,139742,2,0,L|64:136,1,80,0|0,0:0|0:0,0:0:0:0:
128,84,140242,6,0,B|196:132|196:132|216:168|264:176,1,160,0|0,0:0|0:0,0:0:0:0:
416,176,141242,2,0,B|348:128|348:128|328:92|280:84,1,160,2|0,0:0|0:0,0:0:0:0:
176,196,142242,2,0,L|136:268,1,80,0|0,0:0|0:0,0:0:0:0:
216,288,142742,2,0,L|216:372,1,80,0|0,0:0|0:0,0:0:0:0:
296,368,143242,2,0,L|296:288,1,80,2|0,0:0|0:0,0:0:0:0:
374,265,143742,2,0,L|336:196,1,80,0|0,0:0|0:0,0:0:0:0:
340,116,144242,38,0,P|220:65|252:190,1,320,4|2,1:0|0:0,0:0:0:0:
404,244,145742,1,0,0:0:0:0:
248,288,146242,2,0,P|136:224|116:40,1,320,0|2,0:0|0:0,0:0:0:0:
272,44,147742,1,0,0:0:0:0:
416,112,148242,6,0,P|424:172|360:260,1,160,0|0,0:0|0:0,0:0:0:0:
216,276,149242,1,2,0:0:0:0:
128,144,149742,1,0,0:0:0:0:
276,204,150242,1,0,0:0:0:0:
120,236,150742,1,0,0:0:0:0:
224,116,151242,2,0,P|300:108|368:164,1,160,2|0,0:0|0:0,0:0:0:0:
344,316,152242,6,0,B|224:408|148:224|48:316,1,320,0|2,0:0|0:0,0:0:0:0:
4,164,153742,1,0,0:0:0:0:
140,80,154242,2,0,P|164:124|168:156,1,80,0|0,0:0|0:0,0:0:0:0:
220,216,154742,2,0,P|244:172|248:140,1,80,0|0,0:0|0:0,0:0:0:0:
284,72,155242,2,0,P|336:128|344:216,1,160,2|0,0:0|0:0,0:0:0:0:
256,192,156242,12,4,160242,0:0:0:0:
