osu file format v13

[General]
AudioFilename: bastion.mp3
AudioLeadIn: 1985
PreviewTime: 32242
Countdown: 0
SampleSet: Soft
StackLeniency: 0.7
Mode: 0
LetterboxInBreaks: 1
WidescreenStoryboard: 1

[Editor]
Bookmarks: 104242,134742
DistanceSpacing: 0.94
BeatDivisor: 4
GridSize: 4
TimelineZoom: 1

[Metadata]
Title:Setting Sail, Coming Home
TitleUnicode:Setting Sail, Coming Home
Artist:Darren Korb
ArtistUnicode:Darren Korb
Creator:Metal
Version:Hard
Source:Bastion
Tags:bastion end theme ED zulf zia kid game metal509 moway ashley barrett
BeatmapID:289108
BeatmapSetID:108461

[Difficulty]
HPDrainRate:6
CircleSize:4
OverallDifficulty:6
ApproachRate:7
SliderMultiplier:2
SliderTickRate:2

[Events]
//Background and Video events
0,0,"kid_winter_wallpaper_1920x1080.jpg",0,0
//Break Periods
2,80442,95342
//Storyboard Layer 0 (Background)
//Storyboard Layer 1 (Fail)
//Storyboard Layer 2 (Pass)
//Storyboard Layer 3 (Foreground)
//Storyboard Sound Samples
//Background Colour Transformations
3,100,163,162,255

[TimingPoints]
242,500,4,2,0,100,1,0
96242,-100,4,2,0,100,0,1
112242,-100,4,2,0,100,0,0
160367,-100,4,2,0,80,0,0
160742,-100,4,2,0,70,0,0
161242,-100,4,2,0,60,0,0
161742,-100,4,2,0,50,0,0
162242,-100,4,2,0,40,0,0
162742,-100,4,2,0,30,0,0
163242,-100,4,2,0,10,0,0
163742,-100,4,2,0,5,0,0

[Colours]
Combo1 : 168,193,142
Combo2 : 0,200,0
Combo3 : 85,85,255
Combo4 : 100,68,38
Combo5 : 255,255,0
Combo6 : 193,168,142

[HitObjects]
120,232,242,70,0,P|184:252|296:184,1,200,4|0,1:0|0:0,0:0:0:0:
108,138,1242,2,0,P|48:171|28:214,1,100,2|0,0:0|0:0,0:0:0:0:
48,296,1742,1,0,0:0:0:0:
136,340,1992,1,0,0:0:0:0:
236,328,2242,2,0,P|300:308|336:260,2,100,0|0|0,0:0|0:0|0:0,0:0:0:0:
244,232,2992,1,0,0:0:0:0:
232,129,3242,2,0,P|170:129|124:84,1,100,2|0,0:0|0:0,0:0:0:0:
204,40,3742,2,0,P|266:40|295:60,1,100,0|0,0:0|0:0,0:0:0:0:
320,152,4242,6,0,P|372:116|358:-12,1,200,0|0,0:0|0:0,0:0:0:0:
232,132,5242,2,0,P|180:124|128:148,1,100,2|0,0:0|0:0,0:0:0:0:
96,228,5742,2,0,P|148:236|191:219,1,100,0|0,0:0|0:0,0:0:0:0:
276,272,6242,1,0,0:0:0:0:
356,332,6492,1,0,0:0:0:0:
408,248,6742,1,0,0:0:0:0:
412,148,6992,1,0,0:0:0:0:
316,176,7242,2,0,P|256:162|221:129,2,100,2|0|0,0:0|0:0|0:0,0:0:0:0:
304,80,7992,1,0,0:0:0:0:
212,40,8242,70,0,P|80:40|28:88,1,200,0|0,0:0|0:0,0:0:0:0:
112,264,9242,2,0,P|160:244|190:208,2,100,2|0|0,0:0|0:0|0:0,0:0:0:0:
104,168,9992,1,0,0:0:0:0:
184,112,10242,2,0,P|236:124|272:160,2,100,0|0|0,0:0|0:0|0:0,0:0:0:0:
104,168,10992,1,0,0:0:0:0:
25,222,11242,2,0,P|68:256|148:257,1,100,2|0,0:0|0:0,0:0:0:0:
200,316,11742,1,0,0:0:0:0:
276,248,11992,1,0,0:0:0:0:
370,257,12242,6,0,P|331:170|236:160,1,200,0|0,0:0|0:0,0:0:0:0:
292,352,13242,1,2,0:0:0:0:
200,316,13492,1,0,0:0:0:0:
160,224,13742,1,0,0:0:0:0:
236,160,13992,1,0,0:0:0:0:
320,120,14242,70,0,P|388:108|424:72,2,100,0|0|0,0:0|0:0|0:0,0:0:0:0:
232,76,14992,1,0,0:0:0:0:
144,32,15242,2,0,P|76:44|40:80,2,100,2|0|0,0:0|0:0|0:0,0:0:0:0:
128,132,15992,1,0,0:0:0:0:
51,188,16242,6,0,P|132:227|216:165,1,200,4|0,1:0|0:0,0:0:0:0:
420,176,17242,2,0,L|448:72,1,100,2|0,0:0|0:0,0:0:0:0:
348,108,17742,2,0,L|320:212,1,100,0|0,0:0|0:0,0:0:0:0:
244,264,18242,1,0,0:0:0:0:
216,168,18492,1,0,0:0:0:0:
120,196,18742,2,0,P|72:152|64:92,1,100,0|0,0:0|0:0,0:0:0:0:
102,28,19242,2,0,P|150:72|160:104,1,100,2|0,0:0|0:0,0:0:0:0:
120,196,19742,2,0,P|76:244|44:253,1,100,0|0,0:0|0:0,0:0:0:0:
34,159,20242,70,0,B|98:187|94:307|174:331,1,200,0|0,0:0|0:0,0:0:0:0:
320,216,21242,2,0,P|376:136|372:108,2,100,2|0|0,0:0|0:0|0:0,0:0:0:0:
283,129,21992,1,0,0:0:0:0:
198,166,22242,2,0,P|156:200|150:283,2,100,0|0|0,0:0|0:0|0:0,0:0:0:0:
236,252,22992,1,0,0:0:0:0:
280,164,23242,2,0,P|260:112|212:80,1,100,2|0,0:0|0:0,0:0:0:0:
280,164,23742,2,0,P|335:172|386:147,1,100,0|0,0:0|0:0,0:0:0:0:
192,168,24242,6,0,P|136:232|20:200,1,200,0|0,0:0|0:0,0:0:0:0:
185,71,25242,2,0,P|228:80|276:120,1,100,2|0,0:0|0:0,0:0:0:0:
320,200,25742,1,0,0:0:0:0:
220,184,25992,1,0,0:0:0:0:
320,200,26242,2,0,P|364:192|412:152,1,100,0|0,0:0|0:0,0:0:0:0:
456,72,26742,1,0,0:0:0:0:
356,88,26992,1,0,0:0:0:0:
456,72,27242,2,0,P|480:112|480:184,1,100,2|0,0:0|0:0,0:0:0:0:
416,220,27742,1,0,0:0:0:0:
322,217,27992,1,0,0:0:0:0:
416,220,28242,70,0,P|386:287|256:286,1,200,0|0,0:0|0:0,0:0:0:0:
160,128,29242,2,0,P|120:56|88:48,1,100,2|0,2:0|2:0,0:0:0:0:
60,140,29742,2,0,P|100:212|132:220,1,100,0|0,2:0|2:0,0:0:0:0:
188,280,30242,5,0,2:0:0:0:
268,164,30492,1,2,2:0:0:0:
340,288,30742,1,0,2:0:0:0:
192,200,30992,1,0,2:0:0:0:
264,248,31242,1,2,2:0:0:0:
264,336,31492,1,0,2:0:0:0:
188,280,31742,1,0,3:0:0:0:
268,164,31992,1,4,3:0:0:0:
340,288,32242,6,0,P|410:208|385:97,1,200,4|0,1:0|0:0,0:0:0:0:
179,204,33242,2,0,P|74:208|14:115,1,200,2|0,0:0|0:0,0:0:0:0:
48,44,33992,1,0,0:0:0:0:
123,110,34242,6,0,P|163:95|235:109,1,100,0|0,0:0|0:0,0:0:0:0:
180,204,34742,2,0,P|195:244|181:316,1,100,0|0,0:0|0:0,0:0:0:0:
88,260,35242,2,0,B|160:280|216:208|328:256,1,200,2|0,0:0|0:0,0:0:0:0:
380,272,35992,1,0,0:0:0:0:
487,257,36242,6,0,P|416:168|323:178,1,200,0|0,0:0|0:0,0:0:0:0:
140,136,37242,2,0,P|80:104|68:52,2,100,2|0|0,0:0|0:0|0:0,0:0:0:0:
228,184,37992,1,0,0:0:0:0:
324,212,38242,2,0,P|384:244|396:296,2,100,0|0|0,0:0|0:0|0:0,0:0:0:0:
228,184,38992,1,0,0:0:0:0:
200,280,39242,2,0,P|84:272|44:352,1,200,2|0,0:0|0:0,0:0:0:0:
228,184,40242,6,0,P|328:112|296:24,1,200,0|0,0:0|0:0,0:0:0:0:
144,140,41242,2,0,P|133:188|157:246,1,100,2|0,0:0|0:0,0:0:0:0:
228,184,41742,2,0,P|239:136|215:78,1,100,0|0,0:0|0:0,0:0:0:0:
140,46,42242,2,0,P|129:94|153:152,2,100,0|0|0,0:0|0:0|0:0,0:0:0:0:
228,184,42992,1,0,0:0:0:0:
292,260,43242,2,0,P|344:204|456:256,1,200,2|0,0:0|0:0,0:0:0:0:
268,353,44242,38,0,P|199:281|234:184,1,200,0|0,0:0|0:0,0:0:0:0:
385,71,45242,2,0,P|427:89|458:166,1,100,2|0,0:0|0:0,0:0:0:0:
368,164,45742,2,0,P|326:146|295:69,1,100,0|0,0:0|0:0,0:0:0:0:
200,84,46242,6,0,L|92:88,1,100,0|0,0:0|0:0,0:0:0:0:
144,168,46742,2,0,L|44:220,1,100,0|0,0:0|0:0,0:0:0:0:
148,260,47242,2,0,L|84:348,2,100,2|0|0,0:0|0:0|0:0,0:0:0:0:
244,316,47992,1,0,0:0:0:0:
316,248,48242,6,0,P|376:184|476:240,1,200,4|0,1:0|0:0,0:0:0:0:
306,96,49242,2,0,P|248:31|123:58,1,200,2|0,0:0|0:0,0:0:0:0:
100,124,49992,1,0,0:0:0:0:
272,200,50242,2,0,P|320:191|358:159,1,100,0|0,0:0|0:0,0:0:0:0:
204,131,50742,2,0,P|180:174|180:224,1,100,0|0,0:0|0:0,0:0:0:0:
152,315,51242,2,0,P|245:293|271:200,1,200,2|0,0:0|0:0,0:0:0:0:
180,224,51992,1,0,0:0:0:0:
88,245,52242,6,0,P|115:153|208:132,1,200,0|0,0:0|0:0,0:0:0:0:
404,260,53242,2,0,P|461:230|485:193,2,100,2|0|0,0:0|0:0|0:0,0:0:0:0:
384,152,53992,1,0,0:0:0:0:
363,44,54242,2,0,P|318:63|286:102,2,100,0|0|0,0:0|0:0|0:0,0:0:0:0:
384,152,54992,1,0,0:0:0:0:
383,152,55242,2,0,P|306:209|213:183,1,200,2|0,0:0|0:0,0:0:0:0:
188,88,55992,1,0,0:0:0:0:
288,102,56242,38,0,P|321:194|258:284,1,200,0|0,0:0|0:0,0:0:0:0:
184,324,56992,1,0,0:0:0:0:
340,340,57242,2,0,P|383:293|401:250,2,100,2|0|0,0:0|0:0|0:0,0:0:0:0:
184,324,57992,1,0,0:0:0:0:
103,262,58242,2,0,P|58:167|108:95,1,200,0|0,0:0|0:0,0:0:0:0:
152,180,58992,1,0,0:0:0:0:
236,124,59242,2,0,P|288:116|324:88,1,100,2|0,0:0|0:0,0:0:0:0:
416,72,59742,2,0,P|459:95|486:136,1,100,0|0,0:0|0:0,0:0:0:0:
392,160,60242,6,0,P|344:212|340:348,1,200,0|0,0:0|0:0,0:0:0:0:
292,112,61242,2,0,P|224:72|216:44,1,100,2|0,0:0|0:0,0:0:0:0:
200,180,61742,2,0,P|241:194|282:249,1,100,0|0,0:0|0:0,0:0:0:0:
192,276,62242,2,0,P|108:292|80:296,2,100,0|0|0,0:0|0:0|0:0,0:0:0:0:
200,180,62992,1,0,0:0:0:0:
246,96,63242,2,0,P|150:98|105:182,1,200,2|0,0:0|0:0,0:0:0:0:
353,273,64242,6,0,P|421:221|377:95,1,200,4|0,1:0|0:0,0:0:0:0:
312,88,64992,1,0,0:0:0:0:
221,61,65242,6,0,P|244:154|336:180,1,200,2|0,0:0|0:0,0:0:0:0:
312,88,65992,1,0,0:0:0:0:
220,60,66242,2,0,L|220:160|220:280,1,200,0|0,0:0|0:0,0:0:0:0:
312,88,66992,1,0,0:0:0:0:
396,144,67242,2,0,P|444:116|464:68,1,100,2|0,0:0|0:0,0:0:0:0:
472,200,67742,2,0,P|424:228|404:276,1,100,0|0,0:0|0:0,0:0:0:0:
312,244,68242,38,0,L|196:192,1,100,0|0,0:0|0:0,0:0:0:0:
104,228,68742,2,0,L|64:120,1,100,0|0,0:0|0:0,0:0:0:0:
175,191,69242,2,0,P|169:275|59:295,1,200,2|0,0:0|0:0,0:0:0:0:
131,109,70242,2,0,P|206:49|300:92,1,200,0|0,0:0|0:0,0:0:0:0:
380,264,71242,1,2,0:0:0:0:
220,144,71742,1,0,0:0:0:0:
380,264,72242,6,0,P|292:224|216:312,1,200,0|0,0:0|0:0,0:0:0:0:
132,328,72992,1,0,0:0:0:0:
156,232,73242,2,0,P|203:178|336:147,1,200,2|0,0:0|0:0,0:0:0:0:
122,158,74242,2,0,P|175:153|230:201,2,100,0|0|0,0:0|0:0|0:0,0:0:0:0:
57,234,74992,1,0,0:0:0:0:
100,64,75242,2,0,P|193:47|291:114,1,200,2|0,0:0|0:0,0:0:0:0:
356,164,75992,1,0,0:0:0:0:
256,192,76242,12,0,78742,3:0:0:0:
329,239,79242,6,0,P|365:190|413:171,1,100,10|0,3:0|3:0,0:0:0:0:
420,267,79742,2,0,P|393:309|349:332,1,100,2|4,3:0|3:0,0:0:0:0:
260,304,80242,1,4,1:0:0:0:
176,148,96242,54,0,P|143:189|204:316,1,200,2|0,0:0|0:0,0:0:0:0:
292,300,96992,1,2,0:0:0:0:
348,224,97242,2,0,P|395:181|406:131,1,100,2|0,0:0|0:0,0:0:0:0:
312,136,97742,2,0,P|265:179|254:229,1,100,0|0,0:0|0:0,0:0:0:0:
292,300,98242,2,0,P|339:257|350:207,1,100,0|2,0:0|0:0,0:0:0:0:
356,176,98617,1,0,0:0:0:0:
344,132,98742,2,0,P|322:71|281:42,1,100,2|0,0:0|0:0,0:0:0:0:
217,137,99242,2,0,P|181:170|133:181,2,100,2|0|2,0:0|0:0|0:0,0:0:0:0:
60,120,100242,6,0,P|51:229|132:278,1,200,2|0,0:0|0:0,0:0:0:0:
304,256,101242,2,0,P|322:205|367:171,1,100,2|0,0:0|0:0,0:0:0:0:
400,260,101742,2,0,P|382:311|337:345,1,100,2|2,0:0|0:0,0:0:0:0:
304,256,102242,2,0,P|208:208|128:280,1,200,0|0,0:0|0:0,0:0:0:0:
118,126,103242,2,0,P|165:110|196:72,1,100,2|0,0:0|0:0,0:0:0:0:
308,60,103742,2,0,P|276:97|269:146,1,100,2|0,0:0|0:0,0:0:0:0:
205,261,104242,6,0,L|419:185,1,200,2|0,0:0|0:0,0:0:0:0:
316,140,104992,1,0,0:0:0:0:
293,230,105242,2,0,P|298:279|276:324,1,100,2|0,0:0|0:0,0:0:0:0:
204,260,105742,1,2,0:0:0:0:
224,168,105992,1,2,0:0:0:0:
308,60,106242,5,0,0:0:0:0:
444,144,106492,1,2,0:0:0:0:
444,144,106617,1,0,0:0:0:0:
444,144,106742,2,0,P|448:193|426:237,1,100,2|0,0:0|0:0,0:0:0:0:
336,268,107242,2,0,P|331:218|353:174,2,100,2|0|2,0:0|0:0|0:0,0:0:0:0:
152,316,108242,38,0,P|96:264|120:144,1,200,0|0,0:0|0:0,0:0:0:0:
295,105,109242,2,0,P|355:65|363:29,2,100,2|0|0,0:0|0:0|0:0,0:0:0:0:
224,44,109992,1,0,0:0:0:0:
205,136,110242,6,0,P|267:196|379:148,1,200,2|0,2:0|3:0,0:0:0:0:
420,88,110992,1,2,2:0:0:0:
436,256,111242,2,0,P|365:312|250:311,1,200,0|2,2:0|2:0,0:0:0:0:
72,304,112242,6,0,L|72:104,1,200,4|0,1:0|0:0,0:0:0:0:
168,136,112992,1,0,0:0:0:0:
252,178,113242,2,0,P|219:215|173:231,1,100,2|0,0:0|0:0,0:0:0:0:
168,136,113742,1,0,0:0:0:0:
248,88,113992,1,0,0:0:0:0:
328,132,114242,6,0,P|408:136|466:38,2,200,0|0|2,0:0|0:0|0:0,0:0:0:0:
248,88,115492,1,0,0:0:0:0:
371,47,115742,2,0,P|408:81|422:128,1,100,0|0,0:0|0:0,0:0:0:0:
416,224,116242,1,0,0:0:0:0:
196,168,116742,37,0,0:0:0:0:
60,296,117242,2,0,P|104:328|164:328,1,100,2|0,0:0|0:0,0:0:0:0:
224,276,117742,2,0,P|263:246|312:240,1,100,0|0,0:0|0:0,0:0:0:0:
404,256,118242,2,0,P|468:176|432:68,2,200,0|0|2,0:0|0:0|0:0,0:0:0:0:
312,240,119492,1,0,0:0:0:0:
248,172,119742,2,0,P|218:132|172:114,1,100,0|0,0:0|0:0,0:0:0:0:
161,209,120242,6,0,P|242:281|367:271,1,200,0|0,0:0|0:0,0:0:0:0:
404,228,120992,1,0,0:0:0:0:
369,140,121242,2,0,P|314:92|258:98,1,100,2|0,0:0|0:0,0:0:0:0:
208,133,121742,2,0,P|239:169|293:184,1,100,0|0,0:0|0:0,0:0:0:0:
290,90,122242,2,0,B|261:32|193:39|193:39|76:58,1,200,0|0,0:0|0:0,0:0:0:0:
69,135,122992,1,0,0:0:0:0:
58,230,123242,2,0,P|109:221|147:189,1,100,2|0,0:0|0:0,0:0:0:0:
264,256,123742,2,0,P|213:265|175:297,1,100,0|0,0:0|0:0,0:0:0:0:
253,352,124242,5,0,0:0:0:0:
408,244,124742,1,0,0:0:0:0:
237,165,125242,2,0,P|190:111|185:71,2,100,2|0|0,0:0|0:0|0:0,0:0:0:0:
280,80,125992,1,0,0:0:0:0:
356,136,126242,5,0,0:0:0:0:
432,188,126492,1,0,0:0:0:0:
384,268,126742,1,0,0:0:0:0:
356,136,126992,1,0,0:0:0:0:
464,100,127242,1,2,0:0:0:0:
384,268,127492,1,0,0:0:0:0:
276,188,127742,2,0,P|322:172|356:135,1,100,0|2,0:0|0:0,0:0:0:0:
272,92,128242,38,0,L|176:92|64:92,1,200,4|0,1:0|0:0,0:0:0:0:
60,280,129242,2,0,P|124:305|205:198,1,200,2|0,0:0|0:0,0:0:0:0:
256,132,129992,1,0,0:0:0:0:
300,221,130242,2,0,P|355:299|448:280,1,200,0|0,0:0|0:0,0:0:0:0:
336,81,131242,2,0,P|252:32|164:96,1,200,2|0,0:0|0:0,0:0:0:0:
260,324,132242,6,0,B|228:220|288:220|253:127,1,200,0|0,0:0|0:0,0:0:0:0:
181,301,133242,2,0,P|229:248|269:241,1,100,2|0,0:0|0:0,0:0:0:0:
344,276,133742,2,0,P|389:257|417:216,1,100,0|0,0:0|0:0,0:0:0:0:
331,183,134242,6,0,P|264:164|249:27,1,200,0|0,0:0|0:0,0:0:0:0:
322,88,134992,1,0,0:0:0:0:
332,184,135242,2,0,P|272:188|228:220,1,100,2|0,0:0|0:0,0:0:0:0:
156,164,135742,2,0,P|152:104|120:60,2,100,0|0|0,0:0|0:0|0:0,0:0:0:0:
332,228,136742,5,0,0:0:0:0:
460,88,137242,1,2,0:0:0:0:
456,276,137742,1,0,0:0:0:0:
257,277,138242,2,0,B|271:222|279:137|384:136,1,200,0|0,0:0|0:0,0:0:0:0:
339,324,139242,2,0,P|296:364|241:370,1,100,2|0,0:0|0:0,0:0:0:0:
369,234,139742,2,0,P|415:267|431:322,2,100,0|0|0,0:0|0:0|0:0,0:0:0:0:
181,250,140742,37,0,0:0:0:0:
164,64,141242,2,0,P|107:73|39:36,1,100,2|0,0:0|0:0,0:0:0:0:
164,160,141742,2,0,P|211:145|246:110,1,100,0|0,0:0|0:0,0:0:0:0:
291,24,142242,2,0,P|326:59|341:107,2,100,0|0|0,0:0|0:0|0:0,0:0:0:0:
247,111,142992,1,0,0:0:0:0:
307,196,143242,2,0,P|356:201|402:182,1,100,2|0,0:0|0:0,0:0:0:0:
212,196,143742,2,0,P|224:242|279:287,1,100,0|0,0:0|0:0,0:0:0:0:
83,156,144242,6,0,P|155:102|139:-3,1,200,4|0,1:0|0:0,0:0:0:0:
70,62,144992,1,0,0:0:0:0:
141,243,145242,2,0,P|236:229|296:304,1,200,2|0,0:0|0:0,0:0:0:0:
202,317,145992,1,0,0:0:0:0:
376,232,146242,2,0,P|385:327|472:366,1,200,0|0,0:0|0:0,0:0:0:0:
463,272,146991,1,0,0:0:0:0:
376,232,147242,2,0,P|321:167|317:127,1,100,2|0,0:0|0:0,0:0:0:0:
413,143,147742,2,0,P|468:208|472:248,1,100,0|0,0:0|0:0,0:0:0:0:
376,232,148242,6,0,P|256:252|184:192,1,200,0|0,0:0|0:0,0:0:0:0:
124,152,148992,1,0,0:0:0:0:
76,72,149242,1,2,0:0:0:0:
168,68,149492,1,0,0:0:0:0:
124,152,149742,1,0,0:0:0:0:
208,196,149992,1,0,0:0:0:0:
284,140,150242,6,0,P|344:96|392:96,1,100,0|2,0:0|0:0,0:0:0:0:
367,189,150742,1,0,0:0:0:0:
324,272,150992,1,0,0:0:0:0:
232,288,151242,2,0,P|128:280|72:352,1,200,2|0,0:0|0:0,0:0:0:0:
140,172,152242,38,0,P|180:88|96:28,1,200,0|0,0:0|0:0,0:0:0:0:
278,109,153242,2,0,P|362:133|436:58,1,200,2|0,0:0|0:0,0:0:0:0:
344,40,153992,1,0,0:0:0:0:
278,109,154242,2,0,P|232:144|169:119,2,100,0|0|0,0:0|0:0|0:0,0:0:0:0:
344,40,154992,1,0,0:0:0:0:
412,104,155242,2,0,P|443:175|435:210,2,100,2|0|0,0:0|0:0|0:0,0:0:0:0:
349,174,155992,1,0,0:0:0:0:
286,244,156242,5,0,3:0:0:0:
199,281,156492,1,0,3:0:0:0:
140,207,156742,1,0,3:0:0:0:
286,244,156992,1,0,3:0:0:0:
100,292,157242,1,2,3:0:0:0:
140,207,157492,1,0,3:0:0:0:
286,244,157742,1,0,3:0:0:0:
100,292,157992,1,0,3:0:0:0:
68,144,158242,2,0,P|150:112|234:198,1,200,0|0,0:0|0:0,0:0:0:0:
389,177,159242,6,0,L|427:71,1,100,2|0,0:0|0:0,0:0:0:0:
288,244,159742,2,0,L|250:350,1,100,0|2,0:0|0:0,0:0:0:0:
256,192,160242,12,0,164242,0:0:0:0:
