osu file format v13

[General]
AudioFilename: Supergiant Games - Bastion Original Soundtrack - 02 A Proper Story.mp3
AudioLeadIn: 0
PreviewTime: -1
Countdown: 0
SampleSet: Normal
StackLeniency: 0.7
Mode: 0
LetterboxInBreaks: 1
WidescreenStoryboard: 1

[Editor]
DistanceSpacing: 0.8
BeatDivisor: 4
GridSize: 8
TimelineZoom: 1

[Metadata]
Title:A Proper Story
TitleUnicode:A Proper Story
Artist:Darren Korb
ArtistUnicode:Darren Korb
Creator:Dexem
Version:Hard
Source:
Tags:
BeatmapID:295584
BeatmapSetID:114085

[Difficulty]
HPDrainRate:7
CircleSize:4
OverallDifficulty:7
ApproachRate:8
SliderMultiplier:2.69999990463257
SliderTickRate:1

[Events]
//Background and Video events
0,0,"ssss.jpg",0,0
//Break Periods
2,10418,13669
//Storyboard Layer 0 (Background)
//Storyboard Layer 1 (Fail)
//Storyboard Layer 2 (Pass)
//Storyboard Layer 3 (Foreground)
//Storyboard Sound Samples
//Background Colour Transformations
3,100,163,162,255

[TimingPoints]
1219.66012411407,600,4,1,0,100,1,0
15548,-100,4,1,0,100,0,1
24917,-100,4,1,0,100,0,0
44417,-100,4,1,0,100,0,1
54017,-100,4,1,0,100,0,0

[Colours]
Combo1 : 198,58,23
Combo2 : 247,169,26

[HitObjects]
408,96,17,6,0,L|432:56,2,41.2499988079071
392,120,317,1,0,0:0:0:0:
376,152,467,1,0,0:0:0:0:
352,176,617,1,0,0:0:0:0:
320,200,767,1,0,0:0:0:0:
280,216,917,1,0,0:0:0:0:
88,152,1217,5,0,0:0:0:0:
184,88,1519,1,0,0:0:0:0:
280,48,1819,2,0,L|368:48,1,67.4999976158142
296,112,2119,2,0,L|376:144,1,67.4999976158142
416,224,2419,5,0,0:0:0:0:
320,288,2719,1,0,0:0:0:0:
224,328,3019,2,0,L|136:328,1,67.4999976158142
208,264,3319,2,0,L|128:232,1,67.4999976158142
88,152,3619,5,0,0:0:0:0:
184,88,3919,1,0,0:0:0:0:
280,48,4219,2,0,L|368:48,1,67.4999976158142
296,112,4519,2,0,L|376:144,1,67.4999976158142
416,200,4819,6,0,L|440:160,2,33.7499988079071
400,224,5119,1,0,0:0:0:0:
384,256,5269,1,0,0:0:0:0:
360,280,5419,1,0,0:0:0:0:
328,304,5569,1,0,0:0:0:0:
288,320,5719,1,0,0:0:0:0:
192,272,6019,5,0,0:0:0:0:
136,184,6319,1,0,0:0:0:0:
184,88,6619,2,0,P|224:88|264:152,1,67.4999976158142
248,184,6919,2,0,P|288:192|328:128,1,67.4999976158142
416,256,9619,6,0,B|336:256|232:256|184:256|168:264|128:200,1,269.999990463257
160,288,14419,6,0,L|120:312,2,41.2499988079071
184,272,14719,1,0,0:0:0:0:
216,256,14869,1,0,0:0:0:0:
240,232,15019,5,0,0:0:0:0:
264,200,15169,1,0,0:0:0:0:
280,160,15319,1,0,0:0:0:0:
200,72,15544,5,0,0:0:0:0:
112,144,15919,1,0,0:0:0:0:
192,208,16219,1,0,0:0:0:0:
248,208,16369,2,0,B|328:192|280:96|384:112,1,134.999995231628
392,104,16819,1,0,0:0:0:0:
392,104,17119,1,0,0:0:0:0:
256,192,17419,12,0,17719,2:0:0:0:
120,56,18019,5,0,0:0:0:0:
400,56,18319,1,0,0:0:0:0:
400,296,18619,1,0,0:0:0:0:
112,304,18919,2,0,L|168:240,1,67.4999976158142
256,56,19219,5,0,0:0:0:0:
400,192,19519,1,0,0:0:0:0:
256,320,19819,1,0,0:0:0:0:
112,192,20119,1,0,0:0:0:0:
224,192,20419,2,0,B|296:192|296:192|360:176|400:112,1,202.499992847443
358,56,21019,1,0,0:0:0:0:
288,48,21169,2,0,B|224:56|216:128|128:96,1,134.999995231628
80,128,21619,1,0,0:0:0:0:
80,128,21919,1,0,0:0:0:0:
256,192,22219,12,0,22519,0:0:0:0:
360,88,22819,5,0,0:0:0:0:
144,256,23119,1,0,0:0:0:0:
368,144,23419,1,0,0:0:0:0:
144,200,23719,2,0,L|112:128,1,67.4999976158142
80,48,24019,5,0,0:0:0:0:
440,288,24319,1,0,0:0:0:0:
88,128,24619,1,0,0:0:0:0:
432,208,24919,1,0,0:0:0:0:
256,192,25219,5,0,0:0:0:0:
192,80,27319,5,0,0:0:0:0:
192,80,27619,1,0,0:0:0:0:
192,80,27919,1,0,0:0:0:0:
192,80,28219,1,0,0:0:0:0:
192,80,28519,1,0,0:0:0:0:
192,80,28819,1,0,0:0:0:0:
192,80,29119,2,0,L|288:96,1,67.4999976158142
192,80,29419,1,0,0:0:0:0:
192,80,29719,5,0,0:0:0:0:
192,80,30019,1,0,0:0:0:0:
