osu file format v14

[General]
AudioFilename: audio.mp3
AudioLeadIn: 0
PreviewTime: 11903
Countdown: 0
SampleSet: Soft
StackLeniency: 0.5
Mode: 0
LetterboxInBreaks: 0
WidescreenStoryboard: 0

[Editor]
DistanceSpacing: 1.2
BeatDivisor: 4
GridSize: 4
TimelineZoom: 1

[Metadata]
Title:Shining Star
TitleUnicode:Shining Star
Artist:Daron Nefcy and Brian H. Kim
ArtistUnicode:Daron Nefcy and Brian H. Kim
Creator:Gordon123
Version:milr_'s Hard
Source:Star vs. The Forces of Evil
Tags:disney xd soundtrack cartoon marco butterfly versus ed ending 2zz Daycore KittyAdventure Kyouren milr_ [_White Music_] gokugohan12468
BeatmapID:3711349
BeatmapSetID:1809465

[Difficulty]
HPDrainRate:5.5
CircleSize:4
OverallDifficulty:6
ApproachRate:7.5
SliderMultiplier:1.65
SliderTickRate:1

[Events]
//Background and Video events
0,0,"bg.jpg",0,0
//Break Periods
//Storyboard Layer 0 (Background)
//Storyboard Layer 1 (Fail)
//Storyboard Layer 2 (Pass)
//Storyboard Layer 3 (Foreground)
//Storyboard Layer 4 (Overlay)
//Storyboard Sound Samples

[TimingPoints]
707,355.450236966825,4,2,1,60,1,0
12081,-100,4,2,1,70,0,1
23455,-100,4,2,1,60,0,0
25943,-133.333333333333,4,2,1,60,0,0
27350,355.450236966825,4,2,1,70,1,1
38724,-100,4,2,1,50,0,0
40146,348.837209302326,4,2,1,60,1,0
40669,357.142857142857,4,2,1,60,1,0
41204,370.37037037037,4,2,1,5,1,0

[Colours]
Combo1 : 255,79,79
Combo2 : 254,244,126
Combo3 : 250,151,255
Combo4 : 169,245,231

[HitObjects]
213,205,707,6,0,P|137:221|53:170,1,165,2|0,1:2|0:0,0:0:0:0:
75,107,1240,2,0,P|151:91|235:142,1,165,0|0,1:0|0:0,0:0:0:0:
284,178,1773,2,0,L|382:173,1,82.5,0|0,1:0|0:0,0:0:0:0:
213,205,2128,5,0,0:0:0:0:
213,205,2306,2,0,L|115:200,1,82.5,0|0,1:0|0:0,0:0:0:0:
69,155,2661,1,0,0:0:0:0:
69,155,2839,2,0,P|53:121|23:106,3,41.25,2|0|2|0,1:2|0:0|0:0|0:0,0:0:0:0:
61,231,3195,2,0,P|39:261|41:295,3,41.25,2|0|2|0,1:2|0:0|0:0|0:0,0:0:0:0:
130,200,3550,6,0,P|174:211|276:129,1,165,0|0,1:2|0:0,0:0:0:0:
302,82,4083,2,0,P|270:114|333:192,1,165,0|0,1:0|0:0,0:0:0:0:
366,124,4616,2,0,P|380:80|358:32,1,82.5,0|0,1:0|0:0,0:0:0:0:
302,82,4972,5,0,0:0:0:0:
238,40,5150,2,0,P|224:84|246:132,1,82.5,0|0,1:0|0:0,0:0:0:0:
298,159,5505,1,0,0:0:0:0:
366,124,5683,6,0,L|443:120,3,41.25,2|2|2|2,1:2|0:0|0:0|0:0,0:0:0:0:
428,153,6038,2,0,L|496:188,3,41.25,2|2|2|2,1:2|0:0|0:0|0:0,0:0:0:0:
467,209,6394,6,0,B|489:243|489:243|424:367,1,165,2|0,1:2|0:0,0:0:0:0:
362,384,6927,2,0,B|339:349|339:349|405:226,1,165,0|0,1:0|0:0,0:0:0:0:
403,163,7460,2,0,L|300:157,1,82.5,0|0,1:0|0:0,0:0:0:0:
467,209,7816,5,0,0:0:0:0:
467,209,7993,2,0,P|482:151|388:88,1,165,0|0,1:0|0:0,0:0:0:0:
337,70,8526,2,0,P|296:45|275:5,1,82.5,0|0,1:0|0:0,0:0:0:0:
359,142,8882,2,0,P|357:190|333:228,1,82.5,0|0,1:0|0:0,0:0:0:0:
411,86,9237,6,0,P|453:62|498:64,2,82.5,0|0|0,1:0|0:0|0:0,0:0:0:0:
337,70,9770,1,8,1:3:0:0:
382,216,10126,1,8,1:3:0:0:
233,181,10481,1,8,1:3:0:0:
285,126,10659,1,0,0:0:0:0:
307,199,10837,1,8,0:0:0:0:
233,181,11015,6,0,L|164:187,3,41.25,8|8|8|8,0:0|0:0|0:0|0:0,0:0:0:0:
154,187,11370,1,8,0:0:0:0:
154,187,12081,6,0,B|30:176|30:176|80:226,1,165,4|8,1:2|0:0,0:0:0:0:
99,269,12614,1,0,1:0:0:0:
23,274,12792,2,0,L|0:361,1,82.5,0|0,0:0|1:0,0:0:0:0:
58,204,13147,2,0,L|-7:141,1,82.5,8|0,0:0|1:0,0:0:0:0:
99,269,13503,6,0,L|186:244,1,82.5,0|0,1:0|0:0,0:0:0:0:
252,266,13858,1,8,0:0:0:0:
196,318,14036,1,0,1:0:0:0:
234,191,14214,1,0,0:0:0:0:
324,287,14391,1,0,1:0:0:0:
324,287,14569,2,0,P|368:301|416:279,1,82.5,8|0,0:0|0:0,0:0:0:0:
252,266,14925,6,0,L|260:80,1,165,0|8,1:0|0:0,0:0:0:0:
320,55,15458,1,0,1:0:0:0:
329,131,15635,1,0,0:0:0:0:
259,101,15813,1,0,1:0:0:0:
320,55,15991,2,0,L|424:59,1,82.5,8|0,0:0|1:0,0:0:0:0:
411,134,16346,6,0,L|329:131,1,82.5,0|0,1:0|0:0,0:0:0:0:
220,28,16702,2,0,L|258:100,1,82.5,8|0,0:0|1:0,0:0:0:0:
224,247,17057,2,0,L|267:177,1,82.5,0|8,0:0|0:0,0:0:0:0:
328,130,17413,1,0,1:0:0:0:
258,100,17590,1,8,0:0:0:0:
267,176,17768,6,0,L|85:169,1,165,4|8,1:2|0:0,0:0:0:0:
31,138,18301,1,0,1:0:0:0:
94,92,18479,2,0,P|102:172|1:208,1,165,0|8,0:0|0:0,0:0:0:0:
31,138,19012,1,0,1:0:0:0:
31,138,19190,6,0,P|16:83|36:43,1,82.5
94,92,19545,2,0,P|149:106|174:143,1,82.5,8|0,0:0|1:0,0:0:0:0:
102,169,19901,2,0,P|62:210|17:213,1,82.5,0|0,0:0|1:0,0:0:0:0:
23,60,20256,1,8,0:0:0:0:
165,123,20434,1,0,1:0:0:0:
39,215,20612,6,0,P|31:295|132:331,1,165,0|8,1:0|0:0,0:0:0:0:
164,305,21145,1,0,1:0:0:0:
102,261,21323,1,0,0:0:0:0:
101,260,21500,2,0,P|172:227|236:274,1,165,0|0,1:0|1:0,0:0:0:0:
226,351,22034,6,0,P|276:343|308:295,1,82.5,0|0,1:0|0:0,0:0:0:0:
370,289,22389,2,0,P|337:250|280:246,1,82.5,8|0,0:0|1:0,0:0:0:0:
245,196,22744,2,0,P|227:243|253:294,1,82.5,0|0,0:0|1:0,0:0:0:0:
226,351,23100,1,8,0:0:0:0:
370,289,23278,1,0,1:0:0:0:
245,196,23455,6,0,P|262:148|236:97,1,82.5,0|0,1:0|0:0,0:0:0:0:
206,59,23811,2,0,L|20:51,2,165,8|0|8,0:0|0:0|0:0,0:0:0:0:
254,118,24699,1,0,1:0:0:0:
282,47,24877,5,8,0:3:0:0:
330,106,25055,1,4,0:3:0:0:
378,165,25233,1,8,0:3:0:0:
351,237,25410,2,0,L|319:321,2,82.5,4|8|8,0:3|0:3|0:3,0:0:0:0:
427,225,25943,6,0,B|380:263|306:235|301:168|301:168|293:87|293:87|289:33|244:0|191:18,1,371.250014162064,4|4,0:0|0:0,0:0:0:0:
217,87,27350,6,0,B|93:76|93:76|143:126,1,165,4|8,1:2|0:0,0:0:0:0:
177,158,27883,1,0,1:0:0:0:
177,158,28060,2,0,L|155:237,1,82.5,0|0,0:0|1:0,0:0:0:0:
121,104,28416,2,0,L|63:46,1,82.5,8|0,0:0|1:0,0:0:0:0:
195,82,28771,6,0,L|274:60,1,82.5,0|0,1:0|0:0,0:0:0:0:
349,81,29127,1,8,0:0:0:0:
329,6,29304,1,0,1:0:0:0:
294,135,29482,1,0,0:0:0:0:
424,101,29660,1,0,1:0:0:0:
424,101,29838,2,0,P|474:93|506:45,1,82.5,8|0,0:0|1:0,0:0:0:0:
294,135,30193,6,0,P|261:184|281:298,1,165,0|8,1:0|0:0,0:0:0:0:
347,299,30726,1,0,1:0:0:0:
298,357,30904,1,0,0:0:0:0:
271,285,31082,1,0,1:0:0:0:
347,299,31259,2,0,L|451:295,1,82.5,8|0,0:0|1:0,0:0:0:0:
402,223,31615,6,0,L|319:226,1,82.5,0|0,1:0|0:0,0:0:0:0:
200,142,31970,2,0,L|243:211,1,82.5,8|0,0:0|1:0,0:0:0:0:
232,357,32326,2,0,L|270:284,1,82.5,0|8,0:0|0:0,0:0:0:0:
319,226,32681,1,0,1:0:0:0:
243,212,32859,1,8,0:0:0:0:
270,283,33037,6,0,L|88:290,1,165,4|8,1:2|0:0,0:0:0:0:
42,243,33570,1,0,1:0:0:0:
105,289,33748,2,0,P|113:209|12:173,1,165,0|8,0:0|0:0,0:0:0:0:
42,243,34281,1,0,1:0:0:0:
42,243,34459,6,0,P|27:298|47:338,1,82.5
105,289,34814,2,0,P|160:275|185:238,1,82.5,8|0,0:0|1:0,0:0:0:0:
113,212,35170,2,0,P|73:171|28:168,1,82.5,0|0,0:0|1:0,0:0:0:0:
34,321,35525,1,8,0:0:0:0:
176,258,35703,1,0,1:0:0:0:
50,165,35880,6,0,L|232:172,1,165,0|8,1:0|0:0,0:0:0:0:
277,217,36413,1,0,1:0:0:0:
285,140,36591,2,0,P|340:125|364:88,1,82.5,0|0,0:0|1:0,0:0:0:0:
291,63,36947,1,8,0:0:0:0:
291,63,37124,1,0,1:0:0:0:
221,97,37302,6,0,P|212:57|228:20,1,82.5,0|0,1:0|0:0,0:0:0:0:
362,29,37658,2,0,P|370:68|355:106,1,82.5,8|0,0:0|1:0,0:0:0:0:
214,172,38013,2,0,P|243:145|284:139,1,82.5,0|0,0:0|1:0,0:0:0:0:
411,228,38368,2,0,P|373:215|347:183,1,82.5,8|0,0:0|1:0,0:0:0:0:
488,216,38724,5,0,1:0:0:0:
460,289,38902,1,0,0:0:0:0:
411,228,39079,2,0,P|434:158|523:145,2,165,8|8|8,0:0|0:0|0:0,0:0:0:0:
256,192,40146,12,4,41204,0:0:0:0:
256,192,41296,12,2,43055,0:0:0:0:
