osu file format v14

[General]
AudioFilename: audio.mp3
AudioLeadIn: 0
PreviewTime: 11903
Countdown: 0
SampleSet: Soft
StackLeniency: 0.2
Mode: 0
LetterboxInBreaks: 0
WidescreenStoryboard: 0

[Editor]
DistanceSpacing: 1.4
BeatDivisor: 4
GridSize: 4
TimelineZoom: 1

[Metadata]
Title:Shining Star
TitleUnicode:Shining Star
Artist:Daron Nefcy and Brian H. Kim
ArtistUnicode:Daron Nefcy and Brian H. Kim
Creator:Gordon123
Version:Tragic Love Story of Princess
Source:Star vs. The Forces of Evil
Tags:disney xd soundtrack cartoon marco butterfly versus ed ending 2zz Daycore KittyAdventure Kyouren milr_ [_White Music_] gokugohan12468
BeatmapID:3711351
BeatmapSetID:1809465

[Difficulty]
HPDrainRate:5
CircleSize:3.8
OverallDifficulty:8.5
ApproachRate:9
SliderMultiplier:1.7
SliderTickRate:2

[Events]
//Background and Video events
0,0,"bg.jpg",0,0
//Break Periods
//Storyboard Layer 0 (Background)
//Storyboard Layer 1 (Fail)
//Storyboard Layer 2 (Pass)
//Storyboard Layer 3 (Foreground)
//Storyboard Layer 4 (Overlay)
//Storyboard Sound Samples

[TimingPoints]
707,355.450236966825,4,2,1,60,1,0
3550,-100,4,2,1,60,0,0
11370,-133.333333333333,4,2,1,60,0,0
11992,-133.333333333333,4,2,1,5,0,0
12081,-86.9565217391304,4,2,1,70,0,1
12347,-86.9565217391304,4,2,1,5,0,1
12436,-86.9565217391304,4,2,1,70,0,1
14836,-86.9565217391304,4,2,1,5,0,1
14925,-86.9565217391304,4,2,1,70,0,1
15191,-86.9565217391304,4,2,1,5,0,1
15280,-86.9565217391304,4,2,1,70,0,1
18035,-86.9565217391304,4,2,1,5,0,1
18124,-86.9565217391304,4,2,1,70,0,1
19279,-86.9565217391304,4,2,1,5,0,1
19368,-86.9565217391304,4,2,1,70,0,1
20878,-86.9565217391304,4,2,1,5,0,1
20967,-86.9565217391304,4,2,1,70,0,1
22300,-86.9565217391304,4,2,1,5,0,1
22389,-86.9565217391304,4,2,1,70,0,1
23455,-86.9565217391304,4,2,1,60,0,0
25943,-133.333333333333,4,2,1,60,0,0
26210,-133.333333333333,4,2,1,5,0,0
26299,-100,4,2,1,60,0,0
26566,-100,4,2,1,5,0,0
26654,-83.3333333333333,4,2,1,60,0,0
26921,-83.3333333333333,4,2,1,5,0,0
27010,-66.6666666666667,4,2,1,60,0,0
27276,-66.6666666666667,4,2,1,5,0,0
27350,355.450236966825,4,2,1,70,1,1
27350,-80,4,2,1,70,0,1
27616,-86.9565217391304,4,2,1,5,0,1
27705,-86.9565217391304,4,2,1,70,0,1
30460,-86.9565217391304,4,2,1,5,0,1
30549,-86.9565217391304,4,2,1,70,0,1
33303,-86.9565217391304,4,2,1,5,0,1
33392,-86.9565217391304,4,2,1,70,0,1
34547,-86.9565217391304,4,2,1,5,0,1
34636,-86.9565217391304,4,2,1,70,0,1
36147,-86.9565217391304,4,2,1,5,0,1
36236,-86.9565217391304,4,2,1,70,0,1
37569,-86.9565217391304,4,2,1,5,0,1
37658,-86.9565217391304,4,2,1,70,0,1
38724,-90.9090909090909,4,2,1,50,0,0
40146,348.837209302326,4,2,1,50,1,0
40669,357.142857142857,4,2,1,50,1,0
41204,370.37037037037,4,2,1,50,1,0
41204,-103.092783505155,4,2,1,50,0,0
41296,-133.333333333333,4,2,1,5,0,0
43055,-133.333333333333,4,2,1,5,0,0

[Colours]
Combo1 : 255,79,79
Combo2 : 254,244,126
Combo3 : 250,151,255
Combo4 : 169,245,231

[HitObjects]
57,143,351,5,2,0:0:0:0:
82,109,440,1,0,0:0:0:0:
119,88,529,1,0,0:0:0:0:
161,89,618,1,0,0:0:0:0:
198,108,707,6,0,L|186:282,1,170,2|0,1:2|0:0,0:0:0:0:
262,32,1240,2,0,B|294:78|294:78|285:191,1,170,0|0,1:0|0:0,0:0:0:0:
360,17,1773,2,0,B|379:54|379:54|377:100,1,85,0|0,1:0|0:0,0:0:0:0:
262,32,2128,5,0,0:0:0:0:
453,125,2306,2,0,P|431:164|390:183,1,85,0|0,1:0|0:0,0:0:0:0:
377,97,2661,1,0,0:0:0:0:
186,277,2839,1,2,1:2:0:0:
262,32,3017,1,2,0:0:0:0:
299,241,3195,2,0,P|343:258|364:294,1,85,2|2,1:2|0:0,0:0:0:0:
219,163,3550,6,0,P|140:178|76:121,1,170,0|0,1:2|0:0,0:0:0:0:
296,77,4083,2,0,B|321:158|321:158|296:248,1,170,0|0,1:0|0:0,0:0:0:0:
164,92,4616,2,0,L|174:4,1,85,0|0,1:0|0:0,0:0:0:0:
298,240,4972,5,0,0:0:0:0:
86,207,5150,2,0,L|76:119,1,85,0|0,1:0|0:0,0:0:0:0:
168,368,5505,1,0,0:0:0:0:
296,77,5683,5,2,1:2:0:0:
339,50,5772,1,2,0:0:0:0:
390,48,5861,1,2,0:0:0:0:
433,73,5949,1,2,0:0:0:0:
450,120,6038,1,2,1:2:0:0:
444,170,6127,1,2,0:0:0:0:
411,209,6216,1,2,0:0:0:0:
360,216,6305,1,2,0:0:0:0:
310,204,6394,6,0,B|266:177|229:199|229:199|184:223|146:201,1,170,2|0,1:2|0:0,0:0:0:0:
143,59,6927,2,0,B|163:49|176:16|176:16|167:78|188:132,1,170,0|0,1:0|0:0,0:0:0:0:
266,277,7460,2,0,P|243:320|209:338,1,85,0|0,1:0|0:0,0:0:0:0:
148,202,7816,5,0,0:0:0:0:
369,107,7993,2,0,P|411:103|452:121,1,85,0|0,1:0|0:0,0:0:0:0:
143,59,8349,1,0,0:0:0:0:
266,277,8526,5,0,1:0:0:0:
252,4,8704,1,0,0:0:0:0:
148,202,8882,2,0,P|106:198|65:216,1,85,0|0,1:0|0:0,0:0:0:0:
247,156,9237,6,0,P|330:206|401:183,1,170,0|0,1:0|0:0,0:0:0:0:
131,364,9770,2,0,L|120:279,1,85,8|0,1:3|0:0,0:0:0:0:
348,33,10126,2,0,L|337:118,1,85,8|0,1:3|0:0,0:0:0:0:
76,2,10481,5,8,1:3:0:0:
247,156,10659,1,0,0:0:0:0:
0,72,10837,6,0,L|12:120,1,42.5,8|8,0:0|0:0,0:0:0:0:
120,279,11015,2,0,L|130:237,1,42.5,8|8,0:0|0:0,0:0:0:0:
76,2,11192,2,0,L|88:50,1,42.5,8|8,0:0|0:0,0:0:0:0:
29,246,11370,6,0,B|82:211|136:241|136:241|190:270|245:239,1,223.125008511544,8|0,0:0|0:0,0:0:0:0:
326,197,12081,6,0,P|276:245|280:322,1,146.62500279665,4|0,1:2|0:0,0:0:0:0:
340,378,12436,1,8,0:0:0:0:
473,291,12614,1,0,1:0:0:0:
210,70,12792,2,0,L|193:173,1,97.7500018644333,0|0,0:0|1:0,0:0:0:0:
440,2,13147,2,0,L|457:105,1,97.7500018644333,8|0,0:0|1:0,0:0:0:0:
130,4,13503,6,0,P|80:14|50:49,1,97.7500018644333,0|0,1:0|0:0,0:0:0:0:
194,166,13858,2,0,L|210:70,1,97.7500018644333,8|0,0:0|1:0,0:0:0:0:
51,193,14214,2,0,L|68:296,1,97.7500018644333,0|0,0:0|1:0,0:0:0:0:
254,347,14569,2,0,P|221:300|146:328,1,146.62500279665,8|0,0:0|0:0,0:0:0:0:
66,289,14925,6,0,P|121:229|191:209,1,146.62500279665,0|0,1:0|0:0,0:0:0:0:
271,220,15280,1,8,0:0:0:0:
248,36,15458,2,0,L|237:135,1,97.7500018644333,0|0,1:0|0:0,0:0:0:0:
271,220,15813,1,0,1:0:0:0:
156,5,15991,2,0,P|103:12|73:55,1,97.7500018644333,8|0,0:0|1:0,0:0:0:0:
271,220,16346,6,0,P|303:255|350:259,1,97.7500018644333,0|0,1:0|0:0,0:0:0:0:
107,158,16702,2,0,P|51:192|42:222,1,97.7500018644333,8|0,0:0|1:0,0:0:0:0:
145,373,17057,1,0,0:0:0:0:
248,36,17235,6,0,L|241:87,1,48.8750009322167,8|0,0:0|0:0,0:0:0:0:
271,220,17413,1,0,1:0:0:0:
348,14,17590,2,0,L|341:65,1,48.8750009322167,8|0,0:0|0:0,0:0:0:0:
371,198,17768,6,0,P|418:173|503:208,1,146.62500279665,4|0,1:2|0:0,0:0:0:0:
434,254,18124,1,8,0:0:0:0:
241,84,18301,2,0,L|144:74,1,97.7500018644333,0|0,1:0|0:0,0:0:0:0:
348,14,18657,1,0,1:0:0:0:
271,220,18834,1,8,0:0:0:0:
489,143,19012,6,0,P|426:141|368:205,1,146.62500279665,0|0,1:0|0:0,0:0:0:0:
340,283,19368,1,0,0:0:0:0:
241,84,19545,2,0,L|144:94,1,97.7500018644333,8|0,0:0|1:0,0:0:0:0:
123,287,19901,2,0,L|26:277,1,97.7500018644333,0|0,0:0|1:0,0:0:0:0:
263,384,20256,1,8,0:0:0:0:
271,220,20434,1,0,1:0:0:0:
145,384,20612,6,0,L|-4:366,1,146.62500279665,0|0,1:0|0:0,0:0:0:0:
25,276,20967,1,8,0:0:0:0:
260,122,21145,2,0,L|270:219,1,97.7500018644333,0|0,1:0|0:0,0:0:0:0:
81,40,21500,1,0,1:0:0:0:
376,100,21678,2,0,L|366:3,1,97.7500018644333,8|0,0:0|1:0,0:0:0:0:
124,160,22034,6,0,P|60:139|-2:183,1,146.62500279665,0|0,1:0|1:0,0:0:0:0:
25,276,22389,1,8,0:0:0:0:
81,40,22567,1,0,1:0:0:0:
121,339,22744,1,0,0:0:0:0:
199,18,22922,1,0,1:0:0:0:
229,384,23100,1,8,0:0:0:0:
311,0,23278,1,0,1:0:0:0:
229,384,23455,6,0,L|251:285,1,97.7500018644333,0|0,1:0|0:0,0:0:0:0:
199,18,23811,2,0,L|177:113,1,97.7500018644333,8|0,0:0|1:0,0:0:0:0:
229,384,24166,6,0,L|251:285,1,97.7500018644333,0|0,0:0|1:0,0:0:0:0:
75,40,24522,2,0,L|53:135,1,97.7500018644333,8|0,0:0|1:0,0:0:0:0:
371,193,24877,5,8,0:3:0:0:
0,284,25055,1,4,0:3:0:0:
487,276,25233,5,8,0:3:0:0:
52,135,25411,1,4,0:3:0:0:
503,146,25588,5,8,0:3:0:0:
76,384,25766,1,8,0:3:0:0:
256,17,25943,6,0,P|233:54|237:109,1,95.6250036478044,4|0,0:0|0:0,0:0:0:0:
310,192,26299,6,0,B|342:133|342:133|317:73,1,127.5,4|0,0:0|0:0,0:0:0:0:
270,270,26654,6,0,B|310:291|345:271|345:271|385:251|421:272,1,152.999995330811,4|0,0:0|0:0,0:0:0:0:
483,350,27010,6,0,P|398:349|424:266,1,191.250007295609,4|0,0:0|0:0,0:0:0:0:
456,181,27350,6,0,B|490:173|508:155|508:155|496:223|508:258,1,159.375,4|0,1:2|0:0,0:0:0:0:
483,350,27705,1,8,0:0:0:0:
446,93,27883,1,0,1:0:0:0:
248,270,28060,2,0,P|195:288|172:324,1,97.7500018644333,0|0,0:0|1:0,0:0:0:0:
355,185,28416,2,0,P|355:129|320:92,1,97.7500018644333,8|0,0:0|1:0,0:0:0:0:
400,313,28771,6,0,P|441:349|484:349,1,97.7500018644333,0|0,1:0|0:0,0:0:0:0:
355,185,29127,2,0,P|355:129|320:92,1,97.7500018644333,8|0,0:0|1:0,0:0:0:0:
248,270,29482,2,0,P|195:288|172:324,1,97.7500018644333,0|0,0:0|1:0,0:0:0:0:
330,98,29838,1,8,0:0:0:0:
248,270,30015,1,0,1:0:0:0:
171,39,30193,6,0,B|68:29|68:29|86:42|96:64,1,146.62500279665,0|0,1:0|0:0,0:0:0:0:
18,98,30549,1,8,0:0:0:0:
235,101,30726,2,0,P|257:58|251:5,1,97.7500018644333,0|0,1:0|0:0,0:0:0:0:
95,199,31082,1,0,1:0:0:0:
248,270,31259,2,0,P|298:264|335:234,1,97.7500018644333,8|0,0:0|1:0,0:0:0:0:
95,199,31615,6,0,L|105:300,1,97.7500018644333,0|0,1:0|0:0,0:0:0:0:
235,101,31970,2,0,L|225:3,1,97.7500018644333,8|0,0:0|1:0,0:0:0:0:
248,270,32326,1,0,0:0:0:0:
320,0,32504,6,0,L|324:49,1,48.8750009322167,8|0,0:0|0:0,0:0:0:0:
340,265,32681,1,0,1:0:0:0:
410,0,32859,2,0,L|414:49,1,48.8750009322167,8|0,0:0|0:0,0:0:0:0:
430,260,33037,6,0,P|364:289|346:356,1,146.62500279665,4|0,1:2|0:0,0:0:0:0:
431,346,33392,1,8,0:0:0:0:
182,209,33570,2,0,P|209:257|252:270,1,97.7500018644333,0|0,1:0|0:0,0:0:0:0:
320,48,33925,1,0,1:0:0:0:
430,260,34103,1,8,0:0:0:0:
211,112,34281,6,0,L|64:122,1,146.62500279665,0|0,1:0|0:0,0:0:0:0:
16,210,34636,1,0,0:0:0:0:
144,21,34814,1,8,0:0:0:0:
71,303,34992,1,0,1:0:0:0:
211,112,35169,2,0,L|199:209,1,97.7500018644333,0|0,0:0|1:0,0:0:0:0:
417,357,35525,2,0,L|429:260,1,97.7500018644333,8|0,0:0|1:0,0:0:0:0:
278,241,35880,6,0,P|209:236|165:295,1,146.62500279665,0|0,1:0|0:0,0:0:0:0:
129,375,36236,1,8,0:0:0:0:
278,240,36413,2,0,L|290:143,1,97.7500018644333,0|0,1:0|0:0,0:0:0:0:
165,292,36769,1,0,1:0:0:0:
52,24,36947,2,0,L|64:121,1,97.7500018644333,8|0,0:0|1:0,0:0:0:0:
360,89,37302,6,0,P|291:54|227:87,1,146.62500279665,0|0,1:0|1:0,0:0:0:0:
200,160,37658,1,8,0:0:0:0:
360,89,37835,1,0,1:0:0:0:
145,95,38013,1,0,0:0:0:0:
405,170,38191,1,0,1:0:0:0:
116,267,38368,2,0,P|99:222|109:175,1,97.7500018644333,8|0,0:0|1:0,0:0:0:0:
261,265,38724,6,0,L|254:364,1,93.5000028533936,0|0,1:0|0:0,0:0:0:0:
312,177,39079,2,0,P|357:160|411:169,1,93.5000028533936,8|0,0:0|0:0,0:0:0:0:
200,177,39435,2,0,P|155:160|101:169,1,93.5000028533936,8|0,0:0|0:0,0:0:0:0:
261,265,39790,1,8,0:0:0:0:
261,265,39968,1,0,1:0:0:0:
255,20,40146,5,4,0:3:0:0:
385,370,40320,1,8,0:3:0:0:
15,195,40494,1,8,0:3:0:0:
486,190,40669,1,8,0:3:0:0:
110,370,40847,1,0,0:0:0:0:
255,193,41026,1,0,0:0:0:0:
374,272,41204,6,0,B|315:207|315:207|390:136|390:136|286:137|286:137|256:53|256:53|220:136|220:136|117:137|117:137|191:208|191:208|137:280|137:280|193:263,1,824.500019500351,4|2,0:0|0:0,0:0:0:0:
