osu file format v5

[General]
AudioFilename: Myst_Unraveling_the_Mystery_OC_ReMix.mp3
AudioLeadIn: 0
PreviewTime: -1
Countdown: 0
SampleSet: Soft
StackLeniency: 0.7
Mode: 0
LetterboxInBreaks: 1
EditorBookmarks: 130282
EditorDistanceSpacing: 1

[Metadata]
Title:Myst - Unraveling the Mystery
Artist:DarkMessenger
Creator:LuigiHann
Version:Normal
Source:OC ReMix
Tags:

[Difficulty]
HPDrainRate:5
CircleSize:5
OverallDifficulty:5
SliderMultiplier:1.4
SliderTickRate:1

[Events]
//Background and Video events
//Break Periods
2,9196,19368
2,22911,33082
//Storyboard Layer 0 (Background)
//Storyboard Layer 1 (Failing)
//Storyboard Layer 2 (Passing)
//Storyboard Layer 3 (Foreground)
//Storyboard Sound Samples
//Background Colour Transformations
3,100,163,162,255

[TimingPoints]
425,428.570419580421,4,2,0,0,1,0
6424,-100,4,2,0,70,0,0
6854,428.570419580421,4,2,0,70,1,0

[HitObjects]
256,192,1710,12,0,5996
88,304,6854,5,0
200,216,7282,1,0
456,328,8139,1,0
320,80,8996,1,0
432,64,20568,5,0
320,144,20996,1,0
56,56,21853,1,0
184,304,22711,1,0
440,328,34282,5,0
320,248,34711,1,0
192,296,35139,1,0
120,272,35353,1,0
80,216,35568,1,0
312,64,36425,5,0
464,208,37068,1,0
288,328,37711,1,0
96,128,38568,5,0
72,192,38782,1,0
88,256,38996,1,0
288,64,39853,1,0
416,232,40496,1,0
216,304,41139,1,0
360,64,41996,5,0
336,128,42211,1,0
280,168,42425,1,0
32,32,43282,1,0
80,240,43925,1,0
280,296,44568,5,0
456,72,45425,1,0
472,136,45639,1,0
456,200,45853,1,0
216,56,46711,1,0
80,216,47353,1,0
272,296,47996,5,0
400,240,48425,1,0
408,168,48639,6,0,B|416:128|384:88,2,70
336,184,49282,5,0
208,240,49711,1,0
112,136,50139,1,0
224,48,50568,2,0,B|288:40|312:64,1,70
344,256,51425,1,0
232,336,51853,5,0
160,336,52068,1,0
88,336,52282,2,0,B|40:336|40:272,2,70
88,192,53139,1,0
88,48,53568,1,0
224,48,53996,2,0,B|288:48|288:104,1,70
424,216,54853,5,0
328,312,55282,1,0
256,312,55496,2,0,B|184:240,2,70
288,248,56139,1,0
368,136,56568,1,0
232,88,56996,1,0
96,56,57425,2,0,B|40:72|48:128,1,70
112,304,58282,5,0
240,240,58711,2,0,B|280:304,1,70
344,328,59139,1,0
408,296,59353,2,0,B|446:237,1,70
472,96,59996,1,0
336,144,60425,1,0
192,128,60853,2,0,B|128:128|128:64,1,70
64,296,61711,5,0
200,336,62139,2,0,B|288:336,1,70
272,264,62568,1,0
344,264,62782,2,0,B|416:264,1,70
408,120,63425,1,0
288,48,63853,1,0
168,120,64282,2,0,B|104:120|104:184,1,70
72,208,64711,1,0
200,264,65139,5,0
336,264,65568,2,0,B|336:336,1,70,0|0
400,304,65996,1,0
456,272,66211,2,0,B|456:200,1,70
456,64,66853,1,0
320,40,67282,1,0
184,64,67710,2,0,B|160:112|112:56,1,70
56,272,68568,5,0
184,320,68996,2,0,B|272:320,1,70
304,272,69425,1,0
360,224,69639,2,0,B|440:224,1,70
472,88,70282,1,0
336,40,70710,1,0
208,104,71139,2,0,B|128:104,1,70
64,304,71996,5,0
200,336,72425,2,0,B|200:264,1,70
272,264,72853,1,0
344,264,73068,1,0
344,192,73282,1,0
344,48,73710,1,0
200,48,74139,1,0
200,184,74568,2,0,B|200:264,1,70
72,80,75425,5,0
72,216,75853,2,0,B|72:296,1,70
120,336,76282,1,0
168,288,76496,2,0,B|168:208,1,70,0|0
256,112,77139,1,0
376,40,77568,1,0
496,112,77996,1,0
496,184,78210,1,0
496,256,78425,1,0
392,344,78853,5,0
392,200,79282,2,0,B|392:280,1,70
392,344,79710,1,0
320,344,79925,1,0
248,344,80139,1,0
104,344,80568,5,0
104,200,80996,1,0
104,56,81425,2,0,B|104:136,1,70
160,168,81853,1,0
208,216,82068,1,0
256,264,82282,1,0
360,352,82710,6,0,B|424:288,1,70
456,248,83139,1,0
400,200,83353,2,0,B|336:136,1,70
248,56,83996,1,0
248,192,84425,1,0
248,328,84853,1,0
176,328,85068,2,0,B|120:328|88:288,1,70
32,192,85710,1,0
32,48,86139,6,0,B|96:112,1,70
128,144,86568,1,0
176,192,86782,2,0,B|240:256,1,70
320,336,87425,1,0
424,240,87853,1,0
424,96,88282,2,0,B|424:40|352:40,1,70
176,40,89139,5,0
56,120,89568,2,0,B|56:200,1,70
56,256,89996,1,0
56,328,90210,1,0
128,328,90425,1,0
216,216,90853,5,0
296,328,91282,1,0
376,216,91710,1,0
424,160,91925,1,0
472,104,92139,1,0
352,32,92568,1,0
208,32,92996,2,0,B|144:88,1,70
104,128,93425,1,0
152,176,93639,1,0
32,352,94282,5,0
160,296,94710,1,0
288,352,95139,1,0
344,312,95353,1,0
216,144,95996,5,0
336,72,96425,1,0
408,72,96639,2,0,B|472:72|472:136,1,70
472,176,97068,1,0
472,248,97282,1,0
368,344,97710,1,0
240,280,98139,1,0
112,216,98568,1,0
56,256,98782,1,0
32,192,98996,1,0
56,48,99425,5,0
144,160,99853,2,0,B|168:200|216:200,1,70
264,216,100282,1,0
328,240,100496,2,0,B|376:240|392:280,1,70
456,152,101139,1,0
352,56,101568,1,0
208,72,101996,2,0,B|120:112,1,70
80,136,102425,1,0
120,272,102853,5,0
248,336,103282,2,0,B|312:280,1,70
352,336,103710,2,0,B|408:280,1,70
448,232,104139,1,0
360,120,104568,1,0
256,208,104996,1,0
136,136,105425,1,0
136,208,105639,1,0
136,280,105853,1,0
136,136,106282,5,0
272,136,106710,1,0
344,136,106925,2,0,B|416:136,1,70
416,208,107353,2,0,B|416:280,1,70
416,136,107996,1,0
272,136,108425,1,0
128,136,108853,1,0
128,64,109068,1,0
48,256,109710,6,0,B|80:328|192:296,1,140
232,280,110353,1,0
296,248,110568,2,0,B|352:216|384:256,1,70
416,280,110996,1,0
464,144,111425,1,0
336,88,111853,2,0,B|264:32|184:88,1,140
136,104,112496,2,0,B|80:128|48:88,1,70
88,240,113139,5,0
208,320,113568,2,0,B|248:344|304:304,1,70
336,288,113996,1,0
400,256,114210,2,0,B|448:232|488:272,1,70
408,128,114853,1,0
272,176,115282,2,0,B|208:232|152:152|192:104,1,140
192,64,115925,1,0
120,80,116139,1,0
88,216,116568,6,0,B|104:296|160:336|224:256|280:216|336:256,1,280
384,272,117639,1,0
440,312,117853,2,0,B|480:320|504:224|456:168|392:152|344:96|416:56,1,280
184,48,119353,1,0
80,232,119996,1,0
344,320,120853,5,0
408,288,121068,1,0
376,224,121282,1,0
160,40,122139,5,0
40,208,122782,1,0
216,320,123425,1,0
440,152,124282,2,0,B|448:192|416:224,1,70
376,272,124710,1,0
184,72,125568,5,0
72,248,126210,1,0
272,200,126853,1,0
256,192,127710,12,0,129639
