osu file format v7

[General]
AudioFilename: Dark PHOENiX - .mp3
AudioLeadIn: 0
PreviewTime: -1
Countdown: 1
SampleSet: Soft
StackLeniency: 0.7
Mode: 0
LetterboxInBreaks: 1
SkinPreference:grungosu

[Editor]
DistanceSpacing: 0.800000011920929
BeatDivisor: 2
GridSize: 8

[Metadata]
Title:touhou music
Artist:Dark Phoenix
Creator:JonnieWalker
Version:Very Dark Phoenix (hard)
Source:Dark Phoenix - Touhou music
Tags:Dark Phoenix

[Difficulty]
HPDrainRate:5
CircleSize:5
OverallDifficulty:5
SliderMultiplier:1.4
SliderTickRate:1

[Events]
//Background and Video events
0,0,"anime 2.jpg"
//Break Periods
//Storyboard Layer 0 (Background)
//Storyboard Layer 1 (Fail)
//Storyboard Layer 2 (Pass)
//Storyboard Layer 3 (Foreground)
//Storyboard Sound Samples
//Background Colour Transformations
3,100,163,162,255

[TimingPoints]
2007.88308851493,156.494736842105,4,2,0,100,1,0

[Colours]
Combo1 : 64,0,64
Combo2 : 128,0,0
Combo3 : 128,128,128
Combo4 : 0,0,64
Combo5 : 0,64,0

[HitObjects]
240,224,912,2,0,B|296:176,2,70
256,192,1225,1,8
256,192,1381,1,8
352,248,1538,6,8,B|408:200,3,70
352,248,2007,2,0,B|416:192,3,70
240,256,2633,2,0,B|240:40|240:40|456:40|456:40|456:248|456:248|232:256|232:256|248:240,1,840
240,256,3729,2,8,B|240:40|240:40|456:40|456:40|456:248|456:248|232:256|232:256|248:240,1,840
256,192,5137,1,0
256,192,5294,1,0
256,192,5450,1,0
256,192,5607,6,0,B|192:192|184:192|184:192|184:112|184:112|320:112|320:112|320:256|320:256|176:256|176:256|176:176|176:176|176:192,1,630
256,192,6467,1,12
256,192,6546,5,12
352,248,6702,6,8,B|408:200,3,70
352,248,7171,2,0,B|416:192,3,70
240,256,7797,2,0,B|240:40|240:40|456:40|456:40|456:248|456:248|232:256|232:256|248:240,1,840
256,192,8893,5,12
256,192,9050,1,12
256,192,9363,1,12
256,192,9519,1,12
256,192,9832,1,12
256,192,9989,1,12
256,192,10302,6,8,B|328:192,1,70
256,192,10615,2,8,B|184:192,1,70
256,192,10928,2,8,B|336:192,1,70
256,192,11241,2,8,B|184:192,1,70
352,248,11554,6,8,B|408:200,3,70
352,248,12023,2,0,B|416:192,3,70
240,256,12649,2,0,B|240:40|240:40|456:40|456:40|456:248|456:248|232:256|232:256|248:240,1,840
240,256,13745,2,8,B|240:40|240:40|456:40|456:40|456:248|456:248|232:256|232:256|248:240,1,840
256,184,14996,6,8,B|400:184|400:184|400:32,1,280
256,184,15622,2,8,B|104:184|104:184|104:48|104:48,1,280
104,54,16248,2,8,B|272:208,1,210
256,352,16874,6,12,B|256:280|256:280|184:280|184:280|184:208|184:208|336:208|336:208|336:136|336:136|264:136|264:136|264:72|264:72|272:72,1,560
256,192,17813,1,8
256,192,17970,1,8
256,192,18283,1,8
256,192,18439,1,8
256,192,18752,1,8
256,192,18909,1,8
256,192,19222,1,8
256,192,19535,1,8
256,192,19848,1,12
256,192,20004,1,8
256,192,20161,1,12
256,192,20474,6,8,B|472:192,1,210
256,192,21100,2,8,B|32:192,1,210
256,352,21569,6,12,B|376:264|208:272|312:176|304:144|312:152|312:128|304:96|200:96,1,280
256,352,22195,6,12,B|376:264|208:272|312:176|304:144|312:152|312:128|304:96|200:96,1,280
256,352,22821,6,12,B|376:264|208:272|312:176|304:144|312:152|312:128|304:96|200:96,1,280
256,352,23447,6,12,B|376:264|208:272|312:176|304:144|312:152|312:128|304:96|200:96,1,280
256,352,24073,6,0,B|472:352|472:352|472:72|472:72|248:72|248:72,1,700
256,352,25169,2,0,B|32:352|32:352|32:72|32:72|240:72|240:72,1,700
256,192,26264,5,8
256,192,26421,1,8
384,264,26734,6,12,B|448:224,9,70
384,264,27751,2,12,B|176:72,1,280
178,74,28220,6,8,B|104:72,8,70
256,192,29081,6,8,B|328:192,1,70
256,192,29394,2,8,B|184:192,1,70
256,192,29707,2,8,B|336:192,1,70
256,272,30489,6,12,B|400:272,1,140
256,272,30959,2,12,B|104:272,1,140
256,272,31428,6,12,B|400:272,1,140
256,272,31898,2,12,B|104:272,1,140
344,208,32367,6,8,B|400:160,8,70
160,216,33306,6,8,B|120:152,8,70
256,192,34245,5,12
256,192,34402,1,12
256,192,34558,1,12
256,208,34871,12,12,35341
256,192,35732,5,12
256,192,35888,1,12
256,352,36436,6,8,B|432:208|184:136|504:56,1,420
256,192,37219,5,12
256,192,37375,1,12
256,352,37688,6,8,B|432:208|184:136|504:56,1,420
256,192,38940,5,12
256,192,39097,1,12
256,192,39253,1,12
256,192,39410,1,12
256,192,39723,1,12
256,208,40036,12,12,40270
192,192,40662,5,12
192,192,40975,1,12
192,192,41288,1,0
192,192,41757,6,8,B|336:192,2,140
368,272,42383,6,12,B|480:176|480:176|360:80|360:80|376:88,1,280
192,288,43009,2,12,B|16:168|16:168|216:88|216:88,1,420
256,192,43791,5,12
256,192,43948,1,12
256,192,44104,1,12
368,272,44417,6,12,B|480:176|480:176|360:80|360:80|376:88,1,280
192,288,45043,2,12,B|16:168|16:168|216:88|216:88,1,420
256,192,45826,6,8,B|328:192,1,70
326,192,46139,2,8,B|328:120,2,70
256,192,46530,2,8,B|256:112,1,70
96,192,46921,5,12
96,192,47078,1,12
96,192,47234,1,12
96,192,47547,1,12
96,192,48017,6,0,B|456:192,1,350
446,192,48643,6,12,B|408:128,3,70
96,192,49269,6,0,B|456:192,1,350
446,192,49895,6,12,B|408:128,3,70
446,192,50364,6,12,B|408:128,3,70
446,192,50834,2,12,B|408:128,1,70
256,192,51147,5,8
256,192,51303,1,8
256,192,51460,1,8
256,192,51773,5,12
256,192,51929,1,12
368,272,52242,6,12,B|480:176|480:176|360:80|360:80|376:88,1,280
192,288,52868,2,12,B|16:168|16:168|216:88|216:88,1,420
256,192,53651,5,12
256,192,53807,1,12
256,192,53964,1,12
368,272,54277,6,12,B|480:176|480:176|360:80|360:80|376:88,1,280
192,288,54903,2,12,B|16:168|16:168|216:88|216:88,1,420
256,312,55685,6,8,B|384:216|224:184|416:128|152:48|160:48,1,350
167,51,56311,5,12
368,272,56624,6,12,B|480:176|480:176|360:80|360:80|376:88,1,280
192,288,57250,2,12,B|16:168|16:168|216:88|216:88,1,420
472,192,58032,6,8,B|40:192|40:192|40:336|40:336|456:336|456:336,1,980
256,192,59441,5,12
256,192,59597,1,12
408,192,59910,6,8,B|408:264,1,70
344,264,60223,1,8
344,264,60380,1,8
344,264,60536,1,8
288,264,60693,2,8,B|216:264,1,70
218,264,61006,2,8,B|216:192,1,70
216,136,61319,1,8
216,136,61475,1,8
216,136,61632,1,8
368,272,61945,6,12,B|480:176|480:176|360:80|360:80|376:88,1,280
192,288,62571,2,12,B|16:168|16:168|216:88|216:88,1,420
368,272,63353,6,12,B|480:176|480:176|360:80|360:80|376:88,1,280
192,288,63979,2,12,B|16:168|16:168|216:88|216:88,1,420
256,192,64762,6,8,B|328:192,1,70
256,192,65075,2,8,B|256:120,1,70
256,192,65388,2,8,B|184:192,1,70
256,192,65701,2,8,B|256:264,1,70
256,192,66014,5,12
256,192,66170,1,12
256,192,66327,1,12
256,192,66483,1,12
336,192,66796,6,8,B|480:192|488:192|488:192|488:336|488:336|488:48|488:48,1,560
336,192,67735,2,8,B|192:192|192:192|192:336|192:336|200:56|192:56|192:48,1,560
256,192,68831,5,12
256,192,68987,1,12
256,192,69300,1,12
256,192,69457,1,12
256,192,69770,1,12
256,192,69926,1,12
256,192,70239,6,8,B|336:192|336:192|336:120|336:120|408:120|408:120|408:280|408:280|144:280|144:280|144:64,1,840
256,192,71491,5,12
256,192,71648,2,12,B|328:192,1,70
256,192,71961,2,12,B|176:192,1,70
368,272,72274,6,12,B|480:176|480:176|360:80|360:80|376:88,1,280
192,288,72900,6,12,B|16:168|16:168|216:88|216:88,1,420
256,192,73682,5,12
256,192,73838,2,12,B|328:192,1,70
256,192,74308,1,12
256,192,74464,1,12
328,192,74777,6,12,B|320:264|320:264|168:256|168:256|176:112|176:112|384:128|384:128|376:136,1,560
448,192,75873,5,12
392,192,76029,1,12
336,192,76186,1,12
336,192,76342,1,12
336,192,76499,1,12
368,272,76968,6,12,B|480:176|480:176|360:80|360:80|376:88,1,280
192,288,77594,2,12,B|16:168|16:168|216:88|216:88,1,420
232,240,78377,6,8,B|312:240|224:120,1,140
234,134,78846,2,8,B|272:216|200:256,1,140
368,272,79316,6,12,B|480:176|480:176|360:80|360:80|376:88,1,280
192,288,79942,2,12,B|16:168|16:168|216:88|216:88,1,420
232,240,80881,6,8,B|312:240|224:120,1,140
234,134,81350,2,8,B|272:216|200:256,1,140
256,192,81820,5,0
256,192,82133,2,0,B|480:192,1,210
466,192,82602,1,12
466,192,82915,1,12
466,192,83072,1,12
16,352,83385,6,12,B|496:24,1,560
480,352,84324,2,12,B|8:24,1,560
160,192,85263,6,8,B|376:192|376:192|224:24|224:24|160:208|160:208,1,630
224,256,86671,6,0,B|296:256|200:304|296:328|192:352,5,140
192,136,87766,2,0,B|424:136|424:136|424:304|296:8,1,490
256,192,88705,1,0
256,192,89018,1,0
256,192,89175,1,0
256,192,89331,1,0
256,192,89644,1,0
256,192,89801,1,0
256,192,90270,6,8,B|400:240,6,140
296,208,91679,6,12,B|224:168,10,70
400,192,92774,5,8
400,192,92931,1,8
400,192,93087,1,8
400,192,93400,1,8
400,192,93557,1,8
400,192,93870,1,8
400,192,94183,1,8
400,192,94339,1,8
112,272,94652,6,12,B|176:240,1,70
88,216,94965,2,12,B|152:184,1,70
64,160,95278,2,12,B|136:128,1,70
40,112,95591,2,12,B|112:88,1,70
304,264,95904,2,12,B|368:224,1,70
272,208,96217,2,12,B|336:168,1,70
224,160,96530,2,12,B|288:120,1,70
48,344,97156,6,8,B|480:336|480:336|472:24|472:24|0:32|0:32|432:280|432:280|24:280|24:280,1,2100
256,192,99817,5,12
256,192,99973,1,12
256,192,100130,1,12
256,192,100286,1,12
216,216,100521,6,12,B|288:184,3,70
280,344,101069,2,0,B|496:160|496:152|496:152|240:8|240:8|16:168|16:168|232:344|232:344,1,1120
248,304,102633,6,0,B|480:112|24:80|8:88|216:352,1,560
56,336,103572,6,0,B|480:40,1,490
256,192,104668,5,12
256,256,104981,5,8
256,320,105137,2,8,B|176:320,1,70
184,264,105450,2,8,B|184:192,1,70
176,136,105763,2,8,B|256:136,1,70
312,136,106076,2,8,B|312:352,1,210
312,346,106546,2,8,B|312:120,1,210
256,192,107015,5,12
256,192,107172,1,12
256,192,107328,1,12
256,192,107485,1,12
256,192,107641,1,12
256,192,107798,1,12
399,240,108111,2,12,B|328:248|400:88|176:72|112:328,1,420
192,72,108893,6,8,B|96:272|96:272|304:280|304:280|208:96,1,630
256,72,109832,2,8,B|328:72,1,70
328,128,110145,2,8,B|328:208,1,70
256,192,110458,5,12
256,192,110615,1,12
256,192,110771,1,12
256,192,110928,1,12
168,288,111241,6,8,B|248:288|248:288|248:216|248:216|184:216|184:216|192:144|184:144|272:136|272:136|272:64|272:64|192:56,1,490
256,192,112023,1,0
168,288,112336,6,8,B|248:288|248:288|248:216|248:216|184:216|184:216|192:144|184:144|272:136|272:136|272:64|272:64|192:56,1,490
400,192,113275,5,8
400,192,113432,2,12,B|400:120,1,70
336,192,113745,5,8
336,192,113901,2,12,B|336:112,1,70
264,192,114214,5,8
264,192,114371,2,12,B|264:120,1,70
264,192,114684,6,8,B|192:192,6,70
408,192,115466,5,12
408,192,115623,1,12
408,192,115779,1,12
408,192,115936,1,12
408,192,116249,6,8,B|8:24|8:24|16:128|16:128|104:48|104:48|112:184|112:184|232:104|232:104|224:248|224:248|336:176,1,1190
324,183,117813,5,12
324,183,117970,1,12
464,352,118439,6,8,B|464:200|464:200|320:200|320:200|320:352|320:352|184:352|184:352|184:192|184:192|32:192|368:72,1,980
256,192,119848,5,12
256,192,119926,1,12
256,192,120004,1,12
256,192,120083,1,12
256,192,120161,1,12
256,192,120239,1,12
256,192,120317,1,12
32,336,120630,2,0,B|48:16|264:336|296:352|184:48,1,490
256,192,121413,1,12
256,192,121491,1,12
32,336,121726,2,0,B|48:16|264:336|296:352|184:48,1,490
256,192,122821,6,12,B|400:192|400:192|400:48|400:48|-40:48,1,700
32,336,124073,2,0,B|48:16|264:336|296:352|184:48,1,490
256,192,125012,5,12
256,192,125169,1,12
256,192,125325,1,0
32,336,125638,2,0,B|48:16|264:336|296:352|184:48,1,490
32,336,126577,2,0,B|48:16|264:336|296:352|184:48,1,490
256,192,127829,5,12
256,192,127986,6,8,B|400:192,1,140
480,192,128768,5,12
256,192,129081,1,12
16,192,129394,1,12
256,208,129707,12,12,130020
256,192,130333,5,8
256,192,130411,1,8
256,192,130490,1,8
256,192,130568,1,8
256,192,130646,1,8
256,192,130959,6,0,B|416:192,1,140
256,192,131429,5,8
256,192,131507,1,8
256,192,131586,1,8
256,192,131664,1,8
256,192,131742,1,8
256,192,132055,6,0,B|416:192|416:192|416:56|416:56|200:56|200:56|256:208,1,630
256,192,132993,2,8,B|256:336|256:336|96:336|96:336|104:0,1,630
256,192,134089,5,12
256,192,134167,1,12
256,192,134402,6,8,B|248:352|16:96|368:120|384:200|384:200|168:360,1,560
256,192,135341,5,12
256,192,135497,1,12
256,192,135654,1,12
256,192,136280,5,12
256,192,136358,1,12
256,192,136436,1,12
256,192,136515,1,12
256,192,136593,1,12
256,272,136906,6,8,B|496:48|8:80,1,490
400,192,137688,5,12
400,192,137845,1,12
400,192,138001,1,12
400,192,138158,1,12
40,192,138627,5,12
40,192,138940,1,12
40,192,139253,1,12
256,208,139566,12,12,140583
256,192,140975,5,12
256,192,141053,1,12
256,192,141288,1,12
256,192,141366,1,12
256,192,141601,1,12
256,192,141679,1,12
376,192,141914,6,8,B|448:192|448:192|448:352|448:352|32:344,1,630
112,200,142853,2,8,B|32:200|32:200|32:64|32:64|472:64,1,630
256,192,143792,5,14
256,192,143948,1,14
256,192,144105,1,14
256,192,144183,1,14
256,192,144261,1,14
256,192,144574,6,14,B|376:208,1,70
256,192,144887,2,14,B|336:208,1,70
256,192,145200,2,14,B|16:360,1,280
256,192,146296,6,12,B|480:192|480:192|480:56|480:56|320:56|320:56|320:336,1,770
176,192,147391,5,14
176,192,147469,1,14
176,192,147547,1,14
176,192,147626,1,14
176,192,147860,1,14
360,192,148173,6,12,B|432:192,2,70
360,192,148643,2,12,B|288:192,3,70
256,192,149112,5,8
256,192,149269,6,8,B|16:192|24:192|24:184|32:184|32:184|32:-8|32:-8|144:136|128:112|224:0|224:0|288:144,1,840
256,192,150521,2,8,B|256:344|256:344|120:344|120:344|128:56,1,560
127,69,151303,5,12
127,69,151460,1,12
256,192,151929,6,12,B|400:192,1,140
256,192,152399,5,14
256,192,152712,5,12
256,192,152868,1,12
256,192,153181,6,12,B|200:328|200:328|80:184|80:184,1,280
64,200,153807,6,12,B|136:200,2,70
64,200,154277,6,12,B|136:200,2,70
256,192,154746,6,12,B|328:192,1,70
184,288,155059,2,12,B|336:288,2,140
152,192,155685,6,8,B|224:192,1,70
352,192,156155,6,12,B|424:192,4,70
352,192,156781,6,12,B|424:192,4,70
256,192,157407,5,12
256,192,157563,1,12
48,192,157720,6,12,B|200:192,1,140
188,192,158111,2,12,B|232:56|240:64|240:64|320:192|320:192|384:48|384:48|432:240|432:240|296:320|296:320|216:208|216:208|128:328|128:328,1,1050
256,192,159598,5,8
256,192,159676,1,8
256,192,159754,1,8
256,192,159832,1,8
184,192,160067,6,12,B|336:192,1,140
456,224,160537,6,12,B|392:176,1,70
376,240,160850,2,12,B|320:192|312:192,1,70
288,248,161163,2,12,B|240:192,3,70
208,264,161632,2,12,B|160:200|160:200|104:240,1,140
256,192,161945,5,14
256,192,162101,1,14
256,192,162258,1,14
144,192,162571,6,8,B|368:192|128:48|408:160,1,280
360,192,163197,6,12,B|432:216,3,70
256,192,163666,5,12
256,192,163823,1,12
224,136,164136,6,8,B|296:136,1,70
296,192,164449,2,8,B|208:192,1,70
224,248,164762,2,8,B|296:248,1,70
424,192,165075,5,12
80,192,165231,1,12
424,192,165388,6,8,B|248:48|248:48|72:200,1,420
176,192,166170,6,12,B|320:192|320:192|320:344,1,280
320,329,166796,6,12,B|320:176|320:176|168:176|168:176,1,280
256,192,167422,5,12
256,192,167501,1,12
256,192,167579,1,12
256,192,167657,1,12
256,192,167735,1,12
256,192,167814,1,12
256,192,167892,1,12
368,192,168205,6,12,B|440:192,3,70
176,192,168674,2,12,B|104:192,3,70
368,192,169144,2,12,B|448:192,3,70
176,192,169613,2,12,B|96:192,3,70
256,192,170083,5,12
256,192,170161,1,12
256,192,170239,1,12
256,192,170317,1,12
256,192,170396,1,12
256,192,170552,6,8,B|256:344|256:336|256:336|464:336|464:336|464:16,1,630
256,192,171491,5,12
256,192,171569,1,12
256,192,171648,1,12
376,200,171961,2,0,B|432:144,3,70
160,200,172587,6,12,B|112:144,4,70
256,192,173213,5,12
256,192,173291,1,12
256,192,173526,1,12
256,192,173839,2,12,B|480:192|480:192|480:48|480:48|32:56,1,770
256,192,174934,6,14,B|216:344|216:344|16:24|16:24|256:120|256:120|432:32,1,910
367,64,176186,5,12
367,64,176343,1,12
400,184,176656,6,12,B|96:184,1,280
256,192,177281,5,12
256,192,177360,1,12
256,192,177438,1,12
256,192,177516,1,12
256,192,177594,1,12
256,192,177673,1,12
256,192,177751,1,12
256,192,177829,1,12
256,192,177907,1,0
256,208,178220,12,0,178768
416,192,179003,5,12
416,192,179081,1,12
416,192,179159,1,12
416,192,179238,1,12
64,192,179472,1,12
64,192,179551,1,12
64,192,179629,1,12
64,192,179707,1,12
256,192,179942,5,12
256,192,180020,1,12
256,192,180098,1,12
256,192,180177,1,12
256,192,180255,1,12
256,192,180333,1,12
256,192,180411,1,12
416,192,180724,6,12,B|344:192,1,70
256,192,181037,2,12,B|184:192,1,70
80,192,181350,2,12,B|8:192,1,70
80,192,181663,2,12,B|160:192,1,70
256,192,181976,2,12,B|328:192,1,70
400,192,182289,2,12,B|472:192,1,70
256,192,182602,5,8
256,192,182681,1,8
256,192,182759,1,8
256,192,182837,1,8
256,192,182915,1,8
256,192,183072,1,8
256,192,183150,1,8
256,192,183228,1,8
256,192,183307,1,8
256,192,183385,1,8
256,192,183463,1,8
256,192,183698,1,8
256,192,183776,1,8
256,192,183854,1,8
256,192,183933,1,8
256,192,184011,1,8
256,192,184089,1,8
256,192,184167,1,8
256,192,184246,1,8
464,344,184480,5,12
464,344,184558,1,12
464,344,184637,1,12
464,344,184715,1,12
336,344,184950,1,12
264,344,185106,5,12
264,280,185263,1,12
336,280,185341,1,12
336,216,185419,1,12
264,224,185576,1,12
264,224,185654,1,12
264,224,185732,1,12
264,224,185810,1,12
320,160,185889,1,12
256,160,185967,1,12
312,96,186045,5,12
248,96,186123,1,12
304,48,186202,1,12
376,32,186358,2,12,B|392:104,5,70
256,352,186984,5,12
32,192,187141,1,12
480,192,187297,1,12
256,32,187454,1,12
256,192,187610,1,12
256,192,187688,1,12
256,192,187767,1,12
256,192,187845,1,12
256,192,187923,1,12
376,192,188236,1,12
376,192,188314,1,12
376,192,188393,1,12
152,192,188549,5,12
152,192,188627,1,12
152,192,188706,1,12
152,192,188862,1,12
152,192,188940,1,12
152,192,189019,1,12
152,192,189332,1,12
152,192,189410,1,12
152,192,189488,1,12
160,272,189645,6,12,B|440:48,1,350
256,192,190271,5,12
256,192,190349,1,12
256,192,190427,1,12
256,192,190505,1,12
256,192,190584,1,12
256,192,190662,1,12
256,192,190740,1,12
256,192,190818,1,12
256,192,190897,1,12
256,192,190975,1,12
408,192,191210,5,12
408,192,191288,1,12
408,192,191366,1,12
408,192,191444,1,12
408,192,191523,1,12
408,192,191601,1,12
408,192,191679,1,12
72,192,191992,1,12
72,192,192070,1,12
72,192,192148,1,12
72,192,192227,1,12
72,192,192305,1,12
72,192,192383,1,12
72,192,192461,1,12
248,192,192774,1,12
248,192,192853,1,12
192,152,192931,1,12
280,136,193009,1,12
176,104,193087,1,12
256,88,193166,1,12
208,56,193244,1,12
240,40,193322,1,12
144,288,193557,6,12,B|448:280|408:24,1,420
104,48,194183,2,12,B|112:328|440:288,1,420
232,192,194887,5,8
272,192,194965,1,8
232,144,195044,1,8
264,136,195122,1,8
224,96,195200,1,8
208,48,195278,1,8
264,40,195357,1,8
224,16,195435,1,0
256,280,195748,2,0,B|320:248,4,70
448,112,196374,2,0,B|384:168,4,70
32,128,197000,2,0,B|80:192,5,70
256,184,197626,5,12
256,184,197704,1,12
256,184,197782,1,12
256,184,197861,1,12
256,184,197939,1,12
256,184,198174,1,12
416,192,198252,1,12
416,192,198330,1,12
416,192,198408,1,12
416,192,198565,1,12
416,192,198721,1,12
96,192,198956,1,12
96,192,199113,1,12
96,192,199191,1,12
96,192,199425,1,12
96,192,199504,1,12
96,192,199582,1,12
96,192,199660,1,12
96,192,199895,1,12
256,208,200130,12,12,202008
240,208,202164,6,12,B|296:152,1,70
384,184,202399,5,12
384,184,202477,1,12
384,184,202555,1,12
384,184,202634,1,12
384,184,202712,1,12
384,184,202790,1,12
384,184,202868,1,12
384,184,202947,1,12
384,184,203025,1,12
384,184,203573,1,12
