osu file format v7

[General]
AudioFilename: Dark PHOENiX - .mp3
AudioLeadIn: 0
PreviewTime: -1
Countdown: 1
SampleSet: Soft
StackLeniency: 0.7
Mode: 0
LetterboxInBreaks: 1
SkinPreference:grungosu

[Editor]
DistanceSpacing: 0.800000011920929
BeatDivisor: 1
GridSize: 8

[Metadata]
Title:touhou music
Artist:Dark Phoenix
Creator:JonnieWalker
Version:Bright Phoenix (easy)
Source:Dark Phoenix - Touhou music
Tags:Dark Phoenix

[Difficulty]
HPDrainRate:0
CircleSize:3
OverallDifficulty:0
SliderMultiplier:1.4
SliderTickRate:2

[Events]
//Background and Video events
0,0,"anime 2.jpg"
//Break Periods
//Storyboard Layer 0 (Background)
//Storyboard Layer 1 (Fail)
//Storyboard Layer 2 (Pass)
//Storyboard Layer 3 (Foreground)
//Storyboard Sound Samples
//Background Colour Transformations
3,100,163,162,255

[TimingPoints]
2081.09670140859,302.724520686176,4,2,0,100,1,0

[Colours]
Combo1 : 64,0,64
Combo2 : 128,0,0
Combo3 : 128,128,128
Combo4 : 0,0,64
Combo5 : 0,64,0

[HitObjects]
424,192,870,5,12
256,192,1324,2,12,B|112:192|120:56,1,210
40,64,2081,6,12,B|48:176|128:224,1,140
80,272,2686,5,12
80,352,2989,2,12,B|192:256|192:256|304:336|304:336|432:224,1,420
408,168,4200,1,12
336,168,4502,1,12
336,96,4805,1,12
264,96,5108,1,12
256,168,5411,1,12
184,168,5713,6,12,B|32:168|32:168|32:320,1,280
120,296,6621,5,12
200,296,6924,1,12
200,224,7227,1,12
120,224,7530,1,12
120,144,7832,1,12
200,144,8135,1,12
200,64,8438,2,12,B|344:64|216:256,1,140
352,152,9043,5,12
432,152,9346,2,12,B|432:296|272:224,1,140
272,248,9951,5,12
192,248,10254,2,12,B|192:96|344:184,1,140
344,160,10860,6,12,B|432:40|432:328|288:232|296:280|376:320,1,280
272,328,11768,5,12
272,256,12071,1,12
200,256,12373,1,12
208,328,12676,1,12
128,328,12979,1,12
136,248,13281,1,12
136,168,13584,1,12
136,96,13887,6,12,B|448:104|112:312,1,280
232,320,14795,6,12,B|392:320|288:112,1,140
336,168,15400,2,12,B|336:24|480:192,1,140
288,88,16006,2,12,B|136:32|216:208,1,140
184,208,16611,5,12
184,280,16914,2,12,B|64:352|48:352|104:56,1,280
80,72,17822,5,12
160,72,18125,2,12,B|488:72|96:184,1,280
200,232,19033,5,8
200,304,19336,1,8
272,304,19639,1,8
352,304,19941,2,8,B|360:152|360:152|240:48,1,280
192,64,20850,5,12
144,64,21152,1,12
440,192,22060,6,12,B|296:192,1,140
40,192,23271,6,12,B|184:192,1,140
472,192,24482,6,12,B|328:192,1,140
40,192,25693,2,12,B|208:192,2,140
208,232,26904,6,12,B|352:232|184:136,1,140
288,192,28115,5,12
288,120,28418,1,12
48,192,29023,5,12
200,192,29326,1,12
328,200,29629,2,12,B|328:56|48:72,1,280
64,144,30537,5,12
32,216,30839,1,12
120,208,31142,1,12
40,296,31445,1,12
128,296,31748,1,12
216,296,32050,6,12,B|368:296|208:160,1,140
264,144,32656,5,12
264,72,32958,1,12
344,72,33261,2,12,B|496:72|320:184,1,140
376,224,33867,5,12
376,304,34169,2,12,B|224:304|328:152,1,140
256,192,34775,12,0,39316
440,192,39921,5,12
376,128,40224,1,12
368,208,40527,1,12
296,208,40829,1,12
296,128,41132,1,12
224,128,41435,6,8,B|128:240|136:240|136:240|32:128|32:128|128:32,1,420
208,40,42646,5,12
288,40,42948,1,12
368,40,43251,1,12
368,120,43554,1,12
288,120,43857,1,12
216,120,44159,2,12,B|216:272|352:168,1,140
368,200,44765,6,12,B|368:352|232:264,1,140
216,288,45370,6,12,B|72:288|160:128,1,140
112,192,46581,5,12
192,184,46884,1,12
264,192,47187,1,12
352,192,47489,1,12
352,112,47792,2,12,B|208:40|208:40|80:144|80:144|16:48|16:48|16:336,1,700
88,312,49608,6,12,B|256:312|64:168,1,140
152,160,50214,2,12,B|320:160|192:328,1,140
240,312,50819,2,12,B|400:304|272:120,1,140
320,160,51425,2,12,B|488:160|392:352,1,140
344,240,52030,2,0,B|200:240|200:240|248:80|376:88,1,280
280,56,52938,6,12,B|120:56|248:224|248:224|72:168,1,420
80,248,54149,6,12,B|-8:368|-8:360|200:352|200:352,1,280
280,352,55057,2,12,B|432:352|432:352|312:192,1,280
336,176,55966,2,12,B|192:176|248:296,1,140
152,240,56571,6,12,B|152:96|32:224,1,140
64,104,57176,2,12,B|216:112|40:0,1,140
184,32,57782,2,12,B|336:32|128:176,1,140
336,32,58387,2,12,B|480:32|280:144,1,140
264,104,58993,5,12
184,104,59296,1,12
120,96,59598,1,12
104,168,59901,1,12
176,168,60204,1,12
248,168,60506,1,12
328,160,60809,6,12,B|488:168|112:288,1,280
256,200,62020,5,12
168,208,62323,1,12
168,336,62626,1,12
264,344,62928,1,12
368,344,63231,1,12
360,192,63534,1,12
200,184,63836,1,12
192,40,64139,1,12
368,32,64442,1,12
272,112,64745,6,12,B|272:272|272:272|136:272,1,280
64,272,65653,2,12,B|64:128|64:128|216:128,1,280
288,128,66561,5,12
376,128,66864,1,12
376,216,67166,1,12
224,320,67469,1,12
144,320,67772,1,12
144,232,68075,1,12
152,144,68377,6,12,B|136:0|136:0|288:56,1,280
328,104,69285,5,12
200,224,69588,1,12
272,288,69891,1,12
400,160,70194,1,12
448,232,70496,6,12,B|512:360|512:360|368:344,1,280
304,304,71405,5,12
240,248,71556,1,12
176,192,71707,1,12
128,144,71859,1,12
80,88,72010,1,12
168,72,72313,6,12,B|456:80|256:272,1,280
408,176,73221,6,12,B|112:176|376:8,1,280
392,48,74129,5,12
408,176,74432,1,12
416,328,74734,1,12
232,328,75037,1,12
48,328,75340,1,12
48,184,75643,1,12
232,184,75945,1,12
232,32,76248,6,12,B|520:32|440:288,1,280
454,156,77156,2,12,B|472:352|168:344,1,280
280,256,78064,5,12
200,256,78367,1,12
208,176,78670,1,12
280,176,78973,1,12
280,96,79275,1,12
480,96,79578,1,12
480,184,79881,1,12
280,176,80184,1,12
280,256,80486,6,12,B|-16:248|-16:248|24:112|136:192|72:136|-24:64,1,560
256,192,82000,12,0,85633
