osu file format v9

[General]
AudioFilename: 06.Dark PHOENiX - .mp3
AudioLeadIn: 3000
PreviewTime: -1
Countdown: 1
SampleSet: Soft
StackLeniency: 0.7
Mode: 0
LetterboxInBreaks: 1

[Editor]
DistanceSpacing: 0.6
BeatDivisor: 4
GridSize: 4

[Metadata]
Title:Pure in Asia
Artist:Dark Phoenix
Creator:taq
Version:Insane
Source:touhou
Tags:

[Difficulty]
HPDrainRate:4
CircleSize:5
OverallDifficulty:7
ApproachRate:8
SliderMultiplier:2.3
SliderTickRate:1

[Events]
//Background and Video events
0,0,"preview7979f94cf0bcb3f9e8c42389fbb37cb0.jpg"
//Break Periods
//Storyboard Layer 0 (Background)
//Storyboard Layer 1 (Fail)
//Storyboard Layer 2 (Pass)
//Storyboard Layer 3 (Foreground)
//Storyboard Sound Samples
//Background Colour Transformations
3,100,163,162,255

[TimingPoints]
900,750,4,2,0,100,1,0
25648,-50,4,2,0,100,0,0
25652,375,4,2,0,100,1,0
62306,-200,4,2,0,100,0,0
63056,-200,4,2,0,100,0,0

[Colours]
Combo1 : 0,128,192
Combo2 : 0,64,128
Combo3 : 14,23,146
Combo4 : 0,128,128
Combo5 : 0,128,64

[HitObjects]
52,88,900,2,0,B|156:88,1,86.25
192,88,1400,1,0
212,88,1525,1,0
232,88,1650,1,0
284,88,1900,1,0
404,152,2400,2,0,B|404:256,1,86.25
224,184,3150,1,0
292,184,3400,1,0
148,184,3650,1,0
116,184,3775,1,0
84,184,3900,1,0
80,264,4150,5,0
148,264,4400,1,0
180,264,4525,1,0
212,264,4650,1,0
280,264,4900,1,0
280,336,5400,1,0
212,336,5650,1,0
144,336,5900,1,0
72,336,6150,1,0
72,264,6400,1,0
72,192,6650,1,0
120,192,6775,1,0
168,192,6900,1,0
268,192,7150,1,0
368,192,7400,1,0
424,64,7650,5,0
324,68,7900,1,0
124,68,8400,1,0
124,212,8650,1,0
124,140,8900,1,0
224,140,9150,1,0
124,140,9400,1,0
196,208,9650,1,0
232,244,9775,1,0
272,276,9900,1,0
372,276,10150,1,0
272,276,10400,1,0
224,276,10525,1,0
176,276,10650,5,0
76,276,10900,1,0
76,176,11150,1,0
228,176,11400,1,0
152,176,11650,1,0
76,176,11900,1,0
76,128,12025,1,0
76,80,12150,1,0
176,80,12400,1,0
276,80,12650,1,0
228,80,12775,1,0
176,80,12900,1,0
76,80,13150,5,0
152,144,13400,1,0
76,212,13650,1,0
72,312,13900,2,0,B|176:312,1,86.25
220,312,14400,2,0,B|328:312,1,76.6666666666667
452,312,15150,1,0
352,312,15400,1,0
352,212,15650,1,0
352,160,15775,1,0
352,112,15900,1,0
252,112,16150,1,0
164,164,16400,5,0
120,188,16525,1,0
76,212,16650,1,0
164,256,16900,1,0
76,108,17400,1,0
176,108,17650,1,0
392,268,18150,1,0
292,268,18400,1,0
392,268,18650,1,0
344,268,18775,1,0
292,268,18900,1,0
392,268,19150,1,0
292,268,19400,1,0
192,268,19650,5,0
92,268,19900,1,0
96,68,20400,2,0,B|96:180,1,86.25
196,196,21150,1,0
96,200,21400,1,0
96,68,21650,1,0
96,120,21775,1,0
96,168,21900,1,0
196,168,22150,1,0
196,68,22400,1,0
244,68,22525,1,0
292,68,22650,1,0
392,68,22900,1,0
396,268,23400,5,0
296,268,23650,1,0
196,268,23900,1,0
196,220,24025,1,0
196,172,24150,1,0
296,172,24400,1,0
396,168,24650,1,0
396,216,24775,1,0
396,268,24900,1,0
464,144,25087,2,0,B|464:76,3,50
272,44,26027,1,0
72,44,26402,1,0
72,112,26589,1,0
72,180,26777,1,0
72,244,27152,1,0
140,244,27339,1,0
208,244,27527,1,0
208,340,27902,1,0
140,344,28089,1,0
72,344,28277,1,0
168,344,28652,5,0
236,344,28839,1,0
304,344,29027,1,0
388,340,29402,1,0
388,272,29589,1,0
388,204,29777,1,0
240,64,30152,1,0
392,64,30339,1,0
240,64,30527,1,0
316,64,30714,1,0
164,64,30902,1,0
100,136,31089,5,0
100,208,31277,1,0
100,284,31464,1,0
200,288,31652,1,0
400,288,32027,1,0
200,288,32402,1,0
268,288,32589,1,0
336,288,32777,1,0
404,288,32964,1,0
352,332,33152,5,0
284,336,33339,1,0
216,336,33527,1,0
148,336,33714,1,0
128,288,33902,2,0,B|128:204,4,57.5
252,220,34652,1,0
280,220,34745,1,0
308,220,34839,1,0
336,220,34933,1,0
364,220,35027,1,0
208,292,35402,5,0
236,292,35495,1,0
264,292,35589,1,0
292,292,35683,1,0
320,292,35777,1,0
424,284,36152,1,0
424,192,36339,1,0
424,100,36527,1,0
332,100,36714,1,0
124,192,36902,5,0
240,192,37089,1,0
356,192,37277,1,0
472,192,37464,1,0
380,324,37652,2,0,B|88:324,2,230
384,208,38777,1,0
384,180,38870,1,0
384,152,38964,1,0
384,124,39058,1,0
384,96,39152,2,0,B|244:96,1,115
268,208,39527,2,0,B|400:208,1,115
392,332,39902,5,0
364,332,39995,1,0
336,332,40089,1,0
308,332,40183,1,0
280,332,40277,2,0,B|152:332,1,115
164,276,40652,2,0,B|160:40,1,230
160,144,41402,1,0
244,224,41589,1,0
200,188,41777,1,0
288,264,41964,1,0
376,208,42152,1,0
296,132,42339,1,0
336,176,42527,1,0
260,100,42714,1,0
360,52,42902,2,0,B|416:52|468:144,1,115
424,304,43277,2,0,B|368:304|316:212,1,115
52,320,43652,5,0
240,320,44027,1,0
324,176,44402,2,0,B|108:120|40:356,1,345
116,320,45152,1,0
180,272,45339,1,0
248,228,45527,1,0
312,180,45714,1,0
224,180,45902,1,0
288,228,46089,1,0
356,272,46277,1,0
420,320,46464,1,0
308,320,46652,1,0
428,320,47027,1,0
312,320,47402,2,0,B|476:320,1,115
176,320,47777,2,0,B|12:320,1,115
292,204,48152,2,0,B|460:204,1,115
176,204,48527,2,0,B|12:204,1,115
448,100,48902,2,0,B|328:48|208:136|72:80,1,345
448,44,51152,5,0
288,48,51808,1,0
264,48,51902,1,0
240,48,51995,1,0
184,48,52183,2,0,B|24:48,1,153.333333333333
76,212,53308,5,0
76,188,53402,1,0
76,164,53495,1,0
132,164,53683,2,0,B|308:164,1,153.333333333333
396,160,54808,5,0
396,184,54902,1,0
396,208,54995,1,0
396,256,55183,2,0,B|208:256,1,153.333333333333
244,256,55558,1,0
244,256,55652,1,0
28,336,57152,5,0
80,244,57714,1,0
104,244,57808,1,0
128,244,57902,1,0
152,244,57995,1,0
176,244,58089,1,0
200,244,58183,1,0
212,244,58370,2,0,B|308:244,2,76.6666666666667
372,164,59402,6,0,B|372:80,5,76.6666666666667
372,87,60152,2,0,B|268:88,2,76.6666666666667
295,87,60527,2,0,B|216:88,2,76.6666666666667
218,87,60902,2,0,B|132:88,2,76.6666666666667
141,87,61277,2,0,B|76:88,3,57.5
84,87,61652,2,0,B|84:200,3,76.6666666666667
248,64,62402,6,0,B|372:64,1,115
476,40,63152,1,2
464,40,63245,1,2
452,40,63339,1,2
440,40,63433,1,2
428,40,63527,1,2
416,40,63620,1,2
404,40,63714,1,2
392,40,63808,1,2
380,40,63902,2,2,B|332:40,3,28.75
340,40,64277,1,2
328,40,64370,1,2
316,40,64464,1,2
304,40,64558,1,2
292,40,64652,1,2
280,40,64745,1,2
268,40,64839,1,2
256,40,64933,1,2
244,40,65027,2,2,B|196:40,3,28.75
204,40,65402,1,2
192,40,65495,1,2
180,40,65589,1,2
168,40,65683,1,2
156,40,65777,1,2
144,40,65870,1,2
132,40,65964,1,2
120,40,66058,1,2
108,40,66152,6,2,B|64:40,3,28.75
68,40,66527,1,2
56,40,66620,1,2
44,40,66714,1,2
32,40,66808,1,2
32,52,66902,2,2,B|32:96,3,28.75
32,92,67277,1,2
44,92,67370,1,2
56,92,67464,1,2
68,92,67558,1,2
80,92,67652,1,2
92,92,67745,1,2
104,92,67839,1,2
116,92,67933,1,2
128,92,68027,1,2
140,92,68120,1,2
152,92,68214,1,2
164,92,68308,1,2
176,92,68402,2,2,B|224:92,3,28.75
216,92,68777,1,2
228,92,68870,1,2
240,92,68964,1,2
252,92,69058,1,2
264,92,69152,6,2,B|308:92,3,28.75
304,92,69527,1,2
316,92,69620,1,2
328,92,69714,1,2
340,92,69808,1,2
352,92,69902,1,2
364,92,69995,1,2
376,92,70089,1,2
388,92,70183,1,2
400,92,70277,2,2,B|440:92,3,28.75
440,92,70652,1,2
452,92,70745,1,2
464,92,70839,1,2
472,100,70933,1,2
476,112,71027,2,2,B|476:160,3,28.75
476,152,71402,1,2
464,152,71495,1,2
452,152,71589,1,2
440,152,71683,1,2
428,152,71777,1,2
416,152,71870,1,2
404,152,71964,1,2
392,152,72058,1,2
380,152,72152,6,2,B|332:152,3,28.75
340,152,72527,1,2
328,152,72620,1,2
316,152,72714,1,2
304,152,72808,1,2
292,152,72902,1,2
280,152,72995,1,2
268,152,73089,1,2
256,152,73183,1,2
244,152,73277,2,2,B|196:152,3,28.75
204,152,73652,1,2
192,152,73745,1,2
180,152,73839,1,2
168,152,73933,1,2
156,152,74027,2,2,B|120:152,3,28.75
116,152,74402,2,2,B|72:152,3,28.75
76,152,74777,1,2
64,152,74870,1,2
52,152,74964,1,2
40,156,75058,5,2
40,168,75152,2,2,B|40:216,3,28.75
40,208,75527,2,2,B|84:208,3,28.75
80,208,75902,1,2
92,208,75995,1,2
104,208,76089,1,2
116,208,76183,1,2
128,208,76277,1,2
140,208,76370,1,2
152,208,76464,1,2
164,208,76558,1,2
176,208,76652,2,2,B|216:208,3,28.75
216,208,77027,1,2
228,208,77120,1,2
240,208,77214,1,2
252,208,77308,1,2
264,208,77402,1,2
276,208,77495,1,2
288,208,77589,1,2
300,208,77683,1,2
312,208,77777,2,2,B|352:208,3,28.75
352,208,78152,5,2
364,208,78245,1,2
376,208,78339,1,2
388,208,78433,1,2
400,208,78527,1,2
412,208,78620,1,2
424,208,78714,1,2
436,208,78808,1,2
448,212,78902,2,2,B|484:232,3,28.75
472,236,79277,2,2,B|448:280,3,28.75
452,272,79652,1,2
440,272,79745,1,2
428,272,79839,1,2
416,272,79933,1,2
404,272,80027,1,2
392,272,80120,1,2
380,272,80214,1,2
368,272,80308,1,2
356,272,80402,1,2
344,272,80495,1,2
332,272,80589,1,2
320,272,80683,1,2
308,272,80777,1,2
296,272,80870,1,2
284,272,80964,1,2
272,272,81058,1,2
260,272,81152,6,2,B|220:272,3,28.75
220,272,81527,1,2
208,272,81620,1,2
196,272,81714,1,2
184,272,81808,1,2
172,272,81902,1,2
160,272,81995,1,2
148,272,82089,1,2
136,272,82183,1,2
124,272,82277,2,2,B|80:272,3,28.75
84,272,82652,1,2
72,272,82745,1,2
60,272,82839,1,2
48,276,82933,1,2
44,288,83027,2,2,B|44:328,3,28.75
44,328,83402,1,2
56,328,83495,1,2
68,328,83589,1,2
80,328,83683,1,2
92,328,83777,1,2
104,328,83870,1,2
116,328,83964,1,2
128,328,84058,1,2
140,328,84152,6,2,B|180:328,3,28.75
180,328,84527,1,2
192,328,84620,1,2
204,328,84714,1,2
216,328,84808,1,2
228,328,84902,1,2
240,328,84995,1,2
252,328,85089,2,2,B|296:328,3,28.75
292,328,85464,1,2
304,328,85558,1,2
316,328,85652,1,2
328,328,85745,1,2
340,328,85839,1,2
352,328,85933,1,2
364,328,86027,1,2
376,328,86120,1,2
388,328,86214,1,2
400,328,86308,1,2
