osu file format v13

[General]
AudioFilename: Dark PHOENiX - .mp3
AudioLeadIn: 0
PreviewTime: -1
Countdown: 0
SampleSet: Normal
StackLeniency: 0.7
Mode: 0
LetterboxInBreaks: 1
WidescreenStoryboard: 0

[Editor]
Bookmarks: 24313,35952,59230,70779,82418,105696,117335,128975,152253,175622,198810,210449,222088,245366,257006,268645,291923
DistanceSpacing: 0.7
BeatDivisor: 4
GridSize: 8
TimelineZoom: 2.2

[Metadata]
Title:At the End of Spring
TitleUnicode:春の湊に
Artist:Dark Phoenix
ArtistUnicode:Dark Phoenix
Creator:Erodote
Version:Collab
Source:Touhou
Tags:Dark Phoenix Touhou At the End of Spring UFO
BeatmapID:397376
BeatmapSetID:163040

[Difficulty]
HPDrainRate:7
CircleSize:4
OverallDifficulty:7
ApproachRate:9
SliderMultiplier:1.9
SliderTickRate:1

[Events]
//Background and Video events
0,0,"Nazrin1.jpg",0,0
//Break Periods
2,27790,35173
//Storyboard Layer 0 (Background)
//Storyboard Layer 1 (Fail)
//Storyboard Layer 2 (Pass)
//Storyboard Layer 3 (Foreground)
//Storyboard Sound Samples
//Background Colour Transformations
3,100,41,61,231

[TimingPoints]
1038,363.72453928225,4,1,0,100,1,0

[Colours]
Combo1 : 255,255,255
Combo2 : 0,128,255
Combo3 : 192,192,192

[HitObjects]
56,72,1038,6,0,P|80:208|128:224,1,190
184,112,1766,1,0,0:0:0:0:
456,80,2130,2,0,L|376:144,1,95
328,280,2827,2,0,B|384:288|408:272|424:256|432:232|424:216,1,95
368,168,3403,5,0,0:0:0:0:
0,128,3585,1,0,0:0:0:0:
64,256,3766,1,0,0:0:0:0:
128,136,3948,2,0,B|168:88|192:72|240:64|256:72,1,142.5
296,136,4464,1,0,0:0:0:0:
312,224,4676,1,0,0:0:0:0:
408,48,4948,1,0,0:0:0:0:
472,112,5221,2,0,B|488:192|480:240|472:248,1,95
400,312,5676,5,0,0:0:0:0:
312,224,5949,1,0,0:0:0:0:
264,160,6131,2,0,P|240:112|184:104,1,95
104,328,6676,6,0,P|168:336|176:224,1,190
112,208,7222,1,0,0:0:0:0:
48,48,7585,1,0,0:0:0:0:
144,48,7767,1,0,0:0:0:0:
296,248,8313,6,0,P|336:176|256:120,1,190
176,160,9040,1,0,0:0:0:0:
112,304,9404,2,0,B|160:328|192:344|192:344|240:312|232:304|280:240,1,190
240,160,10132,6,0,L|96:24,1,190
304,160,10859,1,0,0:0:0:0:
360,120,11041,2,0,B|400:144|416:168|408:216|392:304|464:224|496:280,1,190
464,256,11586,1,0,0:0:0:0:
424,304,11768,1,0,0:0:0:0:
360,320,11950,1,0,0:0:0:0:
296,320,12132,1,0,0:0:0:0:
240,304,12314,1,0,0:0:0:0:
160,176,12678,6,0,P|256:176|256:256,2,190
104,264,13951,1,0,0:0:0:0:
200,296,14314,1,0,0:0:0:0:
264,296,14496,1,0,0:0:0:0:
360,288,14860,2,0,P|408:240|416:184,1,95
416,144,15224,5,0,0:0:0:0:
240,120,15587,2,0,B|208:80|120:128|64:40,1,190
40,160,16315,1,0,0:0:0:0:
160,232,16679,1,0,0:0:0:0:
48,304,17042,1,0,0:0:0:0:
296,312,17406,6,0,L|480:216,2,190
304,216,18497,1,0,0:0:0:0:
272,72,18861,1,0,0:0:0:0:
200,192,19225,1,0,0:0:0:0:
440,64,19588,1,0,0:0:0:0:
384,144,19952,1,0,0:0:0:0:
256,200,20316,1,0,0:0:0:0:
88,224,20680,6,0,L|64:344,3,95
88,224,21407,2,0,P|104:152|200:96,1,190
232,136,22134,2,0,P|152:200|160:280,1,190
224,280,22680,2,0,L|272:192,1,95
312,208,23044,2,0,L|368:296,1,95
432,256,23407,2,0,B|440:256|432:232|424:192|408:176|384:160|360:152,1,95
320,104,23771,1,0,0:0:0:0:
392,104,23953,1,0,0:0:0:0:
248,104,24135,1,0,0:0:0:0:
256,192,24317,12,0,27590,0:0:0:0:
256,192,35773,5,0,0:0:0:0:
256,192,35864,1,0,0:0:0:0:
256,192,35955,2,0,P|280:256|368:208,1,190,0|0,0:0|0:0,0:0:0:0:
472,208,36683,1,0,0:0:0:0:
456,32,37046,2,0,L|360:32,1,95
32,32,37774,2,0,L|32:128,1,95
224,336,38319,1,0,0:0:0:0:
328,256,38501,1,0,0:0:0:0:
400,152,38683,1,0,0:0:0:0:
72,192,38865,6,0,P|24:136|96:64,1,190
256,136,39410,1,0,0:0:0:0:
72,192,39592,2,0,P|24:136|96:64,1,190
256,136,40138,1,0,0:0:0:0:
408,64,40320,2,0,P|464:128|392:192,1,190
256,136,40865,1,0,0:0:0:0:
408,64,41047,2,0,P|464:120|392:184,1,190
104,296,41593,6,0,B|160:336|240:336|296:296,1,190
320,280,42047,1,0,0:0:0:0:
344,256,42138,2,0,B|416:200|416:128|344:64,1,190
369,91,42593,1,0,0:0:0:0:
369,91,42684,1,0,0:0:0:0:
112,24,43230,6,0,B|48:64|40:128|56:200,1,190
376,360,43957,2,0,P|432:280|424:192,1,190
320,192,44503,1,0,0:0:0:0:
360,24,44684,2,0,P|424:104|416:200,1,190
40,192,45412,2,0,P|56:296|104:368,1,190
192,368,45957,2,0,P|296:368|368:304,1,190
416,208,46503,1,0,0:0:0:0:
336,144,46685,1,0,0:0:0:0:
256,216,46867,1,0,0:0:0:0:
168,144,47049,1,0,0:0:0:0:
88,216,47231,1,0,0:0:0:0:
376,112,47594,5,0,0:0:0:0:
376,272,47958,1,0,0:0:0:0:
240,200,48322,1,0,0:0:0:0:
32,64,48867,1,0,0:0:0:0:
32,256,49231,2,0,L|32:160,1,95
168,160,49777,1,0,0:0:0:0:
224,160,49958,1,0,0:0:0:0:
280,160,50140,1,0,0:0:0:0:
432,272,50504,6,0,B|368:312|304:312|256:256,1,190
168,72,51231,2,0,B|232:32|296:32|344:88,1,190
248,280,51959,2,0,B|184:320|120:320|72:264,1,190
16,72,52686,2,0,B|80:32|144:32|192:88,1,190
272,176,53414,5,0,0:0:0:0:
272,176,53505,1,0,0:0:0:0:
272,176,53596,2,0,P|312:216|360:208,1,95
384,232,53868,1,0,0:0:0:0:
352,279,53959,2,0,P|305:312|259:296,1,95
224,296,54232,1,0,0:0:0:0:
168,288,54323,2,0,P|104:288|80:256,1,95
48,232,54596,1,0,0:0:0:0:
16,192,54687,2,0,P|8:136|40:104,1,95
56,72,54960,1,0,0:0:0:0:
96,48,55051,2,0,P|152:24|208:64,1,95
216,40,55323,1,0,0:0:0:0:
248,48,55414,1,0,0:0:0:0:
344,96,55596,5,0,0:0:0:0:
232,176,55778,1,0,0:0:0:0:
416,184,55960,1,0,0:0:0:0:
304,256,56142,1,0,0:0:0:0:
160,216,56324,2,0,P|208:192|216:224,2,95,0|0|0,0:0|0:0|0:0,0:0:0:0:
256,192,56869,12,0,58870,0:0:0:0:
80,176,59233,6,0,P|104:240|168:240,1,95
192,240,59597,1,0,0:0:0:0:
328,176,59779,2,0,L|256:200,1,71.2500027179719
432,176,60052,2,0,L|480:136,2,47.5,0|0|0,0:0|0:0|0:0,0:0:0:0:
376,216,60416,1,0,0:0:0:0:
312,232,60597,2,0,L|232:192,1,71.2500027179719
256,152,60961,2,0,L|288:80,1,71.2500027179719
240,64,61234,2,0,L|160:56,1,71.2500027179719
136,88,61507,2,0,L|80:160,1,71.2500027179719
88,208,61779,6,0,B|136:232|192:240|272:256|272:256,1,190
88,208,62325,1,0,0:0:0:0:
80,256,62507,2,0,L|80:320,1,47.5
184,312,62871,6,0,P|264:312|304:280,1,95
328,280,63234,1,0,0:0:0:0:
392,224,63416,1,0,0:0:0:0:
448,128,63598,1,0,0:0:0:0:
128,72,63962,5,0,0:0:0:0:
176,112,64235,2,0,L|176:168,1,47.5
216,184,64417,2,0,L|296:208,7,47.5
352,160,65235,1,0,0:0:0:0:
384,112,65417,1,0,0:0:0:0:
480,56,65690,5,0,0:0:0:0:
480,128,65871,2,0,P|472:176|448:192,1,47.5
432,224,66144,1,0,0:0:0:0:
368,264,66326,2,0,L|280:352,1,95
232,264,66690,2,0,L|312:352,1,95
240,336,67054,6,0,P|176:336|64:200,1,237.5
64,112,67690,1,0,0:0:0:0:
128,112,67872,2,0,L|192:24,1,95
248,40,68236,1,0,0:0:0:0:
312,40,68417,2,0,L|376:136,1,95
400,176,68781,5,0,0:0:0:0:
400,248,68963,2,0,L|312:272,4,47.5
464,208,69509,1,0,0:0:0:0:
472,128,69691,1,0,0:0:0:0:
304,192,69963,5,0,0:0:0:0:
272,216,70145,5,0,0:0:0:0:
224,216,70327,1,0,0:0:0:0:
184,200,70509,1,0,0:0:0:0:
160,168,70691,1,0,0:0:0:0:
208,128,70873,5,0,0:0:0:0:
304,128,71054,1,0,0:0:0:0:
256,232,71236,1,0,0:0:0:0:
240,128,71418,2,0,L|328:128,1,47.5
381,136,71782,1,0,0:0:0:0:
400,160,71873,1,0,0:0:0:0:
416,192,71964,1,0,0:0:0:0:
424,224,72055,1,0,0:0:0:0:
432,256,72146,1,0,0:0:0:0:
432,288,72237,2,0,L|368:320,5,47.5
360,280,72782,1,0,0:0:0:0:
336,256,72873,2,0,L|288:280,6,47.5
72,328,73691,2,0,B|32:280|16:232|32:200|64:168,1,142.5
64,128,74146,5,0,0:0:0:0:
64,128,74237,1,0,0:0:0:0:
320,120,74510,2,0,L|232:216,1,95
192,120,74874,2,0,L|280:224,1,95
253,192,75237,1,0,0:0:0:0:
64,264,75419,1,0,0:0:0:0:
64,264,75601,2,0,B|96:296|136:280|160:248,1,95
192,272,75874,1,0,0:0:0:0:
264,272,76044,1,0,0:0:0:0:
296,272,76137,1,0,0:0:0:0:
328,272,76226,1,0,0:0:0:0:
360,272,76311,1,0,0:0:0:0:
392,272,76396,1,0,0:0:0:0:
440,120,76692,5,0,0:0:0:0:
440,120,76874,1,0,0:0:0:0:
440,120,77056,1,0,0:0:0:0:
328,80,77238,1,0,0:0:0:0:
328,80,77329,1,0,0:0:0:0:
184,72,77511,2,0,L|128:72,1,47.5
72,72,77783,1,0,0:0:0:0:
96,176,77960,5,0,0:0:0:0:
200,296,78138,1,0,0:0:0:0:
288,176,78320,1,0,0:0:0:0:
376,296,78503,1,0,0:0:0:0:
432,112,78688,1,0,0:0:0:0:
240,208,78862,1,0,0:0:0:0:
320,64,79041,1,0,0:0:0:0:
392,248,79224,1,0,0:0:0:0:
232,112,79404,1,0,0:0:0:0:
440,160,79591,1,0,0:0:0:0:
256,232,79771,1,0,0:0:0:0:
360,96,79950,1,0,0:0:0:0:
304,208,80135,1,0,0:0:0:0:
304,208,80321,1,0,0:0:0:0:
176,208,80502,1,0,0:0:0:0:
176,208,80684,1,0,0:0:0:0:
64,72,80875,2,0,P|16:128|48:160,1,95
392,72,81229,2,0,P|440:128|408:160,1,95
256,192,81602,5,0,0:0:0:0:
256,192,81784,1,0,0:0:0:0:
256,192,82148,1,0,0:0:0:0:
256,192,82512,1,0,0:0:0:0:
