osu file format v5

[General]
AudioFilename: Dark Phoenix - A Tiny, Tiny, Clever Commander.mp3
AudioLeadIn: 949
PreviewTime: -1
Countdown: 0
SampleSet: Normal
StackLeniency: 0.7
Mode: 0
LetterboxInBreaks: 1
EditorBookmarks: 41560,42760,44360,67960,68960,129160,129560
EditorDistanceSpacing: 0.899999976158142

[Metadata]
Title:A Tiny, Tiny, Clever Commander
Artist:Dark Phoenix
Creator:Zero Eiyuu
Version:Normal
Source:Dark Phoenix Touhou
Tags:Touhou Zun Nazrin

[Difficulty]
HPDrainRate:3
CircleSize:4
OverallDifficulty:2
SliderMultiplier:1.4
SliderTickRate:1

[Events]
//Background and Video events
0,0,"36436 animal_ears basket mouse nazrin tail.jpg"
//Break Periods
2,30560,39310
2,48960,53710
2,71760,79910
2,92960,99310
//Storyboard Layer 0 (Background)
//Storyboard Layer 1 (Failing)
//Storyboard Layer 2 (Passing)
//Storyboard Layer 3 (Foreground)
//Storyboard Sound Samples
//Background Colour Transformations
3,100,163,162,255

[TimingPoints]
21160,400,4,1,0,79,1,0

[HitObjects]
192,288,21160,1,0
256,352,21560,1,0
320,288,21760,2,0,B|416:192,1,70
384,224,22360,1,0
448,160,22760,1,0
512,96,23160,2,0,B|384:32,1,140
320,32,23960,1,0
224,32,24360,1,0
128,32,24760,1,0
32,32,25160,1,0
32,128,25560,1,0
32,224,25960,5,0
128,224,26360,1,0
128,320,26560,1,0
32,320,26760,1,0
64,352,27160,6,0,B|128:320|192:384|224:320|192:320,1,140
256,288,27960,1,0
288,256,28160,1,0
320,288,28360,1,0
384,352,28760,5,0
416,320,28960,1,0
448,288,29160,1,0
480,256,29360,1,0
448,224,29560,2,0,B|288:224,2,140,8|0|8
256,192,40360,5,0
256,352,40760,2,0,B|352:352,2,70
416,288,41560,2,0,L|480:256|416:224|480:192|416:160|480:128|416:96,1,420
128,32,43160,5,0
96,96,43360,1,0
128,160,43560,1,0
224,160,43960,2,8,B|288:128|352:160|320:224|320:224,1,140
320,288,44760,2,8,B|352:352|384:320,1,70
448,320,45160,2,8,B|448:160,1,140
416,128,45760,1,0
480,96,45960,1,0
416,64,46160,1,0
480,32,46360,2,8,B|320:32,1,140
256,192,47360,5,0
256,192,47560,1,0
256,192,47760,12,4,48760
160,224,54560,5,0
192,224,54760,1,0
224,224,54960,1,0
256,224,55160,1,0
288,224,55360,1,0
320,224,55560,1,0
352,224,55760,1,0
352,192,55960,1,0
352,160,56160,1,0
320,160,56360,1,0
256,160,56560,2,0,B|224:160,6,23.3333333333333
128,224,57160,5,0
64,320,57560,2,8,B|160:320,1,70
224,320,57960,2,8,B|378:320,1,140
448,320,58760,2,8,B|448:224,1,140
448,180,59360,2,0,B|448:96,1,70
480,64,59960,1,0
416,64,60160,1,0
372,5,60360,2,0,B|211:37|275:101,1,140
256,128,61160,1,8
256,160,61360,1,8
256,192,61560,1,8
256,320,61960,5,0
320,320,62360,1,0
256,320,62560,1,0
192,320,62760,1,0
256,160,63160,1,12
320,32,63560,2,0,B|160:32,1,140
256,32,64160,1,0
320,32,64360,1,0
256,96,64760,1,0
256,128,64960,5,0
256,160,65160,5,0
256,192,65360,5,0
256,224,65560,5,4
352,320,65960,2,0,B|512:320,1,140
480,352,66760,5,0
480,320,67160,2,0,L|480:224,2,70
512,256,67960,2,8,L|448:224|512:192|448:160|512:128|448:96,1,350
448,64,69160,6,8,L|256:64,1,140
308,64,69760,2,8,L|224:64,1,70
224,64,70360,2,8,L|50:64,2,140
288,64,71360,1,8
352,64,71560,1,8
352,224,80960,5,0
352,192,81160,1,0
352,160,81360,1,0
352,128,81560,1,0
288,128,81760,1,0
224,128,81960,1,0
160,128,82160,1,0
160,160,82360,1,0
160,192,82560,1,0
160,224,82760,1,0
256,224,82960,6,0,L|256:288,5,35
224,256,83560,2,8,L|128:256,2,70
288,256,84160,2,8,L|384:256,5,70
416,256,85360,2,8,L|416:160,5,70
416,160,86560,6,8,L|416:64|416:96,1,70
416,64,86960,2,8,B|352:32,1,70
320,32,87360,2,8,L|224:32,1,70
224,32,87760,2,8,L|128:32,1,70
128,64,88160,2,8,L|64:128,1,70
64,160,88560,2,8,L|64:256,1,70
64,256,88960,2,8,L|128:320,1,70
160,320,89360,2,8,L|224:352,1,70
256,352,89760,2,8,L|352:320,1,70
320,288,90160,2,8,L|288:224,1,70
256,224,90560,2,8,L|160:192,1,70
160,192,90960,2,8,L|160:96,1,70
160,96,91360,2,8,L|224:64,1,70
256,64,91760,2,4,L|320:96|96:288|128:288,1,350,4|4
256,192,100360,12,0,109960
32,32,111160,6,0,L|320:32,1,280
480,352,112360,2,0,L|32:352,1,420
480,32,114760,2,0,L|32:32,1,420
32,256,117160,6,0,B|352:192|384:0,1,420
224,0,119160,2,0,B|64:32|192:128|160:96,1,140
96,96,120760,6,0,B|160:256|320:320,1,280
320,0,121960,6,0,B|608:96|384:224|256:192,1,420
256,192,123360,12,6,124360
256,192,124360,12,6,125560
256,192,125560,12,6,126760
256,192,126760,12,6,127960
256,192,127960,12,6,129160
