osu file format v5

[General]
AudioFilename: Dark Phoenix - A Tiny, Tiny, Clever Commander.mp3
AudioLeadIn: 949
PreviewTime: -1
Countdown: 0
SampleSet: Soft
StackLeniency: 0.7
Mode: 0
LetterboxInBreaks: 1
EditorBookmarks: 81160,102760,119560,120760,121560,121960,123160,124360,125560,126760,127960,128760,129160,129560,148360,154760,157960,158360,158760,160760,161160,161560,192160
EditorDistanceSpacing: 0.800000011920929

[Metadata]
Title:A Tiny, Tiny, Clever Commander
Artist:Dark Phoenix
Creator:Zero Eiyuu
Version:Hard
Source:Dark Phoenix
Tags:Touhou Zun Nazrin A Tiny Clever Commander

[Difficulty]
HPDrainRate:8
CircleSize:5
OverallDifficulty:6
SliderMultiplier:1.4
SliderTickRate:1

[Events]
//Background and Video events
0,0,"36436 animal_ears basket mouse nazrin tail.jpg"
//Break Periods
2,40160,48910
2,75360,80110
2,92160,101710
2,138560,147310
//Storyboard Layer 0 (Background)
//Storyboard Layer 1 (Failing)
//Storyboard Layer 2 (Passing)
//Storyboard Layer 3 (Foreground)
//Storyboard Sound Samples
//Background Colour Transformations
3,100,163,162,255

[TimingPoints]
20760,400,4,2,0,100,1,0

[HitObjects]
256,192,20760,1,0
256,192,20860,1,0
256,192,20960,1,0
256,192,21060,1,0
256,192,21160,1,0
416,192,21560,1,0
256,64,21760,1,0
96,192,21960,6,0,B|256:192,2,140
146,243,23160,1,0
215,298,23360,1,0
283,349,23560,1,0
369,280,23960,1,0
440,206,24160,1,0
512,128,24360,1,0
512,128,24760,2,12,B|400:16,1,140
352,64,25360,1,8
294,63,25560,1,8
256,0,25960,2,0,B|160:32|192:128,1,140
110,108,26560,1,0
32,107,26760,2,0,B|32:203|128:235,1,140
98,318,27560,2,0,B|258:318,1,140
288,320,28160,6,0,B|416:320,1,105
448,320,28760,2,0,B|448:224,1,70
448,192,29160,2,0,B|448:96,1,70
448,64,29560,6,0,B|224:-32|160:96,1,315
96,96,30760,1,0
64,160,31160,1,0
64,160,31360,1,0
64,160,31560,1,0
64,256,31960,2,8,B|128:320|192:320,1,140
256,352,32760,1,0
256,352,32960,1,0
256,352,33160,1,0
448,160,33560,1,0
448,160,33760,1,0
448,160,33960,1,0
256,0,34360,1,8
64,160,34760,1,0
64,160,34960,1,0
64,160,35160,1,0
64,160,35560,6,0,B|224:160,1,140
208,94,36160,1,0
287,98,36360,1,0
288,192,36760,6,0,B|448:192,2,140
256,192,37760,6,0,B|160:192,1,70
224,256,38360,1,8
288,320,38560,1,8
352,256,38760,1,8
416,192,38960,1,8
288,192,39160,1,8
256,192,39360,12,8,39960
32,32,49960,5,0
32,64,50360,2,8,B|32:160|32:128,1,70
32,160,50760,2,8,B|32:320,1,140
32,352,51560,1,8
480,32,52160,5,0
480,32,52360,1,0
480,64,52760,2,8,B|480:160,1,70
480,160,53160,2,8,B|480:320,1,140
480,352,53960,1,8
128,128,54560,1,0
128,128,54760,1,0
128,128,54960,1,0
128,128,55160,1,0
32,224,55360,5,0
128,320,55560,5,0
128,320,55760,1,0
128,320,55960,1,0
128,320,56160,1,0
224,320,56360,1,0
320,320,56560,1,0
320,320,56660,1,0
320,320,56760,1,0
320,320,56860,1,0
320,320,56960,1,0
320,320,57060,1,0
320,352,57226,2,8,B|448:320|416:256,1,140
416,224,57760,1,8
288,224,57960,1,8
288,96,58360,5,8
416,96,58760,1,8
416,0,59160,1,8
352,0,59360,2,8,B|288:-32|288:32,1,70
384,128,59960,1,8
320,96,60160,2,8,B|288:32|256:32,1,70
189,31,60760,2,8,B|29:31,1,140
49,32,61360,1,8
49,32,61560,1,8
64,96,61960,2,0,B|0:160|64:224,3,140
64,320,63560,5,0
160,320,63960,1,0
224,320,64160,1,0
288,320,64360,1,0
352,320,64760,2,0,B|448:320,4,70
256,192,65960,12,0,66360
256,64,66760,5,0
160,128,67160,1,8
160,128,67360,1,8
160,128,67560,1,8
64,192,67960,5,0
160,224,68160,1,0
64,256,68360,1,0
160,288,68560,1,0
256,320,68760,1,0
352,352,68960,1,0
448,320,69160,1,0
448,224,69560,5,8
448,128,69760,1,8
448,32,69960,1,8
320,128,70360,5,0
192,128,70760,1,0
192,288,71160,1,8
256,256,71360,1,8
320,224,71560,1,8
288,128,71960,2,0,B|192:128,4,70
384,128,73160,2,2,B|288:224|96:128,1,280
160,96,74360,5,8
193,76,74460,1,8
226,64,74560,1,8
260,63,74660,1,8
292,69,74760,1,8
352,96,75160,1,4
32,96,80960,5,0
128,96,81160,1,0
224,96,81360,1,0
320,96,81560,1,0
416,96,81760,1,0
512,96,81960,1,0
512,160,82160,1,0
512,224,82360,1,0
416,224,82560,1,0
320,224,82760,1,0
256,224,82960,5,0
224,224,83060,5,0
192,224,83160,5,0
160,224,83260,5,0
128,224,83360,5,0
96,224,83460,5,0
32,224,83560,5,8
32,160,83760,1,8
96,160,83960,1,8
160,160,84160,1,8
224,160,84360,1,8
288,160,84560,1,8
352,160,84760,1,8
416,160,84960,1,8
480,160,85160,1,8
480,64,85360,1,8
416,64,85560,1,8
352,64,85760,5,8
288,64,85960,1,8
224,64,86160,1,8
160,64,86360,1,8
96,64,86560,1,8
32,64,86760,1,8
31,146,86960,1,8
32,224,87160,1,8
128,224,87360,1,8
224,224,87560,5,8
320,224,87760,1,8
416,224,87960,1,8
512,224,88160,1,8
512,304,88360,1,8
512,384,88560,1,8
448,384,88760,1,8
384,384,88960,1,8
320,384,89160,1,8
256,384,89360,1,8
192,384,89560,1,8
128,384,89760,1,8
64,384,89960,5,8
0,384,90160,1,8
0,320,90360,1,8
0,256,90560,1,8
0,192,90760,1,8
0,128,90960,1,8
0,64,91160,1,8
0,0,91360,1,8
64,64,91560,5,8
128,128,91760,2,4,B|192:192,1,70,8|4
256,192,102760,12,0,109960
320,192,111160,6,0,B|256:192,7,35
256,192,111960,2,0,B|192:192,3,35
192,192,112360,2,0,B|128:192,8,46.6666666666667
224,192,113560,6,0,B|288:192,11,35
288,192,114760,6,0,B|352:192,11,35
256,192,115960,6,0,B|320:192,11,35
320,192,117160,2,0,B|384:192,11,35
288,192,118360,6,0,B|224:192,8,35
256,192,119226,12,0,119560
256,192,119560,12,0,120760
237,320,121560,6,8,B|173:320,3,46.6666666666667
238,320,121960,2,2,B|416:224|481:0,1,385
474,15,123093,2,8,B|422:13,8,46.6666666666667
427,13,124293,6,2,B|288:0|160:0|62:164,1,420
64,160,125560,6,8,B|115:160,11,35
96,160,126760,2,2,B|50:256|178:320|400:352,1,396.666666666667
412,352,127960,6,8,B|468:344,5,46.6666666666667
416,288,128760,5,0
416,288,128826,5,0
416,288,128893,5,0
416,288,128960,5,0
416,288,129026,5,0
416,288,129093,5,0
416,288,129160,5,4
384,224,129560,1,0
256,224,129760,1,0
128,224,129960,1,0
256,160,130360,1,8
256,160,130760,1,8
128,96,131160,1,0
256,96,131360,1,0
384,96,131560,1,0
480,32,131960,5,0
416,32,132160,1,0
352,32,132360,1,0
288,32,132760,1,0
224,32,133160,1,8
224,32,133360,1,8
224,32,133560,1,8
160,32,133960,5,0
96,32,134360,1,8
96,32,134560,1,8
96,32,134760,1,8
32,32,135160,1,0
32,32,135560,1,0
32,128,135960,5,0
32,224,136160,1,0
32,320,136360,1,0
160,288,136760,5,8
288,288,136960,1,8
416,288,137160,1,8
288,192,137360,1,8
160,96,137560,1,8
288,96,137960,1,8
416,96,138360,1,8
480,352,148460,5,0
416,352,148760,2,0,B|340:352,1,70
256,352,149160,1,2
160,352,149560,2,0,B|77:352,5,70
32,352,150760,2,2,B|32:209,1,140
32,160,151360,1,0
32,160,151560,2,2,B|32:0,2,140,2|6|2
128,256,152760,5,0
256,256,152960,1,0
384,256,153160,1,0
448,192,153560,5,0
320,96,153760,1,0
192,96,153960,1,0
64,192,154160,1,0
185,135,154360,2,2,B|266:201|325:131,1,140
160,192,155360,5,0
352,192,155560,1,0
256,192,155960,1,0
256,192,156026,1,0
256,192,156093,1,0
256,192,156160,1,0
256,192,156226,1,0
256,192,156293,1,0
256,192,156360,1,0
256,32,156760,5,0
196,32,157960,2,4,C|256:0|319:41,2,140
256,96,159160,6,10,B|256:256,1,140
128,192,160160,1,0
384,192,160360,1,0
320,320,160760,2,4,C|262:353|192:312,2,140
320,320,161960,1,8
192,160,162560,5,8
256,96,162760,1,8
320,160,162960,1,8
256,224,163160,1,8
160,160,163360,5,8
256,64,163560,1,8
352,160,163760,1,8
256,256,163960,1,8
192,160,164160,5,8
256,96,164360,1,8
320,160,164560,1,0
320,160,164626,1,8
320,160,164693,1,8
320,160,164760,1,8
320,160,164826,1,8
320,160,164893,1,8
320,160,164960,1,8
320,160,165026,1,8
256,224,165160,1,4
128,224,165560,5,0
128,224,165760,1,0
128,224,165960,1,0
128,96,166360,6,0,B|160:96,4,23.3333333333333
128,96,166760,1,0
192,96,167160,1,0
256,96,167360,1,0
320,96,167560,1,0
384,96,167960,5,0
384,160,168160,1,0
384,224,168360,1,0
384,288,168760,2,0,B|384:320,4,23.3333333333333
384,288,169160,1,0
384,288,169360,1,0
384,288,169560,5,0
288,288,169960,2,0,B|256:288,4,23.3333333333333
288,288,170360,1,0
288,288,170560,1,0
288,288,170760,1,0
288,288,171160,6,0,B|128:288,2,140
352,288,172160,5,0
416,224,172360,1,0
384,160,172760,5,0
256,160,172960,1,0
128,160,173160,1,0
256,160,173360,1,0
256,192,173560,12,0,173960
256,192,173960,12,0,174360
480,160,174760,5,0
32,160,175160,1,0
96,160,175360,1,0
160,160,175560,1,0
480,160,175960,5,0
416,160,176160,1,0
352,160,176360,1,0
288,160,176560,1,0
224,160,176760,1,0
288,160,176960,1,0
352,160,177160,2,2,B|416:192|416:288,1,140
384,352,177760,5,0
288,352,177960,1,0
192,352,178360,2,2,B|128:320|128:224,1,140
128,160,179160,1,0
256,256,179360,1,0
384,160,179560,1,0
256,64,179960,5,0
256,64,180160,1,0
256,64,180360,1,0
256,64,180560,1,0
256,64,180760,2,10,B|256:224,1,140
256,352,181826,5,0
256,352,182026,1,0
256,224,182360,5,0
256,192,182426,1,0
256,160,182493,1,0
256,128,182560,1,0
256,96,182626,1,0
256,64,182693,1,0
256,32,182760,6,2,B|177:38|118:80,1,140
256,192,183260,12,12,184360
256,352,184760,5,0
256,288,184960,1,0
256,224,185160,1,0
32,160,185560,5,8
480,160,185960,5,8
256,160,186626,5,8
256,160,186826,1,8
192,160,187160,2,0,B|275:159|256:160,2,70
288,160,187960,6,0,B|448:160,1,140
384,96,188960,1,8
320,32,189160,1,8
192,32,189360,1,8
128,96,189560,1,8
96,160,189760,5,8
128,224,189960,1,8
192,288,190160,1,8
320,288,190360,1,8
384,224,190560,1,8
416,160,190760,1,8
192,160,190960,5,8
224,192,191060,1,8
256,192,191160,1,8
288,192,191260,1,8
320,160,191360,1,8
288,128,191460,1,8
256,128,191560,1,12
