osu file format v8

[General]
AudioFilename: Dark PHOENiX.mp3
AudioLeadIn: 971
PreviewTime: 63666
Countdown: 1
SampleSet: Normal
StackLeniency: 0.7
Mode: 0
LetterboxInBreaks: 1

[Editor]
Bookmarks: 32249,48249,51249,83583
DistanceSpacing: 0.8
BeatDivisor: 4
GridSize: 8

[Metadata]
Title:The Gensokyo the Gods Loved
Artist:Dark PHOENiX
Creator:Patchouli
Version:Lunatic
Source:Touhou
Tags:mikanagision,chiru1007

[Difficulty]
HPDrainRate:4
CircleSize:4
OverallDifficulty:7
ApproachRate:7
SliderMultiplier:1.79999990463257
SliderTickRate:1

[Events]
//Background and Video events
0,0,"Lunatic BG.jpg"
//Break Periods
2,42783,47349
2,96116,100683
//Storyboard Layer 0 (Background)
//Storyboard Layer 1 (Fail)
//Storyboard Layer 2 (Pass)
//Storyboard Layer 3 (Foreground)
//Storyboard Sound Samples
//Background Colour Transformations
3,100,0,255,255

[TimingPoints]
250,333.333333333333,4,1,0,70,1,0
7083,-100,4,1,0,60,0,0
10916,-100,4,1,0,70,0,0
62916,-100,4,1,0,100,0,0
63249,-100,4,1,0,100,0,0
63583,-100,4,1,0,100,0,0
63749,-100,4,1,0,70,0,0
64249,-100,4,1,0,70,0,1
73583,-100,4,1,0,80,0,1
73916,-100,4,1,0,90,0,1
74250,-100,4,1,0,100,0,1
74416,-100,4,1,0,70,0,1
85416,-100,4,1,0,60,0,0
96250,-200,4,2,0,70,0,0
105583,-100,4,1,0,70,0,0
106916,-100,4,1,0,50,0,1
107249,-100,4,1,0,60,0,1
107583,-100,4,1,0,70,0,1
107916,-100,4,1,0,80,0,1
108249,-100,4,1,0,75,0,1
108583,-100,4,1,0,70,0,1
108916,-100,4,1,0,66,0,1
109249,-100,4,1,0,60,0,1
109583,-100,4,1,0,70,0,1
127749,-100,4,1,0,80,0,1
127833,-100,4,1,0,90,0,1
127916,-100,4,1,0,100,0,0

[Colours]
Combo1 : 30,35,255
Combo2 : 9,255,224
Combo3 : 40,213,255
Combo4 : 0,145,251
Combo5 : 83,91,255

[HitObjects]
256,320,1583,1,4
256,56,2916,2,4,B|256:176,1,89.9999952316283
256,144,3416,1,4
32,240,4249,6,0,B|120:176|216:248,1,179.999990463257
336,320,4916,2,0,B|120:320,1,179.999990463257
416,280,5583,5,0
416,192,5749,1,0
416,168,5833,1,0
416,144,5916,1,0
416,56,6083,1,0
328,56,6249,2,0,B|328:240,2,179.999978542327
256,192,7583,5,0
256,192,8249,5,0
192,320,8583,1,0
96,216,8916,2,0,B|32:264|48:320,2,89.9999952316285
176,136,9583,6,0,B|48:136|48:8,1,180
136,40,10083,1,0
216,40,10249,1,0
296,40,10416,2,0,B|360:40|392:40,2,90
328,128,10916,5,0
416,176,11083,1,0
368,264,11249,1,8
280,216,11416,1,0
232,128,11583,5,0
144,176,11750,1,0
192,264,11916,1,8
280,216,12083,1,0
392,176,12249,6,2,B|328:176|304:128,1,90,2|0
384,16,12583,2,2,B|416:72|368:128,1,90,10|0
248,104,12916,2,0,B|280:56|336:56,2,90,0|0|8
168,56,13416,1,0
120,128,13583,6,0,B|80:96|80:48,1,90
24,120,13916,1,8
64,200,14083,1,0
128,264,14249,2,0,B|176:296|232:256,1,89.9999952316285
480,192,14583,2,0,B|432:160|392:192,1,89.9999952316285,8|0
344,256,14916,2,0,B|400:336,1,89.9999952316285
272,200,15249,2,0,B|216:120,1,89.9999952316285,8|0
368,48,15583,1,0
368,80,15666,1,0
368,112,15749,1,0
368,144,15833,1,0
368,184,15916,1,8
328,328,16249,6,2,B|160:248,1,179.999990463257,2|10
208,160,16749,1,0
112,160,16916,2,0,B|160:128|160:72,2,90,0|0|8
256,344,17583,5,0
464,192,17916,1,8
256,40,18249,1,0
48,192,18583,1,8
72,88,18916,6,0,B|120:88|168:88|168:120|168:152|216:152|272:152,1,180,0|8
344,136,19416,2,0,B|424:72,1,89.9999952316285
392,256,19749,2,0,B|280:256,1,89.9999952316285,0|8
192,232,20083,1,0
152,320,20249,6,0,B|280:320,1,89.9999952316285
96,240,20583,2,0,B|96:160|168:144,1,89.9999952316285,8|0
64,328,20916,1,0
152,320,21083,1,0
96,240,21249,1,8
328,224,21583,6,0,B|264:320,1,89.9999952316285
416,152,21916,2,0,B|456:208|424:264,2,89.9999952316285,8|0|0
376,56,22416,2,2,B|152:56,1,180
123,255,22916,6,0,B|75:287|75:343,2,90,0|0|8
203,231,23416,2,0,B|251:263|299:231,2,90
144,176,23916,2,0,B|144:120|96:88,1,90,8|0
224,48,24249,5,0
296,96,24416,1,0
368,48,24583,1,8
432,104,24749,1,0
424,200,24915,5,0
408,232,24999,1,0
384,256,25082,2,0,B|328:312|216:312,1,179.999990463257,8|0
184,224,25583,1,0
120,288,25749,2,0,B|80:336|16:336,1,89.9999952316285,0|8
184,224,26083,2,0,B|240:192|288:216,2,89.9999952316285
112,160,26583,2,0,B|72:120|96:72,1,89.9999952316285,8|0
192,56,26916,6,0,B|240:104|304:88,1,89.9999952316285
360,128,27249,1,8
384,104,27333,1,0
408,72,27416,1,0
416,224,27583,1,0
416,224,27749,2,0,L|304:224|248:144,1,179.999990463257
88,112,28249,6,0,L|136:32|248:32,1,179.999990463257,0|8
288,104,28749,2,0,L|176:104|136:176,1,179.999990463257
48,184,29249,1,8
48,184,29333,1,0
48,184,29416,1,0
104,264,29583,6,0,B|144:344,1,89.9999952316285
208,216,29916,2,0,B|296:312,1,89.9999952316285,8|0
304,144,30249,2,0,B|408:208,1,89.9999952316285
376,48,30583,2,0,B|496:80,1,89.9999952316285,8|0
448,272,30916,6,0,B|328:240|296:296|272:352,1,179.999990463257,0|8
368,304,31416,2,0,B|304:224|240:160,1,179.999990463257
208,248,31916,2,0,B|200:320|144:344,1,89.9999952316285,8|0
104,248,32249,5,0
104,152,32416,1,0
200,128,32583,2,0,B|264:32,1,89.9999952316285,8|0
320,144,32916,2,0,B|264:232,1,89.9999952316285
232,312,33249,1,8
136,320,33416,1,0
120,312,33499,1,0
104,304,33583,2,0,B|40:224|64:128,1,180,0|8
104,56,34083,1,0
128,64,34166,1,0
152,72,34249,2,0,B|264:72,2,90,0|0|8
152,72,34749,1,0
168,160,34916,6,0,B|72:160,1,90
168,248,35249,2,0,B|264:248,1,90,8|0
352,160,35583,2,0,B|224:160,1,90
360,248,35916,2,0,B|456:248,1,90,8|0
456,152,36249,5,0
400,72,36416,2,0,B|400:24,2,45,0|0|8
304,72,36749,2,0,B|304:16,2,45
208,72,37083,2,0,B|208:16,2,45,0|0|8
48,240,37583,6,0,B|48:120,1,90,2|0
216,152,37916,2,0,B|328:152,1,90,10|0
480,144,38249,2,0,B|480:264,1,90,2|0
304,232,38582,2,0,B|192:232,1,90,10|0
136,144,38916,5,2
208,72,39083,1,0
304,72,39249,1,10
384,144,39416,1,0
384,240,39583,1,2
304,304,39750,1,0
208,304,39916,1,10
136,240,40083,1,0
256,192,40249,12,12,42583
64,192,48249,6,0,B|216:304,1,179.999990463257,0|8
232,304,48666,1,0
256,304,48749,1,0
304,208,48916,2,0,B|368:256|352:312,1,89.9999952316285
208,208,49249,2,0,B|160:144|208:88,1,89.9999952316285,8|0
392,48,49583,6,0,B|296:112,1,89.9999952316285
120,48,49916,2,0,B|216:112,1,89.9999952316285,8|0
480,136,50249,6,0,B|384:200,1,89.9999952316285
32,136,50583,2,0,B|128:200,1,89.9999952316285,8|0
184,232,50916,5,0
328,232,51083,1,0
184,232,51249,1,8
328,232,51416,1,0
328,320,51583,6,0,B|280:320|256:272,1,89.9999952316285
408,280,51916,2,0,B|440:232|400:176,1,89.9999952316285,8|0
352,136,52249,2,0,B|392:96,1,44.9999976158143
320,112,52416,2,0,B|352:64,1,44.9999976158143
280,96,52583,2,0,B|296:48,1,44.9999976158143,8|0
240,88,52749,2,0,B|240:24,1,44.9999976158143
200,96,52916,2,0,B|184:40,4,44.9999976158143,0|0|0|0|8
88,72,53583,6,0,B|88:256,1,179.999990463257,0|8
176,256,54083,2,0,B|176:304|120:336,1,89.9999952316285
240,184,54416,2,0,B|288:152|336:184,1,89.9999952316285,0|8
152,168,54749,2,0,B|96:136|96:72,1,89.9999952316285
184,40,55083,1,0
216,56,55166,1,0
248,72,55249,2,0,B|344:112|376:240,1,179.999990463257,8|0
416,280,55749,2,0,B|384:328|320:320,2,89.9999952316285,0|8|0
456,192,56249,6,0,B|456:80,1,89.9999952316285
256,32,56583,2,0,B|152:32,1,89.9999952316285,8|0
56,192,56916,2,0,B|56:288,1,89.9999952316285
256,352,57249,2,0,B|352:352,1,89.9999952316285,8|0
168,280,57583,5,0
320,216,57749,1,0
320,216,57833,1,0
320,216,57916,1,8
168,144,58083,1,0
320,80,58249,1,0
168,16,58416,2,0,B|64:16,2,89.9999952316285,0|8|0
216,88,58916,6,0,B|272:56|256:-7,1,89.9999952316285
264,248,59249,2,0,B|208:280|224:343,1,89.9999952316285,8|0
312,120,59583,2,0,B|424:120,1,89.9999952316285
192,184,59916,2,0,B|80:184,1,89.9999952316285,8|0
392,64,60249,6,0,B|440:96|440:144|440:192|392:224,1,179.999990463257,0|8
376,240,60666,1,0
352,264,60749,1,0
320,280,60833,1,0
288,288,60916,1,0
192,288,61083,2,0,B|72:288,2,89.9999952316285,0|8|0
248,200,61583,6,0,B|344:128,1,89.9999952316285
184,128,61916,2,0,B|136:160|152:224,2,89.9999952316285,8|0|0
280,112,62416,2,0,B|336:144|336:192,1,89.9999952316285,0|8
312,264,62749,1,0
256,336,62916,5,4
432,72,63249,1,4
80,72,63583,1,4
256,192,63749,6,8,B|256:256,4,45
256,88,64249,6,0,B|368:88|432:184,1,179.999990463257,0|8
352,224,64749,1,0
440,256,64916,2,0,L|440:368,2,89.9999952316285,0|0|8
440,152,65416,2,0,L|440:64,1,89.9999952316285
352,72,65749,5,0
264,128,65916,2,0,B|160:72,1,89.9999952316285,8|0
96,56,66249,1,0
72,88,66333,1,0
64,120,66416,1,0
64,160,66499,1,0
72,192,66583,2,0,B|80:272|112:296,1,89.9999952316285,8|0
200,320,66916,6,0,B|304:272|408:344,1,179.999990463257,0|8
280,192,67416,1,0
376,56,67583,2,0,B|272:104|168:32,1,179.999990463257,0|8
152,120,68083,2,0,B|104:88|120:32,2,89.9999952316285
184,144,68499,1,0
224,160,68583,2,0,B|352:160,1,89.9999952316285,8|0
384,232,68916,2,0,B|344:304|272:256,1,89.9999952316285
456,168,69249,1,8
456,136,69333,1,0
456,104,69416,1,0
352,144,69583,6,0,B|384:96|352:48,1,89.9999952316285,0|0
272,96,69916,2,0,B|240:48|192:48,1,89.9999952316285,8|0
192,136,70249,2,0,B|144:136|112:184,1,89.9999952316285
200,224,70583,2,0,B|168:272|200:320,1,89.9999952316285,8|0
280,272,70916,6,0,B|392:216,1,89.9999952316285
421,299,71249,2,0,B|341:211,1,89.9999952316285,8|0
456,176,71583,1,0
440,144,71666,1,0
416,112,71749,1,0
392,88,71833,1,0
360,72,71916,1,8
272,64,72083,1,0
48,104,72250,6,2,B|80:56|136:56,1,90,2|0
128,224,72583,2,2,B|80:224|48:176,1,90,10|0
192,96,72916,2,2,B|224:144|192:192,1,90,2|0
120,144,73249,5,8
120,144,73333,1,0
120,144,73416,1,0
256,48,73583,5,4
80,312,73916,1,4
432,312,74250,1,4
256,192,74416,6,8,B|256:128,4,45
200,256,74916,6,0,B|96:208,1,89.9999952316285
32,176,75249,2,0,B|128:104,1,89.9999952316285,8|0
200,136,75583,1,0
224,112,75666,1,0
256,96,75749,2,0,B|304:64|368:104,2,89.9999952316285,0|8|0
104,160,76249,6,0,B|32:88,1,89.9999952316285
200,208,76583,2,0,B|296:208,1,89.9999952316285,8|0
320,208,76833,1,0
352,208,76916,1,0
448,208,77083,2,0,B|448:96,2,89.9999952316285,0|8|0
416,312,77583,6,0,B|296:312,1,89.9999952316285
192,312,77916,2,0,B|264:312,2,44.9999976158143,8|0|0
96,216,78249,2,0,B|224:216,1,89.9999952316285
320,216,78583,2,0,B|272:216,2,44.9999976158143,8|0|0
416,120,78916,5,0
320,56,79083,1,0
192,56,79249,1,8
96,120,79416,1,0
192,56,79583,1,0
320,56,79749,1,0
416,120,79916,1,8
424,232,80083,1,0
408,264,80166,1,0
384,288,80249,6,0,B|280:352|184:320,1,179.999990463257,0|8
144,256,80749,2,0,B|48:256,2,89.9999952316285
232,208,81249,2,0,B|200:160|144:160,1,89.9999952316285,8|0
80,120,81583,6,0,B|112:72|168:72,1,89.9999952316285
248,72,81916,2,0,B|352:72,1,89.9999952316285,8|0
248,72,82249,1,0
152,72,82416,1,0
64,32,82583,2,0,B|64:144,1,89.9999952316285,8|0
64,240,82916,6,2,B|144:320|232:320|312:280,1,269.999985694885,2|0
448,144,83583,2,2,B|368:64|280:64|200:104,1,269.999985694885,2|0
176,192,84249,6,0,B|120:192,4,44.9999976158143,0|0|0|0|8
256,192,84749,1,0
336,192,84916,2,0,B|384:192,4,44.9999976158143,0|0|0|0|8
248,288,85416,5,0
280,312,85499,1,0
312,320,85583,2,0,B|368:344|432:312|480:264|480:240,1,180,2|8
472,176,86083,2,0,B|448:80|320:64,1,180,2|0
72,160,86583,6,0,B|168:224,1,89.9999952316285,8|0
328,152,86916,2,0,B|248:96,1,89.9999952316285
160,40,87249,1,8
160,72,87333,1,0
160,104,87416,1,0
160,136,87499,1,0
160,176,87583,1,0
168,272,87749,6,0,B|72:272,2,89.9999952316285,0|8|0
344,272,88249,2,0,B|440:272,2,89.9999952316285,0|0|8
256,192,88749,12,4,90249
440,88,90916,6,0,B|240:88,1,180,2|8
80,88,91416,2,0,B|304:88,1,179.999990463257,2|0
260,88,91916,1,8
256,192,92083,1,0
352,192,92249,6,0,B|448:192,1,89.9999952316285
160,192,92583,2,0,B|40:192,1,89.9999952316285,8|0
304,272,92916,2,0,B|360:360,1,89.9999952316285
208,272,93249,2,0,B|144:368,1,89.9999952316285,8|0
96,272,93583,6,0,B|32:176|112:72,1,179.999990463257,0|8
192,104,94083,2,0,B|152:192|216:288,1,179.999990463257
360,192,94583,1,8
320,192,94666,1,0
288,192,94749,1,0
256,192,94916,12,4,95916
56,80,101583,6,2,B|168:88|224:168,1,179.999990463257
136,208,102583,1,2
224,248,102916,2,2,B|224:352,2,89.9999952316285
312,208,103916,1,2
408,240,104249,2,2,B|408:304,2,44.9999976158143
408,192,104749,2,2,B|408:144|360:112|320:88,1,134.999992847443
64,48,105583,5,4
64,120,105916,1,4
64,192,106250,1,4
64,256,106583,2,4,B|64:312,2,44.9999976158143
152,336,106916,6,0,B|240:336,2,59.9999968210857
184,272,107249,2,0,B|264:272,2,59.9999968210857,8|0|0
216,208,107583,2,0,B|288:208,2,59.9999968210857
248,144,107916,2,0,B|312:144,2,59.9999968210857,8|0|0
176,144,108249,6,0,B|128:144,2,44.9999976158143
200,56,108583,2,0,B|144:56,2,44.9999976158143,8|0|0
312,56,108916,2,0,B|368:56,2,44.9999976158143
336,144,109249,2,0,B|392:144,2,44.9999976158143,8|0|0
256,200,109583,2,0,B|256:256,1,44.9999976158143
256,296,109749,6,0,B|352:352|456:304|496:216|408:112,1,359.999980926514
320,64,110583,1,8
232,120,110749,1,0
144,64,110916,1,0
232,120,111083,1,0
144,184,111249,1,8
232,120,111416,1,0
320,184,111583,1,0
232,120,111749,2,2,B|232:320,1,179.999990463257
352,296,112249,6,0,B|464:296,2,89.9999952316285,0|0|8
160,296,112749,2,0,B|48:296,2,89.9999952316285
352,192,113249,2,0,B|480:192,2,89.9999952316285,8|0|0
160,192,113749,2,0,B|32:192,2,89.9999952316285,0|8|0
256,48,114249,6,0,B|256:144,1,89.9999952316285,2|0
256,336,114583,2,0,B|256:208,1,89.9999952316285,10|0
344,248,114916,6,0,B|344:192|280:160,1,89.9999952316285
304,88,115249,2,0,B|256:88|224:136,2,89.9999952316285,8|0|0
376,40,115749,6,0,B|408:88|376:144,1,89.9999952316285,0|8
448,192,116083,1,0
256,40,116416,1,4
256,40,116583,1,12
200,280,116916,1,4
200,280,117083,1,4
112,32,117583,5,0
128,136,117749,2,0,B|176:136|208:80,2,89.9999952316285,0|8|0
56,232,118249,1,0
56,232,118416,1,0
88,336,118583,1,8
88,336,118749,1,0
184,304,118916,6,0,L|368:304,1,179.999990463257,0|8
424,224,119416,2,0,B|472:264|456:320,2,89.9999952316285
344,136,119916,2,0,B|320:232,1,89.9999952316285,8|0
272,48,120249,5,0
240,64,120333,1,0
208,80,120416,2,0,B|104:136,1,89.9999952316285,0|8
128,216,120749,2,0,B|80:216|48:168,2,89.9999952316285
224,200,121249,2,0,B|272:200|304:248,1,89.9999952316285,8|0
256,336,121583,5,0
48,192,121916,1,8
256,48,122249,1,0
464,192,122583,1,8
376,192,122749,5,0
288,192,122916,2,0,B|288:248|360:280,1,89.9999952316285
336,112,123249,2,0,B|416:40,1,89.9999952316285,8|0
240,112,123583,2,0,B|192:144|192:200,1,89.9999952316285
192,216,123833,1,0
192,248,123916,1,8
192,288,123999,1,0
192,320,124083,1,0
368,288,124249,6,0,B|432:312,2,44.9999976158143
400,176,124583,2,0,B|464:160,2,44.9999976158143,8|0|0
336,80,124916,2,0,B|368:24,2,44.9999976158143
224,48,125249,2,0,B|208:0,2,44.9999976158143,8|0|0
104,96,125582,6,0,B|144:208,1,89.9999952316285,0|0
192,336,125916,2,0,B|232:240,1,89.9999952316285,8|0
320,96,126249,2,0,B|280:208,1,89.9999952316285,0|0
408,336,126583,2,0,B|368:240,1,89.9999952316285,8|0
373,252,126916,1,0
312,152,127083,6,8,B|312:88,4,44.9999976158143,0|0|8|0|0
256,248,127749,1,4
256,280,127833,1,4
256,312,127916,1,4
