osu file format v9

[General]
AudioFilename: Taketorihisyou.mp3
AudioLeadIn: 1004
PreviewTime: 78462
Countdown: 0
SampleSet: Normal
StackLeniency: 0.7
Mode: 0
LetterboxInBreaks: 1

[Editor]
Bookmarks: 18785,48785,58785,78785,98785,116285,136285,166285,186285,203785
DistanceSpacing: 0.8
BeatDivisor: 4
GridSize: 8

[Metadata]
Title:Taketori Hishou
Artist:Dark PHOENiX
Creator:Patchouli
Version:Normal
Source:Touhou
Tags:houraisan kaguya Lunatic Princess Holoaz samiljul

[Difficulty]
HPDrainRate:4
CircleSize:3
OverallDifficulty:4
ApproachRate:4
SliderMultiplier:1
SliderTickRate:1

[Events]
//Background and Video events
0,0,"NormalBG.png"
//Break Periods
2,22725,27455
2,88360,97455
//Storyboard Layer 0 (Background)
//Storyboard Layer 1 (Fail)
//Storyboard Layer 2 (Pass)
//Storyboard Layer 3 (Foreground)
//Storyboard Sound Samples
//Background Colour Transformations
3,100,163,162,255

[TimingPoints]
1275,312.5,4,2,0,60,1,0
18775,-100,4,1,0,50,0,0
38696,-100,4,2,0,50,0,0
48384,-100,4,1,0,50,0,0
77837,-100,4,2,0,60,0,0
78775,-100,4,1,0,50,0,0

[Colours]
Combo1 : 255,128,255
Combo2 : 255,98,98
Combo3 : 255,255,89
Combo4 : 0,255,128
Combo5 : 53,53,255

[HitObjects]
80,192,1275,2,0,B|144:96|208:96,1,150,0|2
432,192,2525,2,0,B|368:96|304:96,1,150,0|2
256,288,3775,2,0,B|256:80,3,200,0|2|0|2
432,192,6275,6,0,B|368:288|304:288,1,150,0|2
80,192,7525,2,0,B|144:288|208:288,1,150,0|2
256,96,8775,1,0
384,192,9400,1,2
256,288,10025,1,0
128,192,10650,1,2
336,80,11275,6,0,B|400:176,3,100,0|2|2|2
400,240,12525,2,0,B|384:264|368:288|352:312|336:336,3,100,0|2|2|2
264,320,13775,5,0
112,280,14400,1,2
264,232,15025,1,0
184,232,15337,1,2
112,192,15650,1,2
224,64,16275,6,0,B|336:64|400:160,3,200,2|2|2|4
256,192,18775,12,0,22525
80,48,28775,6,0,B|80:168,3,100,0|0|0|8
160,152,30025,2,0,B|160:32,3,100,0|0|0|8
240,56,31275,2,0,B|336:120|336:224,1,200,0|8
272,328,32525,2,0,B|176:264|176:160,1,200,0|8
328,104,33775,5,0
328,104,34087,1,8
392,56,34400,1,0
392,56,34712,1,8
456,104,35025,1,0
456,104,35337,1,8
392,152,35650,1,0
392,152,35962,1,8
392,232,36275,2,8,B|344:312|224:328|96:320|72:240|48:200,1,400
48,128,37837,2,8,B|80:80|152:80,3,100,8|0|8|4
200,224,39400,5,8
240,72,40025,1,0
312,96,40337,1,0
384,128,40650,1,8
248,216,41275,6,0,B|312:312|416:304,2,200,0|0|2
248,216,42837,1,2
248,216,43150,1,10
136,328,43775,6,0,B|64:248|96:120|152:72|248:48|320:80,1,400,0|0
416,176,45650,1,8
304,288,46275,2,0,B|256:336|200:336,2,100,0|0|8
152,240,47525,2,0,B|224:240|288:200|320:136,1,200,2|10
376,96,48462,6,0,B|424:48,2,50,0|0|4
424,208,49243,2,0,B|360:224|320:192,1,100,8|0
256,160,49868,2,0,B|160:128|88:168,1,150,0|0
109,158,50650,1,12
256,96,51275,6,0,B|368:96|432:192,1,200,2|8
256,96,52525,2,0,B|144:96|80:192,1,200,2|8
200,296,53775,5,0
280,312,54087,1,0
256,232,54400,2,0,B|296:128|408:104,2,200,8|0|8
232,136,56275,6,0,B|112:136,1,100,0|8
200,216,56900,2,0,B|200:336,1,100,0|8
280,240,57525,2,0,B|400:240,1,100,0|8
312,160,58150,2,0,B|312:40,1,100,0|8
392,176,58775,6,0,B|368:296|256:360|184:344|152:336,1,300,6|8
96,320,60025,2,0,B|16:224|48:112|120:72|160:72,1,300,2|8
224,48,61275,2,0,B|360:24|456:88|472:184,1,300,2|8
440,240,62525,2,0,B|424:304|376:328,3,100,2|8|8|8
307,318,63775,6,0,B|253:171|297:18,1,300,2|8
220,25,65025,2,0,B|180:185|236:329,1,300,2|8
155,319,66275,2,0,B|107:167|147:15,1,300,2|8
64,24,67525,2,0,B|48:144,1,100,2|8
56,200,68150,2,0,B|72:312,1,100,8|8
152,312,68775,6,0,B|304:352|416:304|456:216,1,300,2|0
456,176,70025,2,0,B|360:24|176:48,1,300,2|0
128,64,71275,2,0,B|16:208|144:352,1,300,2|0
200,296,72525,1,2
280,296,72837,1,8
320,224,73150,1,0
240,224,73462,1,8
256,192,73775,12,0,75650
256,192,76275,5,4
256,152,76431,2,4,B|256:32,4,100
256,192,77837,1,4
48,72,78775,6,0,B|160:112|256:64,1,200,2|8
464,72,80025,2,0,B|352:112|256:64,1,200,2|8
192,96,80962,1,0
120,136,81275,6,0,B|32:208,1,100,0|8
120,216,81900,2,0,B|120:328,1,100,0|8
184,272,82525,2,0,B|264:336,1,100,0|8
264,256,83150,2,0,B|384:224,1,100,0|8
416,168,83775,6,0,B|368:88|232:80,3,200,2|8|2|8
88,112,86275,5,0
112,272,86900,1,8
184,128,87525,1,0
208,288,88150,1,8
256,128,98775,6,0,B|344:168|416:152|456:128,1,200,2|8
352,256,100025,2,0,B|264:216|192:232|152:256,1,200,2|8
88,288,100962,1,0
72,208,101275,2,0,B|56:144|96:96,3,100,0|8|0|8
144,56,102525,2,0,B|200:32|256:56,1,100,0|8
304,104,103150,2,0,B|352:152|352:208,1,100,0|8
272,176,103775,6,0,B|192:128|104:152|64:192,1,200,2|8
82,177,104712,1,4
80,256,105025,2,0,B|168:312|288:272,1,200,2|8
272,276,105962,1,4
328,224,106275,5,0
328,64,106900,1,8
464,144,107525,2,0,B|344:144,3,100,2|8|0|8
280,144,108775,6,0,B|176:152|96:72,2,200,2|8|8
352,184,110337,1,0
280,224,110650,1,8
352,264,110962,1,0
280,304,111275,2,8,B|200:328|112:312|88:272,1,200,10|0
32,128,112525,2,0,B|112:104|200:120|224:160,1,200,8|0
72,208,113775,5,10
152,224,114087,2,0,B|224:256|264:256,2,100
128,144,115025,2,0,B|224:64|320:112,1,200,8|4
408,240,116275,6,0,B|440:144|400:88|360:56,1,200,2|8
288,40,117212,1,0
208,56,117525,2,0,B|144:64|112:112,1,100,0|8
120,184,118150,2,0,B|176:192|208:136,1,100,0|8
280,120,118775,6,0,B|328:192|312:296|296:320,2,200,2|8|0
344,72,120337,2,0,B|400:56|456:80,2,100,8|0|8
264,96,121275,5,0
208,152,121587,1,0
152,96,121900,2,0,B|96:88|32:144,1,100,8|0
56,208,122525,1,0
56,208,122837,1,8
112,272,123150,1,0
112,272,123462,1,8
184,312,123775,6,0,B|288:336|392:304,1,200,2|8
344,240,124712,1,0
360,160,125025,2,0,B|432:192|416:256,2,100,0|8|0
360,160,125962,1,8
312,96,126275,6,0,B|248:56|136:64|120:80,1,200,2|8
119,80,127212,1,0
64,136,127525,2,0,B|32:184|48:240,1,100,0|8
128,232,128150,2,0,B|184:256|224:296,2,100,0|8|2
56,200,129087,5,0
120,152,129400,1,8
192,192,129712,2,0,B|240:224|256:272,1,100,0|8
328,304,130337,6,0,B|376:352,2,50
392,256,130962,1,8
384,176,131275,6,0,B|360:112|328:96,3,100,2|0|8|0
248,72,132525,2,0,B|160:56|128:80,1,100,2|8
88,120,133150,2,0,B|40:176|56:224,1,100,0|8
256,192,133775,12,4,135650
