osu file format v9

[General]
AudioFilename: Taketorihisyou.mp3
AudioLeadIn: 1004
PreviewTime: 78462
Countdown: 0
SampleSet: Soft
StackLeniency: 0.7
Mode: 0
LetterboxInBreaks: 1

[Editor]
Bookmarks: 18785,38775,47525,69009,73462,78775,98775,115962,146275
DistanceSpacing: 1.1
BeatDivisor: 4
GridSize: 8

[Metadata]
Title:Taketori Hishou
Artist:Dark PHOENiX
Creator:Patchouli
Version:Hard
Source:Touhou
Tags:houraisan kaguya Lunatic Princess Holoaz samiljul

[Difficulty]
HPDrainRate:5
CircleSize:4
OverallDifficulty:5
ApproachRate:5
SliderMultiplier:1.4
SliderTickRate:1

[Events]
//Background and Video events
0,0,"HoloticBG.jpg"
//Break Periods
//Storyboard Layer 0 (Background)
//Storyboard Layer 1 (Fail)
//Storyboard Layer 2 (Pass)
//Storyboard Layer 3 (Foreground)
//Storyboard Sound Samples
//Background Colour Transformations
3,100,163,162,255

[TimingPoints]
1275,312.5,4,2,0,70,1,0

[Colours]
Combo1 : 243,163,12
Combo2 : 128,255,128
Combo3 : 128,128,192
Combo4 : 255,128,128

[HitObjects]
88,280,1275,1,0
120,216,1431,1,0
160,272,1587,1,0
192,208,1743,1,0
424,104,2525,5,0
392,168,2681,1,0
352,112,2837,1,0
320,176,2993,1,0
248,328,3775,6,0,B|160:312|136:216,1,140
264,56,4400,2,0,B|352:72|376:168,1,140
368,280,5025,6,0,B|432:320,2,70
144,104,5650,2,0,B|80:64,2,70
288,104,6275,6,0,B|344:160|312:240,1,140
314,232,6743,1,0
224,280,7525,6,0,B|168:224|200:144,1,140
197,151,7993,1,0
256,48,8775,6,0,B|256:272,1,210
312,296,9400,1,0
440,248,9712,1,0
312,192,10025,6,0,B|248:144,2,70
176,216,10650,2,0,B|96:232,2,70
256,104,11275,6,0,B|312:64|408:64|464:112,2,210
288,168,12525,2,0,B|368:160|440:192|464:288,2,210
256,304,13775,6,0,B|184:272|192:176,1,140
176,48,14400,2,0,B|104:80|112:176,1,140
88,296,15025,2,0,B|136:240,1,70
133,242,15337,1,0
256,312,15650,2,0,B|336:312,1,70
326,312,15962,1,0
256,192,16275,12,0,17525
256,192,17837,5,0
256,192,18150,5,0
256,192,18462,5,0
256,192,18775,5,0
48,120,23775,2,0,B|112:72|184:112,1,140
232,168,24243,1,0
288,224,24400,2,0,B|352:264|448:208,2,140
179,109,25337,1,0
128,256,25650,2,0,B|112:328|16:352,1,140
184,336,26275,6,0,B|336:336,1,140
376,280,26743,1,0
328,216,26900,2,0,B|168:216,2,140
384,160,27681,6,0,B|384:80|272:48,2,140
360,232,28462,1,0
360,232,28540,1,0
360,232,28618,1,0
360,232,28696,1,0
360,232,28775,6,0,B|328:312|224:296,1,140
96,304,29400,2,0,B|120:232|216:224,1,140
256,80,30025,1,0
208,144,30181,2,0,B|64:144,2,140
256,208,30962,1,0
384,120,31275,6,0,B|440:184|392:264,1,140
264,320,31900,2,0,B|336:288|328:192,1,140
280,144,32368,1,0
208,112,32525,2,0,B|136:96|80:152,2,140
344,176,33462,1,0
