osu file format v9

[General]
AudioFilename: Taketori Hishou.mp3
AudioLeadIn: 2000
PreviewTime: 58396
Countdown: 0
SampleSet: Soft
StackLeniency: 0.6
Mode: 0
LetterboxInBreaks: 0

[Editor]
Bookmarks: 38471,108471
DistanceSpacing: 1
BeatDivisor: 4
GridSize: 8

[Metadata]
Title:Taketori Hishou
Artist:Dark PHOENiX
Creator:KanbeKotori
Version:Extra
Source:Touhou
Tags:Houraisan Kaguya Lunatic Princess Numbers 596108

[Difficulty]
HPDrainRate:7
CircleSize:4
OverallDifficulty:7
ApproachRate:9
SliderMultiplier:2
SliderTickRate:1

[Events]
//Background and Video events
0,0,"bg.jpg"
//Break Periods
2,98675,107875
//Storyboard Layer 0 (Background)
//Storyboard Layer 1 (Fail)
//Storyboard Layer 2 (Pass)
//Storyboard Layer 3 (Foreground)
//Storyboard Sound Samples
//Background Colour Transformations
3,100,163,162,255

[TimingPoints]
662,312.5,4,2,1,51,1,0
18474,-100,4,1,1,51,0,0
38474,-100,4,2,1,51,0,0
42224,-200,4,2,1,51,0,0
42849,-100,4,2,1,51,0,0
48474,-100,4,1,1,51,0,0
77771,-100,4,1,1,45,0,0
77849,-100,4,1,1,40,0,0
77927,-100,4,1,1,35,0,0
78005,-100,4,1,1,30,0,0
78083,-100,4,1,1,25,0,0
78162,-100,4,1,1,20,0,0
78240,-100,4,1,1,15,0,0
78318,-100,4,1,1,50,0,0
115349,-100,4,2,1,51,0,0
115974,-100,4,1,1,51,0,0
165271,-100,4,1,1,44,0,0
165349,-100,4,1,1,40,0,0
165427,-100,4,1,1,34,0,0
165505,-100,4,1,1,30,0,0
165583,-100,4,1,1,25,0,0
165662,-100,4,1,1,20,0,0
165740,-100,4,1,1,14,0,0
165818,-100,4,1,1,50,0,0
223474,-100,4,1,1,0,0,0
225740,-100,4,1,1,50,0,0

[Colours]
Combo1 : 207,211,216
Combo2 : 196,201,3
Combo3 : 200,96,126
Combo4 : 48,65,180

[HitObjects]
80,64,975,2,0,B|72:120|128:176,1,100,2|0
176,88,1287,2,0,B|214:124|206:180,1,100,2|0
144,240,1600,1,2
200,312,1756,1,0
288,312,1912,1,2
344,240,2068,1,0
336,152,2225,6,0,B|448:152,1,100,2|0
416,64,2537,2,0,B|304:64,1,100,2|0
336,152,2850,1,2
248,128,3006,1,0
264,216,3162,1,2
176,192,3318,1,0
104,136,3475,6,0,B|64:184|104:256,1,100,2|0
168,280,3787,1,2
168,280,3943,1,0
176,192,4100,2,0,B|240:192|272:288,1,100,2|0
304,328,4412,5,2
304,328,4568,2,0,B|432:328|440:176,1,200
400,120,5037,1,2
121,103,5350,1,2
246,352,5662,1,2
80,288,5975,6,0,B|40:240|72:160,1,100,2|0
96,112,6287,1,2
168,56,6443,1,0
256,48,6600,1,2
344,72,6756,1,0
256,48,6912,1,2
344,72,7068,1,0
280,136,7225,6,0,B|216:160|208:240,1,100,2|0
160,272,7537,1,2
248,288,7693,1,0
320,240,7850,5,2
472,192,8006,1,0
344,96,8162,1,2
320,240,8318,1,0
232,216,8475,6,0,B|168:224|136:160,1,100,2|0
216,128,8787,1,2
216,128,8943,1,0
200,40,9100,2,0,B|264:32|296:96,1,100,2|0
216,128,9412,5,2
216,128,9568,2,0,B|96:152|72:272,1,200
144,312,10037,2,0,B|256:312,1,100,2|0
336,216,10350,2,0,B|200:216,1,100,2|0
328,312,10662,2,0,B|448:312,1,100,2|0
472,232,10975,6,0,B|480:168|432:128,1,100,2|0
360,120,11287,2,0,B|352:184|400:224,1,100,2|0
408,304,11600,1,2
320,312,11756,1,0
304,224,11912,1,2
392,208,12068,1,0
336,136,12225,6,0,L|296:112|224:112,1,100,2|0
184,184,12537,2,0,L|224:208|296:208,1,100,2|0
336,136,12850,2,0,L|336:24,2,100,2|0|2
336,136,13318,1,0
352,224,13475,6,0,L|352:328,1,100,2|0
264,336,13787,2,0,L|264:224,1,100,2|0
176,224,14100,2,0,L|176:328,1,100,2|0
88,336,14412,5,2
88,336,14568,2,0,L|88:120,1,200
152,72,15037,1,2
411,161,15350,1,2
204,342,15662,1,2
96,192,15975,6,0,L|200:192,1,100,2|0
168,280,16287,2,0,L|280:280,1,100,2|0
360,280,16600,1,2
432,232,16756,1,0
360,176,16912,1,2
432,128,17068,1,0
360,72,17225,5,2
136,88,17537,1,2
152,312,17850,1,2
376,296,18162,1,0
376,112,18475,5,0
376,112,18631,1,0
136,272,19100,5,0
136,272,19256,1,0
256,192,19725,5,0
256,192,19881,2,0,L|256:64,2,100
256,192,20350,2,0,L|256:304,2,100
112,88,20975,5,0
112,88,21131,1,0
400,88,21600,5,0
400,88,21756,1,0
256,192,22225,5,0
176,232,22381,2,0,B|136:280|56:256,2,100
336,232,22850,2,0,B|376:280|456:256,2,100
224,88,23475,6,0,B|112:88,1,100
288,296,24100,6,0,B|400:296,1,100
168,136,24725,6,0,B|72:72,2,100
344,136,25193,2,0,B|440:72,2,100
256,160,25662,1,0
144,296,25975,6,0,B|32:296,1,100
368,296,26600,6,0,B|480:296,1,100
256,120,27225,6,0,B|256:8,2,100
256,264,27693,2,0,B|256:376,2,100
208,192,28162,5,0
200,192,28240,1,0
192,192,28318,1,0
184,192,28396,1,0
176,192,28475,6,0,B|64:192,1,100,0|0
96,104,28787,2,0,B|216:104,1,100,8|0
264,168,29100,1,0
256,256,29256,1,0
168,248,29412,1,8
176,160,29568,1,0
224,88,29725,6,0,B|160:88|120:24,2,100,0|0|8
312,112,30193,1,0
296,200,30350,2,0,B|264:255|299:322,2,100,0|0|8
312,112,30818,5,0
312,112,30896,1,0
312,112,30975,2,0,L|368:112|448:144,1,100
432,216,31287,2,0,L|376:216|296:184,1,100,8|0
248,176,31600,5,0
80,72,31756,1,0
72,272,31912,1,8
248,176,32068,1,0
312,112,32225,6,0,B|344:160|328:224,1,100
248,176,32537,2,0,B|235:223|267:271,1,100,8|0
352,296,32850,2,0,B|408:288|480:336,2,100
264,296,33318,5,0
256,296,33396,1,0
248,296,33475,2,0,B|136:296,1,100
120,208,33787,2,0,B|232:208,1,100,8|0
248,120,34100,2,0,B|136:120,1,100
120,32,34412,2,0,B|232:32,1,100,8|0
304,64,34725,5,0
434,77,34881,1,0
462,206,35037,1,8
348,272,35193,1,0
250,184,35350,2,0,B|200:152|128:176,2,100,0|0|8
296,264,35818,5,0
296,264,35896,1,0
296,264,35975,2,0,B|352:280|392:344,1,100
296,120,36287,2,0,B|352:104|392:40,1,100,8|0
160,192,36600,2,0,B|48:192,2,100,0|0|8
160,192,37068,1,0
248,192,37225,5,0
256,192,37303,1,0
264,192,37381,1,0
272,192,37459,1,0
280,192,37537,1,0
288,192,37615,1,0
296,192,37693,1,0
304,192,37771,1,0
312,192,37850,1,0
320,192,37928,1,0
328,192,38006,1,0
336,192,38084,1,0
344,192,38162,2,0,B|456:192,1,100
448,104,38475,6,0,B|360:32|224:72,1,200,2|0
280,152,38943,1,0
192,128,39100,2,0,B|173:240|276:337,1,200,8|0
336,248,39568,1,0
360,336,39725,2,0,B|416:360|488:344,2,100,2|0|0
336,248,40193,1,0
376,168,40350,2,0,B|336:104|256:112,1,100,8|0
232,176,40662,5,0
192,96,40818,1,0
136,168,40975,2,0,B|112:288|240:368,1,200,2|0
280,296,41443,1,0
368,320,41600,2,0,B|432:320|448:256,1,100,8|0
368,64,41912,2,0,B|432:64|448:128,1,100
392,192,42225,2,0,B|288:192,2,100,2|0|8
440,264,43006,1,0
440,264,43084,1,0
440,264,43162,2,0,B|424:320|352:336,1,100
352,240,43475,6,0,B|264:176|144:224,1,200,2|0
160,304,43943,1,0
248,320,44100,2,0,B|236:211|338:131,1,200,8|0
392,88,44568,1,0
304,64,44725,2,0,B|192:64,1,100,2|0
176,152,45037,2,0,B|280:152,1,100
304,64,45350,1,8
216,64,45506,1,0
208,64,45584,1,0
200,64,45662,2,0,B|80:64,1,100
64,144,45975,6,0,B|72:264|184:320,1,200,2|0
200,224,46443,1,0
272,168,46600,2,0,B|314:203|300:259,1,100,8|0
248,328,46912,2,0,B|294:359|342:331,1,100
416,280,47225,5,2
424,264,47303,1,2
432,248,47381,1,2
440,232,47459,1,2
448,216,47537,1,2
456,200,47615,1,2
464,184,47693,1,2
472,168,47771,1,2
480,152,47850,5,2
472,136,47928,1,2
464,120,48006,1,2
456,104,48084,1,2
448,88,48162,1,2
440,72,48240,1,2
432,56,48318,1,2
424,40,48396,1,2
416,24,48475,6,0,L|280:24,1,100
352,104,48787,2,0,L|208:104,1,100,8|0
168,72,49100,1,0
80,88,49256,1,0
96,176,49412,1,8
184,160,49568,1,0
252,104,49725,2,0,B|320:112|360:184,2,100,0|0|8
256,192,50193,1,0
260,280,50350,2,0,B|192:272|152:200,2,100,0|0|8
344,296,50818,5,0
344,296,50896,1,0
344,296,50975,2,0,B|448:240|448:128,1,200,0|8
376,88,51443,1,0
328,160,51600,2,0,B|200:160,1,100
192,240,51912,2,0,B|304:240,1,100,8|0
384,240,52225,2,0,B|448:144|408:32,2,200,0|8|0
336,320,53006,1,0
336,320,53084,1,0
336,320,53162,2,0,B|208:320,1,100,8|0
152,280,53475,6,0,L|152:176|88:80,1,200,0|8
8,120,53943,1,0
32,208,54100,2,0,L|264:208,1,200,0|8
280,136,54568,1,0
368,168,54725,2,0,L|424:168|480:144,1,100
488,240,55037,2,0,L|432:240|376:264,1,100,8|0
336,328,55350,1,0
328,328,55428,1,0
320,328,55506,1,0
312,328,55584,1,0
304,328,55662,2,0,L|168:328,1,100,8|0
168,248,55975,6,0,L|72:192,1,100
344,248,56287,2,0,L|440:192,1,100,8|0
200,176,56600,2,0,L|152:88,1,100
312,176,56912,2,0,L|360:88,1,100,8|0
256,40,57225,5,0
256,48,57303,1,0
256,56,57381,1,0
256,64,57459,1,0
256,72,57537,1,0
256,80,57615,1,0
256,88,57693,1,0
256,96,57771,1,0
256,104,57850,5,0
256,112,57928,1,0
256,120,58006,1,0
256,128,58084,1,0
256,136,58162,1,0
256,144,58240,1,0
256,152,58318,1,0
256,160,58396,1,0
256,168,58475,6,0,B|256:304,1,100
168,280,58787,2,0,B|168:168,1,100,8|0
168,88,59100,5,0
344,72,59256,1,0
456,232,59412,1,8
344,72,59568,1,0
344,72,59725,6,0,L|320:120|320:208,1,100
384,224,60037,2,0,L|408:176|408:88,1,100,8|0
344,72,60350,5,0
168,112,60506,1,0
208,288,60662,1,8
384,248,60818,1,0
336,168,60975,6,0,L|336:120|304:80,1,100
240,144,61287,2,0,L|240:192|272:232,1,100,8|0
144,160,61600,2,0,L|144:112|112:72,1,100
56,152,61912,1,8
56,152,61990,1,0
56,152,62068,2,0,L|56:352,1,200
200,296,62537,6,0,L|200:192,1,100,8|0
344,224,62850,2,0,L|344:352,1,100
496,304,63162,2,0,L|496:176,1,100,8|0
384,104,63475,6,0,B|448:104|472:24,2,100,0|0|8
256,184,63943,1,0
128,104,64100,2,0,B|64:104|40:24,2,100,0|0|8
256,184,64568,1,0
192,320,64725,6,0,B|72:320,1,100
320,320,65037,2,0,B|440:320,1,100,8|0
448,232,65350,2,0,B|336:232,1,100
64,232,65662,2,0,B|176:232,1,100,8|0
160,104,65975,6,0,B|128:56|48:40,2,100,0|0|8
160,280,66443,2,0,B|128:328|48:344,2,100
256,192,66912,1,0
264,192,66990,1,0
272,192,67068,1,0
280,192,67146,1,0
288,192,67225,6,0,B|432:192,1,100
408,104,67537,2,0,B|288:104,1,100,8|0
232,56,67850,2,0,L|232:112|192:176,1,100
136,96,68162,2,0,L|112:133|112:189,1,100,8|0
200,224,68475,5,0
344,336,68631,1,0
456,192,68787,1,8
312,80,68943,1,0
328,208,69100,5,0
184,96,69256,1,0
72,240,69412,1,8
216,352,69568,1,0
200,224,69725,6,0,L|320:224,1,100
328,136,70037,2,0,L|224:136,1,100,8|0
144,176,70350,2,0,L|264:176,1,100
272,88,70662,2,0,L|168:88,1,100,8|0
88,112,70975,6,0,B|32:80|48:0,2,100,0|0|8
136,192,71443,1,0
88,272,71600,2,0,B|32:304|48:384,2,100,0|0|8
136,192,72068,1,0
144,192,72146,1,0
152,192,72225,6,0,B|264:192,1,100
328,144,72537,2,0,B|352:192|320:264,1,100,8|0
256,288,72850,1,0
296,312,72928,1,0
344,320,73006,1,0
392,312,73084,1,0
432,288,73162,2,0,B|480:264|480:200,1,100,8|0
424,136,73475,6,0,B|424:24,1,100
424,248,73787,2,0,B|424:360,1,100,8|0
328,136,74100,2,0,B|328:24,1,100
328,248,74412,2,0,B|328:360,1,100,8|0
208,344,74725,5,0
130,269,74881,1,0
119,161,75037,1,8
179,72,75193,1,0
282,42,75350,1,0
381,86,75506,1,0
428,183,75662,1,8
402,288,75818,1,0
304,344,75975,2,0,B|184:344,1,100
84,185,76443,5,0
347,46,76756,1,0
336,343,77068,1,0
256,192,77381,5,0
256,192,77537,1,0
160,120,77693,5,0
152,136,77771,1,0
144,152,77850,1,0
136,168,77928,1,0
128,184,78006,1,0
120,200,78084,1,0
128,216,78162,1,0
136,232,78240,1,0
144,248,78318,1,0
152,264,78396,1,0
160,280,78475,6,0,B|272:280,1,100
352,296,78787,1,8
352,296,78943,1,0
416,232,79100,2,0,B|416:128,1,100
352,72,79412,1,8
352,72,79568,1,0
288,136,79725,6,0,B|176:136,1,100
160,224,80037,2,0,B|272:224,1,100,8|0
344,200,80350,5,0
304,16,80506,1,0
152,128,80662,1,8
344,200,80818,5,0
344,200,80896,1,0
344,200,80975,2,0,L|400:200|448:224,1,100
384,288,81287,2,0,L|328:288|280:264,1,100,8|0
256,184,81600,5,0
80,264,81756,1,0
104,80,81912,1,8
80,264,82068,5,0
80,264,82146,1,0
80,264,82225,2,0,L|208:264,1,100
432,264,82537,2,0,L|304:264,1,100,8|0
256,88,82850,5,0
256,96,82928,1,0
256,104,83006,1,0
256,112,83084,1,0
256,120,83162,1,8
256,128,83240,1,0
256,136,83318,1,0
256,144,83396,1,0
256,152,83475,6,0,L|256:264,1,100
168,264,83787,2,0,L|168:144,1,100,8|0
176,56,84100,5,0
336,56,84256,1,0
336,328,84412,1,8
176,328,84568,1,0
144,192,84725,6,0,B|88:200|56:288,2,100,0|0|8
256,264,85193,1,0
368,192,85350,2,0,B|424:200|456:288,2,100,0|0|8
256,88,85818,5,0
256,88,85896,1,0
256,88,85975,2,0,B|256:200,1,100
168,208,86287,2,0,B|168:96,1,100,8|0
80,88,86600,2,0,B|80:200,2,100,0|0|8
144,24,87068,1,0
168,108,87225,6,0,B|256:40|360:112,1,200,0|8
256,192,87693,1,0
344,276,87850,2,0,B|256:344|152:272,1,200,0|8
256,192,88318,1,0
256,80,88475,6,0,B|392:80,1,100
312,160,88787,2,0,B|440:160,1,100,8|0
496,200,89100,2,0,B|520:256|472:320,1,100
408,344,89412,2,0,B|384:288|432:224,1,100,8|0
328,224,89725,5,0
287,71,89881,1,0
134,112,90037,1,8
175,264,90193,1,0
328,320,90350,1,0
384,152,90506,1,0
232,96,90662,1,8
72,128,90818,5,0
72,128,90896,1,0
72,128,90975,2,0,L|72:192|104:248,1,100
240,168,91287,2,0,L|240:104|208:48,1,100,8|0
384,88,91600,2,0,L|384:152|416:208,1,100
304,312,91912,5,8
304,312,91990,1,0
304,312,92068,2,0,L|184:312,2,100
440,224,92537,5,8
432,208,92615,1,0
424,192,92693,1,0
352,48,92850,5,0
342,62,92928,1,0
332,77,93006,1,0
224,192,93162,5,8
208,192,93240,1,0
192,192,93318,1,0
176,192,93396,1,0
160,192,93475,6,0,L|112:192|32:168,1,100
56,88,93787,2,0,L|104:88|184:112,1,100,8|0
248,144,94100,5,0
432,88,94256,1,0
392,272,94412,1,8
248,144,94568,1,0
112,280,94725,6,0,B|56:288|32:360,2,100
112,104,95193,2,0,B|56:96|32:24,2,100
224,192,95662,1,0
232,192,95740,1,0
240,192,95818,1,0
248,192,95896,1,0
256,192,95975,6,0,B|384:192,1,100
408,120,96287,2,0,B|464:160|448:248,1,100,8|0
392,272,96600,2,0,B|376:328|304:328,2,100,0|0|8
320,240,97068,1,0
384,176,97225,2,0,B|304:120|176:152,1,200,0|8
120,208,97693,5,0
120,208,97771,1,0
120,208,97850,1,0
310,66,98084,1,0
337,301,98318,1,0
256,192,98475,5,0
96,56,108475,6,0,B|224:80|280:176,1,200,0|8
192,200,108943,1,0
112,152,109100,2,0,B|184:72|312:80,1,200,0|8
336,160,109568,1,0
392,88,109725,2,0,B|432:128|424:184,1,100
336,160,110037,2,0,B|328:210|368:250,1,100,8|0
320,328,110350,2,0,B|361:368|434:317,2,100,0|0|8
272,256,110818,1,0
184,240,110975,6,0,B|144:200|72:224,2,100,0|0|8
208,152,111443,2,0,B|272:64,1,100
288,160,111756,2,0,B|400:120,1,100,0|8
352,208,112068,2,0,B|472:208,1,100
408,288,112381,1,0
320,296,112537,2,0,L|280:320|208:320,1,100,8|0
128,208,112850,2,0,L|168:184|240:184,1,100
256,40,113162,2,0,L|216:64|144:64,1,100,8|0
128,144,113475,6,0,B|72:136|48:72,2,100,0|0|8
256,192,113943,1,0
384,240,114100,2,0,B|440:248|464:312,2,100,0|0|8
256,192,114568,1,0
256,192,114881,1,0
256,192,115037,1,0
88,128,115350,5,2
88,256,115506,1,2
200,88,115662,1,2
200,296,115818,1,2
256,192,115975,6,0,B|384:192,1,100
360,104,116287,2,0,B|240:104,1,100
112,144,116600,1,0
152,288,116756,1,0
296,240,116912,1,0
192,136,117068,5,0
72,224,117225,1,0
168,336,117381,1,0
312,296,117537,2,0,L|360:296|408:272,1,100
352,200,117850,2,0,L|352:64,2,100
352,200,118318,1,0
272,240,118475,6,0,L|152:240,1,100
224,168,118787,2,0,L|128:136,1,100
200,80,119100,5,0
352,64,119256,1,0
472,152,119412,1,0
352,64,119568,1,0
352,64,119646,1,0
352,64,119725,6,0,L|320:160,1,100
176,208,120037,2,0,L|208:112,1,100
104,8,120350,2,0,L|64:128,1,100
72,102,120584,1,0
72,102,120662,1,0
176,208,120818,1,0
328,216,120975,6,0,L|384:216|424:192,1,100
368,120,121287,2,0,L|312:120|272:144,1,100
224,216,121600,2,0,L|224:344,1,100
224,316,121912,1,0
80,288,122068,2,0,L|80:160,1,100
80,188,122381,1,0
184,80,122537,5,0
328,128,122693,1,0
184,176,122850,1,0
328,224,123006,1,0
184,272,123162,1,0
328,320,123318,1,0
480,272,123475,6,0,L|480:136,1,100
400,128,123787,1,0
400,128,123943,1,0
432,40,124100,2,0,L|376:40|320:72,1,100
400,128,124412,2,0,L|361:149|305:149,1,100
232,104,124725,6,0,L|168:208,1,100
112,320,125037,1,0
264,304,125193,2,0,L|376:304,1,100
464,192,125506,1,0
464,192,125584,1,0
464,192,125662,2,0,L|392:104,1,100
352,192,125975,6,0,L|240:192,1,100
232,104,126287,2,0,L|344:104,1,100
352,192,126600,1,0
304,275,126756,1,0
208,275,126912,1,0
160,192,127068,1,0
208,108,127225,1,0
304,108,127381,1,0
352,192,127537,6,0,L|408:288,1,100
208,275,127850,2,0,L|96:275,1,100
208,108,128162,2,0,L|263:12,1,100
336,72,128475,6,0,L|464:72,2,100
304,160,128943,1,0
392,192,129100,2,0,L|432:232|432:296,2,100
304,160,129568,5,0
304,160,129646,1,0
304,160,129725,2,0,L|192:160,1,100
112,72,130037,2,0,L|80:112|80:176,1,100
176,280,130350,2,0,L|232:280|288:312,1,100
270,301,130584,1,0
270,301,130662,1,0
416,272,130818,1,0
432,104,130975,6,0,L|320:64,1,100
432,280,131287,2,0,L|320:320,1,100
304,144,131600,2,0,L|176:120,1,100
304,240,131912,2,0,L|176:264,1,100
184,192,132225,2,0,L|64:192,1,100
56,104,132537,5,0
120,280,132693,1,0
224,120,132850,1,0
288,296,133006,1,0
384,136,133162,1,0
448,312,133318,1,0
392,240,133475,6,0,L|448:240|488:208,1,100
440,136,133787,2,0,L|384:136|344:168,1,100
296,240,134100,2,0,L|160:240,2,100
352,304,134568,5,0
352,304,134646,1,0
352,304,134725,2,0,L|464:256,1,100
160,304,135037,2,0,L|48:256,1,100
256,176,135350,2,0,L|256:56,2,100
256,264,135818,5,0
256,264,135896,1,0
256,264,135975,2,0,B|128:248|80:160,1,200,0|8
128,88,136443,1,0
192,152,136600,2,0,B|312:152,1,100
272,64,136912,2,0,B|384:64,1,100,8|0
416,144,137225,5,0
304,352,137537,1,8
96,240,137850,1,0
208,32,138162,1,8
384,64,138475,6,0,L|416:120|416:272,1,200,0|8
272,280,138943,1,0
272,280,139021,1,0
272,280,139100,2,0,L|240:240|240:176,1,100
88,192,139412,2,0,L|120:232|120:296,1,100,8|0
272,280,139725,2,0,L|272:64,1,200,0|8
272,80,140115,1,0
272,80,140193,1,0
120,56,140350,6,0,L|40:136,1,100
392,56,140662,2,0,L|472:136,1,100,8|0
448,280,140975,6,0,L|360:304|208:304,1,200,0|8
184,136,141600,5,0
340,157,141756,1,0
243,282,141912,1,8
64,104,142225,6,0,L|152:80|304:80,1,200,0|8
416,176,142850,5,0
189,338,143006,1,0
162,61,143162,1,8
112,232,143475,6,0,L|112:336,1,100
112,152,143787,2,0,L|112:48,1,100,8|0
200,32,144100,2,0,L|200:136,1,100
200,352,144412,2,0,L|200:248,1,100,8|0
272,192,144725,5,0
280,192,144803,1,0
288,192,144881,1,0
296,192,144959,1,0
304,192,145037,1,0
312,192,145115,1,0
320,192,145193,1,0
328,192,145271,1,0
336,192,145350,5,0
344,192,145428,1,0
352,192,145506,1,0
360,192,145584,1,0
368,192,145662,1,0
376,192,145740,1,0
384,192,145818,1,0
392,192,145896,1,0
400,192,145975,6,0,L|512:192,1,100
472,104,146287,2,0,L|360:104,1,100,8|0
288,144,146600,1,0
144,120,146756,1,0
112,264,146912,1,8
256,296,147068,5,0
256,296,147146,1,0
256,296,147225,2,0,L|304:296|352:280,1,100
368,192,147537,2,0,L|320:192|272:208,1,100,8|0
184,240,147850,1,0
264,112,148006,1,0
416,104,148162,1,8
264,112,148318,5,0
264,112,148396,1,0
264,112,148475,2,0,L|152:112,1,100
144,200,148787,2,0,L|280:200,1,100,8|0
392,176,149100,1,0
336,312,149256,1,0
244,200,149412,1,8
244,200,149568,2,0,L|352:200,2,100
196,248,150037,6,0,B|156:288|84:280,1,100,8|0
226,134,150350,2,0,B|211:79|254:21,1,100
309,217,150662,2,0,B|363:231|392:297,1,100,8|0
440,216,150975,6,0,B|440:96,1,100
352,88,151287,2,0,B|352:192,1,100,8|0
376,272,151600,1,0
136,272,151756,1,0
320,192,151912,1,8
192,192,152068,1,0
256,104,152225,6,0,B|256:0,2,100,0|0|8
256,192,152693,1,0
256,280,152850,2,0,B|256:384,2,100,0|0|8
256,192,153318,1,0
184,136,153475,5,0
256,80,153631,1,0
328,136,153787,1,8
256,80,153943,1,0
256,80,154021,1,0
256,80,154100,2,0,B|256:192,1,100
256,180,154412,2,0,B|256:296,1,100,8|0
168,304,154725,6,0,B|56:304,1,100
344,304,155037,2,0,B|456:304,1,100,8|0
168,216,155350,2,0,B|56:216,1,100
344,216,155662,2,0,B|456:216,1,100,8|0
432,128,155975,5,0
360,264,156131,1,0
224,192,156287,1,8
296,56,156443,1,0
304,144,156600,5,0
209,265,156756,1,0
88,170,156912,1,8
182,49,157068,1,0
152,136,157225,6,0,B|256:104,1,100
152,248,157537,2,0,B|256:280,1,100,8|0
272,192,157850,2,0,B|416:192,2,100,0|0|8
272,192,158318,1,0
160,80,158475,6,0,B|128:24|40:32,2,100,0|0|8
272,192,158943,1,0
160,304,159100,2,0,B|128:360|40:352,2,100,0|0|8
272,192,159568,5,0
272,192,159646,1,0
272,192,159725,2,0,B|384:192,1,100
432,128,160037,6,0,B|456:72|528:64,1,100,8|0
384,267,160350,2,0,B|420:315|391:382,1,100
287,156,160662,2,0,B|226:163|183:104,1,100,8|0
112,104,160975,6,0,L|88:152|88:216,1,100
232,232,161287,2,0,L|256:184|256:120,1,100,8|0
400,184,161600,2,0,L|376:232|376:296,2,100,0|0|8
344,48,162068,5,0
344,48,162146,1,0
344,48,162225,2,0,L|232:48,1,100
296,192,162537,2,0,L|416:192,1,100,8|0
296,304,162850,5,0
144,232,163006,1,0
216,80,163162,1,8
368,152,163318,1,0
256,192,163475,5,0
256,192,163631,1,0
104,104,163943,5,0
255,367,164256,1,0
408,104,164568,1,0
256,288,164880,6,0,B|256:184,1,100
352,120,165193,5,0
360,136,165271,1,0
368,152,165350,1,0
376,168,165428,1,0
384,184,165506,1,0
392,200,165584,1,0
384,216,165662,1,0
376,232,165740,1,0
368,248,165818,1,0
360,264,165896,1,0
352,280,165975,6,0,L|224:280,1,100
168,168,166287,2,0,L|288:168,1,100,8|0
336,48,166600,1,0
456,128,166756,1,0
328,184,166912,1,8
208,112,167068,1,0
72,80,167225,6,0,L|48:128|48:216,1,100
144,280,167537,2,0,L|168:232|168:144,1,100,8|0
296,128,167850,2,0,L|296:24,2,100,0|0|8
376,288,168318,5,0
376,288,168396,1,0
376,288,168475,2,0,L|248:288,1,100
112,200,168787,2,0,L|248:200,1,100,8|0
368,120,169100,2,0,L|408:80|480:80,2,100,0|0|8
200,48,169568,5,0
200,48,169646,1,0
200,48,169725,2,0,L|136:152,1,100
224,296,170037,2,0,L|288:192,1,100,8|0
384,64,170350,5,0
392,80,170428,1,0
400,96,170506,1,0
408,112,170584,1,0
416,128,170662,1,8
416,144,170740,1,0
416,160,170818,1,0
416,176,170896,1,0
416,192,170975,6,0,L|416:320,1,100
280,264,171287,2,0,L|280:136,1,100,8|0
200,48,171600,1,0
312,48,171756,1,0
136,128,171912,1,8
376,128,172068,1,0
256,200,172225,6,0,L|256:328,2,100,0|0|8
160,96,172693,1,0
296,80,172850,2,0,B|344:48|424:88,2,100,0|0|8
160,96,173318,5,0
160,96,173396,1,0
160,96,173475,2,0,B|160:208,1,100
272,336,173787,2,0,B|352:248,1,100,8|0
376,88,174100,2,0,B|512:136,2,100,0|0|8
200,64,174568,5,0
192,80,174646,1,0
184,96,174725,2,0,B|120:224,1,100
384,336,175037,2,0,B|448:208,1,100,8|0
368,80,175350,5,0
360,96,175428,1,0
352,112,175506,1,0
344,128,175584,1,0
336,144,175662,1,8
328,160,175740,1,0
320,176,175818,1,0
312,192,175896,1,0
304,208,175975,6,0,L|280:256|280:336,1,100
136,304,176287,2,0,L|160:256|160:176,1,100,8|0
160,72,176600,2,0,L|112:48|32:48,1,100,0|0
104,184,176912,2,0,L|152:208|232:208,1,100,8|0
280,96,177225,5,0
416,72,177381,1,0
440,208,177537,1,8
304,232,177693,1,0
280,96,177850,2,0,B|248:48|176:48,2,100,0|0|8
456,136,178318,5,0
456,136,178396,1,0
456,136,178475,2,0,B|336:136,1,100
56,136,178787,2,0,B|176:136,1,100,8|0
200,248,179100,2,0,B|72:248,1,100
312,248,179412,2,0,B|440:248,1,100,8|0
360,72,179725,5,0
184,48,179881,1,0
360,72,180037,1,8
488,200,180193,1,0
360,72,180350,5,0
352,88,180428,1,0
344,104,180506,1,0
336,120,180584,1,0
328,136,180662,1,8
320,152,180740,1,0
312,168,180818,1,0
304,184,180896,1,0
296,200,180975,6,0,B|240:312,1,100
160,184,181287,2,0,B|216:72,1,100,8|0
296,200,181600,1,0
432,192,181756,1,0
424,48,181912,1,8
288,56,182068,1,0
296,192,182225,6,0,B|352:192|384:248,2,100,0|0|8
168,240,182693,1,0
104,112,182850,2,0,B|104:56|48:24,2,100,0|0|8
168,240,183318,5,0
168,240,183396,1,0
168,240,183475,2,0,B|304:240,1,100
296,64,183787,2,0,B|176:64,1,100,8|0
344,160,184100,2,0,B|480:160,2,100,0|0|8
160,160,184568,1,0
48,328,184725,6,0,L|128:352|264:352,1,200,0|8
368,224,185193,1,0
368,224,185271,1,0
368,224,185350,2,0,L|320:200|256:200,1,100
168,48,185662,2,0,L|216:72|280:72,1,100,8|0
432,72,185975,6,0,L|464:112|464:168,1,100
384,248,186287,2,0,L|352:208|352:152,1,100,8|0
232,136,186600,1,0
112,120,186756,1,0
96,240,186912,1,8
216,256,187068,1,0
320,312,187225,6,0,B|376:336|432:304,1,100
456,200,187537,2,0,B|400:176|344:208,1,100,8|0
256,136,187850,1,0
256,248,188006,1,0
160,80,188162,1,8
160,304,188318,1,0
120,192,188475,6,0,B|8:192,2,100,0|0|8
240,192,188943,1,0
328,112,189100,2,0,B|384:104|416:48,1,100
328,272,189412,2,0,B|384:280|416:336,1,100,8|0
304,352,189725,6,0,B|184:352,1,100
104,280,190037,1,8
88,152,190193,1,0
160,32,190350,1,0
312,32,190506,1,0
416,152,190662,1,8
360,312,190818,1,0
256,256,190975,6,0,B|136:256,1,100
192,144,191287,2,0,B|336:144,1,100,8|0
392,80,191600,2,0,L|424:128|424:192,1,100
224,248,191912,2,0,L|192:200|192:136,1,100,8|0
312,160,192225,6,0,L|312:56,2,100,0|0|8
368,264,192693,1,0
248,256,192850,2,0,L|192:256|152:240,1,100
112,128,193162,2,0,L|168:128|208:144,1,100,8|0
320,96,193475,6,0,L|360:64|424:64,1,100
320,288,193787,2,0,L|360:320|424:320,1,100,8|0
256,192,194100,2,0,L|128:192,2,100,0|0|8
376,192,194568,1,0
352,72,194725,2,0,L|464:32,1,100
352,312,195037,2,0,L|464:352,1,100,8|0
376,192,195350,5,0
368,192,195428,1,0
360,192,195506,1,0
352,192,195584,1,0
344,192,195662,1,8
336,192,195740,1,0
328,192,195818,1,0
320,192,195896,1,0
312,192,195975,6,0,L|224:192|112:232,1,200,0|8
208,312,196443,1,0
208,312,196600,2,0,L|208:96,1,200,0|8
312,48,197068,1,0
344,160,197225,2,0,L|368:208|368:256,1,100
168,224,197537,2,0,L|144:176|144:128,1,100,8|0
256,168,197850,2,0,L|256:56,2,100,0|0|8
256,168,198318,1,0
296,344,198475,6,0,L|344:248,1,100
216,272,198787,2,0,L|168:176,1,100,8|0
296,176,199100,2,0,L|344:80,1,100
216,104,199412,2,0,L|168:8,1,100,8|0
288,48,199725,5,0
288,48,199803,1,0
288,48,199881,1,0
456,152,200037,5,8
456,152,200115,1,0
456,152,200193,1,0
368,288,200350,5,0
368,288,200428,1,0
368,288,200506,1,0
368,288,200584,1,0
368,288,200662,2,0,L|248:288,1,100,8|0
136,200,200975,6,0,L|152:152|208:112,1,100
376,184,201287,2,0,L|360:232|304:272,1,100,8|0
168,320,201600,5,0
189,51,201756,1,0
410,204,201912,1,8
256,192,202068,5,0
256,192,202381,5,0
256,192,202537,1,0
304,112,202850,6,0,L|416:112,1,100
208,272,203162,2,0,L|96:272,1,100
72,120,203475,5,0
72,120,203631,2,0,L|272:120,1,200
352,72,204100,1,0
440,104,204256,2,0,L|440:304,1,200
360,264,204725,1,0
280,304,204881,2,0,L|136:304|80:264,1,200
160,216,205350,2,0,L|160:104,2,100
312,128,205975,5,0
344,48,206131,2,0,L|392:96|392:256,1,200
200,128,206600,1,0
168,48,206756,2,0,L|120:96|120:256,1,200
256,328,207225,1,0
256,328,207381,2,0,L|256:128,1,200
256,128,207850,2,0,L|256:16,2,100
80,96,208475,5,0
80,96,208631,1,0
432,96,209100,5,0
432,96,209256,1,0
208,256,209725,5,0
296,256,209881,1,0
256,80,210193,5,0
296,256,210506,5,0
208,256,210662,1,0
72,144,210975,6,0,L|192:144,1,100
440,144,211600,2,0,L|320:144,1,100
256,344,212225,6,0,L|256:224,1,100
256,64,212693,5,0
256,240,213006,5,0
256,144,213162,5,0
256,144,213240,1,0
256,144,213318,1,0
256,144,213396,1,0
256,144,213475,2,0,L|256:256,1,100
168,256,213787,2,0,L|168:152,1,100,8|0
96,104,214100,1,0
104,16,214256,1,0
192,24,214412,1,8
184,112,214568,1,0
264,152,214725,6,0,B|304:192|368:176,1,100
424,120,215037,2,0,B|384:80|320:96,1,100,8|0
264,152,215350,2,0,B|264:280,2,100,0|0|8
256,64,215818,5,0
256,64,215896,1,0
256,64,215975,2,0,B|144:64,1,100
184,240,216287,2,0,B|304:240,1,100,8|0
168,136,216600,2,0,B|40:136,2,100,0|0|8
256,152,217068,1,0
344,144,217225,6,0,B|448:112,1,100
344,240,217537,2,0,B|448:272,1,100,8|0
256,96,217850,2,0,B|320:8,1,100
256,288,218162,2,0,B|320:376,1,100,8|0
360,296,218475,6,0,B|408:336|488:312,2,100,0|0|8
256,192,218943,1,0
152,88,219100,2,0,B|104:48|24:72,2,100,0|0|8
256,192,219568,1,0
312,120,219725,6,0,B|352:80|416:96,1,100
290,276,220037,2,0,B|304:331|259:378,1,100,8|0
165,179,220350,2,0,B|111:164|92:101,1,100
280,80,220662,5,0
288,80,220740,1,0
296,80,220818,1,0
304,80,220896,1,0
312,80,220975,2,0,B|432:80,1,100
200,304,221287,2,0,B|80:304,1,100,8|0
368,248,221600,2,0,B|368:368,1,100
144,136,221912,2,0,B|144:16,1,100,8|0
280,80,222225,5,0
368,216,222381,1,0
232,304,222537,1,8
144,168,222693,1,0
256,192,222850,5,0
256,192,222928,1,0
256,192,223006,1,0
256,192,223084,1,0
256,192,223162,1,0
256,192,223240,1,0
256,192,223318,1,0
256,192,223396,1,0
256,192,223475,12,0,225662
256,192,225818,5,0
256,192,225896,1,0
256,192,225975,1,0
