osu file format v14

[General]
AudioFilename: jealous.mp3
AudioLeadIn: 0
PreviewTime: 177098
Countdown: 0
SampleSet: Soft
StackLeniency: 0.7
Mode: 0
LetterboxInBreaks: 0
WidescreenStoryboard: 0

[Editor]
Bookmarks: 140080
DistanceSpacing: 0.7
BeatDivisor: 4
GridSize: 4
TimelineZoom: 2.4

[Metadata]
Title:Ryokugan no Jealousy
TitleUnicode:緑眼のジェラシー
Artist:Dark PHOENiX
ArtistUnicode:Dark PHOENiX
Creator:EvilElvis
Version:Monster with Green Eyes
Source:東方Project
Tags:Mizuhashi Parsee Green-Eyed Mapper 31 Arrow Realize
BeatmapID:836339
BeatmapSetID:382455

[Difficulty]
HPDrainRate:6.5
CircleSize:4
OverallDifficulty:9
ApproachRate:9.3
SliderMultiplier:1.7
SliderTickRate:1

[Events]
//Background and Video events
0,0,"jealousbitch.jpg",0,0
//Break Periods
//Storyboard Layer 0 (Background)
//Storyboard Layer 1 (Fail)
//Storyboard Layer 2 (Pass)
//Storyboard Layer 3 (Foreground)
//Storyboard Sound Samples

[TimingPoints]
952,275.229357798165,4,2,1,30,1,0
1915,-133.333333333333,4,2,1,30,0,0
7144,-200,4,2,1,30,0,0
7419,-133.333333333333,4,2,1,30,0,0
32878,-333.333333333333,4,2,1,40,0,0
33979,-133.333333333333,4,2,1,50,0,0
34942,-100,4,1,1,55,0,0
36181,-133.333333333333,4,1,1,55,0,0
37144,-100,4,1,1,55,0,0
67007,-200,4,1,1,55,0,0
68107,-100,4,1,1,55,0,1
70309,-133.333333333333,4,2,1,30,0,0
87098,-133.333333333333,4,2,1,50,0,0
87374,-133.333333333333,4,2,1,40,0,0
87649,-133.333333333333,4,2,1,30,0,0
87924,-100,4,1,1,55,0,0
177098,-133.333333333333,4,2,1,55,0,0
178062,-90.9090909090909,4,1,1,55,0,1
208887,-90.9090909090909,4,1,1,55,0,0
243704,-200,4,1,1,55,0,0
244254,-100,4,1,1,55,0,0
262970,-133.333333333333,4,2,1,55,0,0
263933,-90.9090909090909,4,1,1,55,0,1
294759,-90.9090909090909,4,1,1,55,0,0
313612,-200,4,1,1,55,0,0
314713,-90.9090909090909,4,1,1,55,0,1
317465,-90.9090909090909,4,2,1,5,0,0

[Colours]
Combo1 : 64,128,128
Combo2 : 0,213,106
Combo3 : 34,255,34
Combo4 : 0,128,64

[HitObjects]
94,179,952,6,0,L|65:180,1,21.25,2|0,0:0|0:0,0:0:0:0:
158,133,1227,6,0,L|161:97,1,21.25,2|0,0:0|0:0,0:0:0:0:
103,191,1502,6,0,L|74:192,1,21.25,2|0,0:0|0:0,0:0:0:0:
180,216,1777,5,2,0:0:0:0:
180,216,1915,2,0,P|176:149|179:88,1,127.500004863739,4|0,0:0|0:0,0:0:0:0:
259,71,2328,5,2,0:0:0:0:
250,36,2465,1,2,0:0:0:0:
274,63,2603,1,2,0:0:0:0:
272,42,2740,1,0,0:0:0:0:
289,64,2878,1,2,0:0:0:0:
293,49,3016,1,2,0:0:0:0:
300,67,3153,6,0,P|302:108|298:150,1,63.7500024318696,2|2,0:0|0:0,0:0:0:0:
385,189,3429,1,2,0:0:0:0:
382,109,3566,1,2,0:0:0:0:
405,182,3704,2,0,P|406:232|408:273,1,63.7500024318696,4|0,0:0|0:0,0:0:0:0:
469,305,3979,5,2,0:0:0:0:
469,305,4117,2,0,P|411:298|329:307,1,127.500004863739,4|2,0:0|0:0,0:0:0:0:
276,339,4529,1,2,0:0:0:0:
271,263,4667,1,0,0:0:0:0:
200,310,4805,5,2,0:0:0:0:
200,287,4942,1,2,0:0:0:0:
149,226,5080,5,2,0:0:0:0:
158,149,5218,1,2,0:0:0:0:
167,73,5355,1,4,0:0:0:0:
76,46,5493,6,0,L|79:71,1,15.9375006079674,2|0,0:0|0:0,0:0:0:0:
105,349,5768,6,0,L|102:333,1,15.9375006079674,2|0,0:0|0:0,0:0:0:0:
42,277,6043,5,2,0:0:0:0:
42,277,6181,1,2,0:0:0:0:
203,337,6318,6,0,P|264:333|330:337,1,127.500004863739,4|0,0:0|0:0,0:0:0:0:
400,300,6731,2,0,P|432:300|465:303,1,63.7500024318696,2|0,0:0|0:0,0:0:0:0:
506,237,7007,1,2,0:0:0:0:
397,124,7144,5,2,0:0:0:0:
376,98,7419,2,0,P|372:160|379:237,1,127.500004863739,4|0,0:0|0:0,0:0:0:0:
324,279,7832,2,0,P|284:283|252:290,1,63.7500024318696,2|0,0:0|0:0,0:0:0:0:
204,337,8107,1,2,0:0:0:0:
56,213,8245,5,2,0:0:0:0:
74,235,8520,2,0,P|132:236|213:229,1,127.500004863739,4|2,0:0|0:0,0:0:0:0:
254,176,8933,2,0,P|288:181|328:186,1,63.7500024318696,2|0,0:0|0:0,0:0:0:0:
377,235,9208,1,2,0:0:0:0:
499,164,9346,2,0,P|501:109|506:77,1,63.7500024318696,2|0,0:0|0:0,0:0:0:0:
343,33,9621,5,4,0:0:0:0:
331,53,10309,1,2,0:0:0:0:
319,77,10722,6,0,P|317:130|330:208,1,127.500004863739,4|2,0:0|0:0,0:0:0:0:
395,241,11135,1,2,0:0:0:0:
403,166,11273,1,0,0:0:0:0:
314,280,11410,1,2,0:0:0:0:
454,308,11548,1,2,0:0:0:0:
252,218,11685,5,2,0:0:0:0:
313,356,11823,1,2,0:0:0:0:
395,241,11961,1,2,0:0:0:0:
383,246,12052,1,0,0:0:0:0:
371,240,12144,1,0,0:0:0:0:
362,249,12236,2,0,L|308:256,2,42.5000016212464,2|2|2,0:0|0:0|0:0,0:0:0:0:
465,215,12511,2,0,L|519:222,2,42.5000016212464,2|2|0,0:0|0:0|0:0,0:0:0:0:
361,160,12786,2,0,P|360:127|366:96,1,63.7500024318696,2|2,0:0|0:0,0:0:0:0:
269,33,13062,5,4,0:0:0:0:
255,107,13199,1,2,0:0:0:0:
184,138,13337,1,2,0:0:0:0:
108,125,13474,1,0,0:0:0:0:
42,164,13612,2,0,P|42:211|46:238,1,63.7500024318696,2|2,0:0|0:0,0:0:0:0:
95,289,13887,1,2,0:0:0:0:
110,282,13979,1,2,0:0:0:0:
107,298,14071,1,2,0:0:0:0:
104,289,14163,6,0,P|156:292|236:289,1,127.500004863739,4|0,0:0|0:0,0:0:0:0:
291,242,14575,2,0,P|354:244|418:241,1,127.500004863739,2|0,0:0|0:0,0:0:0:0:
437,320,14988,2,0,L|363:319,1,63.7500024318696,2|0,0:0|0:0,0:0:0:0:
248,182,15263,5,4,0:0:0:0:
249,155,16227,1,2,0:0:0:0:
250,129,16777,1,2,0:0:0:0:
54,44,17328,5,2,0:0:0:0:
54,44,18841,6,0,L|52:69,1,15.9375006079674,2|0,0:0|0:0,0:0:0:0:
144,97,19117,6,0,L|119:96,1,15.9375006079674,2|0,0:0|0:0,0:0:0:0:
221,37,19392,5,2,0:0:0:0:
221,37,19529,2,0,P|231:95|220:176,1,127.500004863739,4|2,0:0|0:0,0:0:0:0:
313,185,19942,1,0,0:0:0:0:
298,220,20034,1,0,0:0:0:0:
301,258,20126,1,2,0:0:0:0:
317,292,20218,2,0,L|400:287,1,63.7500024318696,2|0,0:0|0:0,0:0:0:0:
479,356,20493,2,0,L|396:351,1,63.7500024318696,2|2,0:0|0:0,0:0:0:0:
417,218,20768,5,2,0:0:0:0:
412,171,20860,1,2,0:0:0:0:
434,129,20951,1,2,0:0:0:0:
468,113,21043,2,0,L|517:116,2,42.5000016212464,2|0|0,0:0|0:0|0:0,0:0:0:0:
387,57,21318,2,0,P|343:62|305:63,1,63.7500024318696,2|2,0:0|0:0,0:0:0:0:
245,130,21594,5,2,0:0:0:0:
245,130,21731,2,0,P|183:133|98:123,1,127.500004863739,4|2,0:0|0:0,0:0:0:0:
106,205,22144,1,2,0:0:0:0:
28,220,22282,1,0,0:0:0:0:
107,230,22419,1,2,0:0:0:0:
35,240,22557,1,2,0:0:0:0:
146,293,22695,5,2,0:0:0:0:
220,319,22832,1,2,0:0:0:0:
256,249,22970,1,0,0:0:0:0:
309,355,23107,6,0,L|303:328,1,15.9375006079674,4|0,0:0|0:0,0:0:0:0:
309,40,23383,6,0,L|315:67,1,15.9375006079674,4|0,0:0|0:0,0:0:0:0:
467,187,23658,5,2,0:0:0:0:
486,115,23796,1,2,0:0:0:0:
477,206,23933,6,0,P|412:213|349:196,1,127.500004863739,4|0,0:0|0:0,0:0:0:0:
312,264,24346,2,0,P|274:264|222:272,1,63.7500024318696,2|0,0:0|0:0,0:0:0:0:
179,288,24621,1,2,0:0:0:0:
55,170,24759,5,2,0:0:0:0:
76,200,25034,2,0,P|82:143|73:58,1,127.500004863739,4|0,0:0|0:0,0:0:0:0:
139,33,25447,2,0,P|183:32|215:27,1,63.7500024318696,2|0,0:0|0:0,0:0:0:0:
273,59,25722,1,2,0:0:0:0:
398,197,25860,5,2,0:0:0:0:
422,223,26135,2,0,P|329:227|281:217,1,127.500004863739,4|2,0:0|0:0,0:0:0:0:
229,260,26548,2,0,P|228:293|231:340,1,63.7500024318696,2|0,0:0|0:0,0:0:0:0:
297,363,26823,1,2,0:0:0:0:
250,164,26961,2,0,P|248:117|251:92,1,63.7500024318696,2|0,0:0|0:0,0:0:0:0:
123,40,27236,5,4,0:0:0:0:
132,70,27924,1,2,0:0:0:0:
142,98,28337,6,0,P|72:106|9:94,1,127.500004863739,4|2,0:0|0:0,0:0:0:0:
113,184,28750,1,2,0:0:0:0:
51,278,28887,1,0,0:0:0:0:
19,188,29025,5,2,0:0:0:0:
142,275,29163,1,2,0:0:0:0:
255,330,29300,5,2,0:0:0:0:
167,351,29438,1,0,0:0:0:0:
266,246,29575,5,2,0:0:0:0:
303,252,29667,1,2,0:0:0:0:
340,257,29759,1,0,0:0:0:0:
377,264,29851,2,0,L|432:274,2,42.5000016212464,2|2|0,0:0|0:0|0:0,0:0:0:0:
493,199,30126,2,0,L|438:209,2,42.5000016212464,2|2|0,0:0|0:0|0:0,0:0:0:0:
367,135,30401,2,0,L|422:145,2,42.5000016212464,2|2|0,0:0|0:0|0:0,0:0:0:0:
279,46,30676,6,0,L|224:56,2,42.5000016212464,4|2|0,0:0|0:0|0:0,0:0:0:0:
165,163,30951,2,0,L|175:111,2,42.5000016212464,2|2|0,0:0|0:0|0:0,0:0:0:0:
114,19,31227,2,0,L|159:41,2,42.5000016212464,2|2|0,0:0|0:0|0:0,0:0:0:0:
238,211,31502,5,2,0:0:0:0:
197,235,31594,1,2,0:0:0:0:
150,239,31685,1,2,0:0:0:0:
107,220,31777,5,2,0:0:0:0:
37,211,31915,1,2,0:0:0:0:
37,211,32052,1,2,0:0:0:0:
13,277,32190,5,2,0:0:0:0:
28,301,32603,1,0,0:0:0:0:
41,324,32878,6,0,L|242:306,1,191.249994163513,2|0,0:0|0:0,0:0:0:0:
256,324,33979,6,0,P|261:292|250:245,1,63.7500024318696,2|0,0:1|0:0,0:0:0:0:
173,167,34254,2,0,P|203:183|238:191,1,63.7500024318696,2|0,0:1|0:0,0:0:0:0:
339,150,34529,2,0,P|317:177|304:209,1,63.7500024318696,2|0,0:1|0:0,0:0:0:0:
331,276,34805,1,2,0:1:0:0:
498,197,34942,6,0,L|405:190,1,85,4|0,0:0|2:0,0:0:0:0:
273,106,35218,1,0,0:0:0:0:
174,104,35355,2,0,B|261:89|261:89|301:31|301:31|397:20,1,255,4|0,0:0|2:0,0:0:0:0:
397,19,36181,6,0,L|405:94,1,63.7500024318696,2|0,2:1|2:0,0:0:0:0:
365,184,36456,2,0,P|326:193|296:205,1,63.7500024318696,2|0,2:1|2:0,0:0:0:0:
452,251,36731,2,0,P|479:264|510:290,1,63.7500024318696,2|0,2:1|2:0,0:0:0:0:
504,360,37007,1,2,2:1:0:0:
257,353,37144,6,0,L|247:266,1,85,4|0,0:0|2:0,0:0:0:0:
60,168,37419,1,0,0:0:0:0:
86,45,37557,2,0,P|173:114|151:254,1,255,4|0,0:0|2:0,0:0:0:0:
157,246,38383,5,2,2:1:0:0:
131,263,38796,1,2,2:1:0:0:
101,282,39208,1,0,2:1:0:0:
229,348,39346,6,0,B|323:333|301:374|400:353,1,170,6|0,0:0|0:0,0:0:0:0:
500,232,39759,2,0,P|452:261|419:265,1,85,2|0,0:0|0:0,0:0:0:0:
278,198,40034,1,10,0:0:0:0:
349,137,40172,2,0,L|358:227,1,85,2|0,0:0|0:0,0:0:0:0:
423,96,40447,6,0,P|346:104|261:51,1,170,6|0,0:0|0:0,0:0:0:0:
86,58,40860,2,0,L|177:48,1,85,2|0,0:0|0:0,0:0:0:0:
44,197,41135,1,10,0:0:0:0:
122,238,41273,2,0,P|125:189|114:140,1,85,2|0,0:0|0:0,0:0:0:0:
259,328,41548,6,0,P|172:307|83:339,1,170,6|0,0:0|0:0,0:0:0:0:
277,231,41961,2,0,P|364:210|453:242,1,170,6|10,0:0|0:0,0:0:0:0:
249,141,42374,2,0,P|250:104|245:49,1,85,2|0,0:0|0:0,0:0:0:0:
71,116,42649,6,0,L|165:107,1,85,6|0,0:0|0:0,0:0:0:0:
336,130,42924,1,2,0:0:0:0:
183,218,43062,2,0,P|181:283|186:317,1,85,2|0,0:0|0:0,0:0:0:0:
364,350,43337,2,0,P|287:320|265:226,1,170,10|0,0:0|0:0,0:0:0:0:
512,284,43750,2,0,B|418:301|437:252|331:267,1,170,6|0,0:0|0:0,0:0:0:0:
229,361,44163,5,2,2:3:0:0:
50,190,44438,1,2,2:3:0:0:
260,103,44713,1,2,2:3:0:0:
452,238,44988,1,2,2:3:0:0:
229,361,45263,1,2,2:3:0:0:
50,190,45539,1,2,2:3:0:0:
260,103,45814,5,0,0:0:0:0:
232,191,45951,1,0,0:0:0:0:
150,147,46089,2,0,L|145:12,2,127.5,6|2|8,0:0|1:0|0:0,0:0:0:0:
138,245,46640,2,0,L|143:335,1,85,2|0,0:0|0:0,0:0:0:0:
226,362,46915,1,2,0:0:0:0:
226,362,47052,1,2,0:0:0:0:
305,287,47190,5,6,0:0:0:0:
342,292,47259,1,0,0:0:0:0:
379,283,47328,1,0,0:0:0:0:
407,258,47396,1,0,0:0:0:0:
421,222,47465,1,0,0:0:0:0:
415,184,47534,1,0,0:0:0:0:
391,153,47603,5,2,0:0:0:0:
356,136,47672,1,0,0:0:0:0:
318,135,47740,1,0,0:0:0:0:
282,150,47809,1,0,0:0:0:0:
258,180,47878,1,0,0:0:0:0:
230,207,47947,1,0,0:0:0:0:
192,217,48016,5,2,0:0:0:0:
153,212,48085,1,0,0:0:0:0:
123,188,48153,1,0,0:0:0:0:
109,152,48222,1,0,0:0:0:0:
107,113,48291,6,0,P|148:109|200:109,1,85,6|0,0:0|0:0,0:0:0:0:
337,219,48566,1,10,0:0:0:0:
283,314,48704,2,0,P|240:313|198:309,1,85,2|0,0:0|0:0,0:0:0:0:
50,236,48979,1,2,0:0:0:0:
132,365,49117,1,10,0:0:0:0:
137,209,49254,1,0,0:0:0:0:
31,60,49392,6,0,B|22:105|22:105|33:154,1,85,2|0,0:0|0:0,0:0:0:0:
212,251,49667,1,10,0:0:0:0:
263,177,49805,2,0,B|271:138|271:138|262:93,1,85,2|0,0:0|0:0,0:0:0:0:
158,40,50080,1,2,0:0:0:0:
96,123,50218,1,10,0:0:0:0:
186,175,50355,1,10,0:0:0:0:
341,51,50493,6,0,L|439:43,1,85,6|0,0:0|0:0,0:0:0:0:
451,215,50768,1,10,0:0:0:0:
502,140,50906,2,0,L|413:131,1,85,2|0,0:0|0:0,0:0:0:0:
283,255,51181,1,2,0:0:0:0:
217,91,51318,1,10,0:0:0:0:
350,168,51456,1,0,0:0:0:0:
365,275,51594,5,6,0:0:0:0:
201,241,51731,1,0,0:2:0:0:
370,253,51869,1,10,0:0:0:0:
203,218,52007,1,10,0:0:0:0:
107,345,52144,5,4,0:0:0:0:
281,311,52281,1,0,0:2:0:0:
102,323,52419,1,10,0:0:0:0:
279,288,52557,1,10,0:0:0:0:
94,188,52695,6,0,L|0:200,1,85,6|0,0:0|0:0,0:0:0:0:
183,365,52970,1,10,0:0:0:0:
200,285,53107,2,0,P|205:242|198:200,1,85,2|0,0:0|0:0,0:0:0:0:
310,120,53383,1,2,0:0:0:0:
212,39,53520,1,10,0:0:0:0:
106,117,53658,1,0,0:0:0:0:
292,205,53796,6,0,L|390:193,1,85,2|0,0:0|0:0,0:0:0:0:
441,339,54071,1,10,0:0:0:0:
508,261,54208,2,0,B|514:220|514:220|502:169,1,85,2|0,0:0|0:0,0:0:0:0:
267,294,54484,1,2,0:0:0:0:
355,353,54621,1,10,0:0:0:0:
415,272,54759,1,8,0:0:0:0:
205,143,54896,6,0,B|195:185|195:185|201:226,1,85,2|0,0:0|0:0,0:0:0:0:
24,311,55172,1,10,0:0:0:0:
113,347,55309,2,0,B|119:306|119:306|109:263,1,85,2|0,0:0|0:0,0:0:0:0:
11,186,55585,1,2,0:0:0:0:
85,84,55722,1,10,0:0:0:0:
189,165,55860,1,0,0:0:0:0:
9,113,55997,6,0,P|6:67|12:20,1,85,2|0,0:0|0:0,0:0:0:0:
210,25,56273,1,10,0:0:0:0:
270,79,56410,2,0,P|274:121|271:163,1,85,2|0,0:0|0:0,0:0:0:0:
194,307,56685,1,2,0:0:0:0:
330,246,56823,1,10,0:0:0:0:
185,213,56961,1,2,0:0:0:0:
299,347,57098,6,0,P|356:359|457:293,1,170,2|8,0:0|0:0,0:0:0:0:
171,292,57511,2,0,P|114:304|13:238,1,170,2|0,0:0|0:0,0:0:0:0:
263,146,57924,2,0,P|262:90|256:50,1,85,10|2,0:0|0:0,0:0:0:0:
512,106,58199,6,0,P|454:141|347:124,1,170,2|8,0:0|0:0,0:0:0:0:
0,30,58612,2,0,P|58:65|165:48,1,170,2|0,0:0|0:0,0:0:0:0:
74,152,59025,2,0,P|74:201|78:241,1,85,10|8,0:0|0:0,0:0:0:0:
18,367,59300,6,0,P|67:321|167:306,1,170,2|10,0:0|0:0,0:0:0:0:
476,302,59713,2,0,P|427:256|327:241,1,170,2|0,0:0|0:0,0:0:0:0:
370,112,60126,2,0,P|367:59|370:9,1,85,10|0,0:0|0:0,0:0:0:0:
208,9,60401,6,0,P|260:58|273:158,1,170,2|8,0:0|0:0,0:0:0:0:
116,333,60814,2,0,P|184:314|243:231,1,170,2|0,0:0|0:0,0:0:0:0:
360,230,61227,1,10,0:0:0:0:
168,156,61364,1,10,0:0:0:0:
452,93,61502,6,0,P|502:155|486:247,1,170,6|8,0:0|0:0,0:0:0:0:
246,220,61915,2,0,P|233:138|284:72,1,170,2|0,0:0|0:0,0:0:0:0:
377,277,62328,2,0,P|375:353|379:382,1,85,10|2,0:0|0:0,0:0:0:0:
124,338,62603,6,0,P|183:359|284:331,1,170,6|8,0:0|0:0,0:0:0:0:
164,150,63016,2,0,P|85:121|4:143,1,170,2|0,0:0|0:0,0:0:0:0:
253,90,63429,2,0,P|250:40|252:-14,1,85,10|0,0:0|0:0,0:0:0:0:
234,262,63704,6,0,P|260:188|357:154,1,170,6|10,0:0|0:0,0:0:0:0:
512,359,64117,2,0,P|486:285|389:251,1,170,2|2,0:0|0:0,0:0:0:0:
216,340,64529,1,10,0:0:0:0:
394,374,64667,1,8,0:0:0:0:
467,59,64805,6,0,P|406:112|317:116,1,170,6|8,0:0|0:0,0:0:0:0:
28,224,65218,2,0,P|91:169|175:166,1,170,2|0,0:0|0:0,0:0:0:0:
303,329,65630,1,10,0:0:0:0:
409,202,65768,1,2,0:0:0:0:
218,226,65906,5,4,0:2:0:0:
209,353,66043,1,8,0:0:0:0:
194,251,66181,2,0,P|193:184|191:151,1,85,8|0,0:0|0:0,0:0:0:0:
266,91,66456,1,4,0:2:0:0:
108,84,66594,1,8,0:0:0:0:
288,33,66731,2,0,P|290:98|297:144,1,85,8|0,0:0|0:0,0:0:0:0:
487,307,67007,6,8,P|507:158|381:74,1,318.75,4|0,0:0|2:0,1:0:0:0:
365,47,68107,6,0,P|368:88|364:147,1,85,4|8,0:0|0:0,0:0:0:0:
365,131,68314,1,0,0:0:0:0:
365,131,68383,1,8,0:0:0:0:
256,218,68520,1,4,0:2:0:0:
256,218,68589,1,0,0:0:0:0:
256,218,68658,2,0,P|259:277|266:309,1,85,8|8,0:0|0:0,0:0:0:0:
347,341,68933,1,4,0:2:0:0:
288,103,69071,6,0,P|202:115|116:104,1,170,6|8,0:0|0:0,0:0:0:0:
117,134,69415,1,0,0:0:0:0:
87,136,69484,1,8,0:0:0:0:
60,148,69552,1,0,0:0:0:0:
46,174,69621,1,0,0:0:0:0:
40,203,69690,1,0,0:0:0:0:
52,230,69759,1,4,0:2:0:0:
196,369,69896,2,0,L|199:191,1,170,4|0,0:0|2:0,0:0:0:0:
300,249,70309,6,0,L|296:182,1,63.7500024318696,2|0,0:0|0:0,0:0:0:0:
292,106,70585,1,0,0:0:0:0:
368,96,70722,1,0,0:0:0:0:
291,81,70860,1,0,0:0:0:0:
378,172,70997,6,0,P|410:171|454:168,1,63.7500024318696,2|0,0:0|0:0,0:0:0:0:
474,106,71273,2,0,P|473:144|477:233,1,127.500004863739,2|0,0:0|0:0,0:0:0:0:
384,349,71685,1,2,0:0:0:0:
384,349,71823,2,0,P|383:299|388:269,1,63.7500024318696,2|0,0:0|0:0,0:0:0:0:
314,257,72098,2,0,P|314:222|310:189,1,63.7500024318696,2|0,0:0|0:0,0:0:0:0:
258,87,72374,1,4,0:0:0:0:
253,142,72511,1,2,0:0:0:0:
283,121,72649,1,0,0:0:0:0:
231,111,72786,1,0,0:0:0:0:
323,64,72924,5,0,0:0:0:0:
309,187,73062,1,0,0:0:0:0:
184,168,73199,1,0,0:0:0:0:
203,46,73337,1,0,0:0:0:0:
256,120,73474,1,0,0:0:0:0:
218,241,73612,6,0,P|179:244|140:237,1,63.7500024318696,2|0,0:0|0:0,0:0:0:0:
82,274,73887,1,0,0:0:0:0:
63,197,74025,1,0,0:0:0:0:
56,271,74163,2,0,P|59:314|58:349,1,63.7500024318696,2|0,0:0|0:0,0:0:0:0:
93,201,74438,2,0,P|92:169|90:137,1,63.7500024318696,2|2,0:0|0:0,0:0:0:0:
142,40,74713,5,4,0:0:0:0:
192,97,74851,1,0,0:0:0:0:
268,101,74988,1,0,0:0:0:0:
332,59,75126,1,0,0:0:0:0:
406,44,75263,1,0,0:0:0:0:
469,87,75401,1,0,0:0:0:0:
465,163,75539,2,0,L|467:240,1,63.7500024318696
391,226,75814,6,0,L|397:307,1,63.7500024318696,2|0,0:0|0:0,0:0:0:0:
320,272,76089,1,0,0:0:0:0:
312,348,76227,1,0,0:0:0:0:
248,305,76364,2,0,P|241:238|241:167,1,127.500004863739,2|2,0:0|0:0,0:0:0:0:
206,108,76777,6,0,P|173:108|132:111,1,63.7500024318696,2|4,0:0|0:0,0:0:0:0:
66,96,77052,1,2,0:0:0:0:
20,157,77190,2,0,P|22:189|25:223,1,63.7500024318696,2|0,0:0|0:0,0:0:0:0:
80,273,77465,1,0,0:0:0:0:
144,231,77603,1,0,0:0:0:0:
184,295,77740,1,0,0:0:0:0:
120,337,77878,1,2,0:0:0:0:
113,324,78291,5,2,0:0:0:0:
219,228,78429,2,0,P|254:226|295:228,1,63.7500024318696,2|0,0:0|0:0,0:0:0:0:
376,304,78704,2,0,P|407:305|439:305,1,63.7500024318696,2|0,0:0|0:0,0:0:0:0:
492,246,78979,1,2,0:0:0:0:
436,156,79117,6,0,P|434:117|439:87,1,63.7500024318696,4|0,0:0|0:0,0:0:0:0:
356,111,79392,1,0,0:0:0:0:
343,32,79529,1,0,0:0:0:0:
334,110,79667,1,0,0:0:0:0:
284,171,79805,1,0,0:0:0:0:
211,197,79942,6,0,P|164:199|136:197,1,63.7500024318696,2|2,0:0|0:0,0:0:0:0:
106,257,80218,2,0,P|108:182|102:115,1,127.500004863739,2|0,0:0|0:0,0:0:0:0:
156,74,80630,2,0,P|156:26|155:-4,1,63.7500024318696,2|0,0:0|0:0,0:0:0:0:
228,35,80906,1,0,0:0:0:0:
258,109,81043,1,2,0:0:0:0:
321,62,81181,1,2,0:0:0:0:
359,133,81318,6,0,P|357:189|368:280,1,127.500004863739,4|0,0:0|0:0,0:0:0:0:
343,333,81731,1,0,0:0:0:0:
417,317,81869,1,0,0:0:0:0:
350,348,82007,1,0,0:0:0:0:
440,238,82144,6,0,P|486:241|517:242,1,63.7500024318696,2|2,0:0|0:0,0:0:0:0:
471,162,82419,2,0,P|421:160|361:209,1,127.500004863739,2|0,0:0|0:0,0:0:0:0:
284,199,82832,2,0,P|284:237|292:270,1,63.7500024318696,2|0,0:0|0:0,0:0:0:0:
189,337,83107,1,0,0:0:0:0:
276,350,83245,1,2,0:0:0:0:
210,255,83383,1,2,0:0:0:0:
91,302,83520,5,4,0:0:0:0:
54,224,83658,1,0,0:0:0:0:
6,291,83796,1,0,0:0:0:0:
134,234,83933,1,0,0:0:0:0:
110,162,84071,1,0,0:0:0:0:
153,225,84208,1,0,0:0:0:0:
130,151,84346,2,0,P|117:110|114:73,1,63.7500024318696,2|0,0:0|0:0,0:0:0:0:
195,97,84621,6,0,P|217:57|297:19,1,127.500004863739,2|0,0:0|0:0,0:0:0:0:
281,99,85034,2,0,P|318:98|401:137,1,127.500004863739,2|0,0:0|0:0,0:0:0:0:
330,177,85447,2,0,P|352:206|367:246,1,63.7500024318696,2|0,0:0|0:0,0:0:0:0:
102,222,85722,6,0,P|144:161|194:141,1,127.500004863739,4|0,0:0|0:0,0:0:0:0:
191,217,86135,2,0,P|225:217|302:270,1,127.500004863739,2|0,0:0|0:0,0:0:0:0:
228,300,86548,2,0,P|249:327|258:355,1,63.7500024318696,2|0,0:0|0:0,0:0:0:0:
455,197,86823,5,2,0:0:0:0:
437,184,87098,1,2,0:0:0:0:
361,199,87236,1,2,0:0:0:0:
288,173,87374,1,2,0:0:0:0:
215,195,87511,1,2,0:0:0:0:
142,169,87649,1,2,0:0:0:0:
69,193,87786,1,2,0:0:0:0:
148,308,87924,5,6,0:0:0:0:
251,359,88062,1,2,1:0:0:0:
338,284,88199,2,0,L|234:274,1,85,8|0,0:0|2:0,0:0:0:0:
92,126,88474,1,2,0:0:0:0:
26,220,88612,2,0,L|124:204,1,85,10|0,1:0|0:0,0:0:0:0:
298,83,88887,1,2,0:0:0:0:
205,28,89025,6,0,P|199:78|214:138,1,85,10|0,0:0|0:0,0:0:0:0:
405,225,89300,1,2,0:0:0:0:
480,167,89438,2,0,P|406:143|320:180,1,170,10|10,0:0|0:0,0:0:0:0:
160,240,89851,1,0,0:0:0:0:
303,342,89988,1,10,0:0:0:0:
262,249,90126,5,0,0:0:0:0:
155,352,90263,1,2,0:0:0:0:
86,200,90401,2,0,P|81:151|85:111,1,85,10|0,0:0|0:0,0:0:0:0:
233,147,90676,5,2,0:0:0:0:
360,68,90814,2,0,P|309:32|281:23,1,85,10|0,0:0|0:0,0:0:0:0:
252,177,91089,5,2,0:0:0:0:
91,219,91227,2,0,P|86:170|90:130,1,85,10|0,0:0|0:0,0:0:0:0:
272,207,91502,5,0,0:0:0:0:
368,88,91640,2,0,P|317:52|289:43,1,85,10|0,0:0|0:0,0:0:0:0:
183,263,91915,1,2,0:0:0:0:
312,317,92052,1,10,0:0:0:0:
370,196,92190,1,2,0:0:0:0:
189,63,92328,5,14,0:0:0:0:
137,154,92465,1,2,0:0:0:0:
248,169,92603,2,0,P|292:151|323:128,1,85,8|0,0:0|0:0,0:0:0:0:
421,328,92878,5,2,0:0:0:0:
494,271,93016,2,0,P|463:231|432:208,1,85,10|0,0:0|0:0,0:0:0:0:
217,285,93291,5,2,0:0:0:0:
296,345,93429,2,0,P|315:299|324:243,1,85,10|0,0:0|0:0,0:0:0:0:
126,125,93704,5,10,0:0:0:0:
124,232,93841,2,0,P|174:214|213:190,1,85,2|0,0:0|0:0,0:0:0:0:
296,40,94117,5,2,0:0:0:0:
466,113,94254,1,10,0:0:0:0:
313,216,94392,1,2,0:0:0:0:
297,119,94529,5,14,0:0:0:0:
411,233,94667,1,2,0:0:0:0:
231,280,94805,2,0,P|224:238|229:196,1,85,10|0,0:0|0:0,0:0:0:0:
449,210,95080,5,2,0:0:0:0:
249,324,95218,2,0,P|216:296|191:263,1,85,10|0,0:0|0:0,0:0:0:0:
486,190,95493,5,2,0:0:0:0:
286,353,95630,2,0,P|242:348|199:328,1,85,10|0,0:0|0:0,0:0:0:0:
126,159,95906,5,2,0:0:0:0:
212,118,96043,2,0,P|250:101|293:96,1,85,14|0,0:0|0:0,0:0:0:0:
512,238,96318,2,0,P|473:221|430:216,1,85,10|0,0:0|0:0,0:0:0:0:
385,324,96594,2,0,L|376:149,1,170,14|2,0:0|0:0,0:0:0:0:
285,346,97007,6,0,P|292:300|285:236,1,85,8|0,0:0|0:0,0:0:0:0:
162,77,97282,1,2,0:0:0:0:
90,109,97419,2,0,P|126:146|165:161,1,85,10|8,0:0|0:0,0:0:0:0:
385,102,97695,1,2,0:0:0:0:
394,26,97832,2,0,P|341:39|311:68,1,85,14|0,0:0|0:0,0:0:0:0:
142,257,98107,5,2,0:0:0:0:
347,235,98245,2,0,P|298:181|270:167,1,85,10|0,0:0|0:0,0:0:0:0:
259,341,98520,1,2,0:0:0:0:
207,119,98658,2,0,P|254:102|303:106,1,85,10|0,0:0|0:0,0:0:0:0:
454,206,98933,5,14,0:0:0:0:
339,324,99071,1,2,0:0:0:0:
484,366,99208,2,0,P|494:317|489:280,1,85,10|0,0:0|0:0,0:0:0:0:
288,196,99484,1,2,0:0:0:0:
219,238,99621,2,0,P|217:301|235:340,1,85,10|8,0:0|0:0,0:0:0:0:
423,96,99896,5,2,0:0:0:0:
310,13,100034,2,0,P|246:23|210:127,1,170,14|2,0:0|0:0,0:0:0:0:
450,286,100447,2,0,P|413:227|317:207,1,170,10|0,0:0|0:0,0:0:0:0:
123,301,100860,2,0,P|168:279|201:248,1,85,10|0,0:0|0:0,0:0:0:0:
14,60,101135,5,6,0:0:0:0:
69,196,101273,1,2,0:0:0:0:
185,85,101410,2,0,P|136:85|78:100,1,85,10|0,0:0|0:0,0:0:0:0:
347,237,101685,5,2,0:0:0:0:
398,85,101823,1,10,0:0:0:0:
268,111,101961,1,8,0:0:0:0:
472,196,102098,1,10,0:0:0:0:
324,12,102236,6,0,P|295:86|324:177,1,170,2|2,0:0|0:0,0:0:0:0:
510,128,102649,2,0,P|440:119|410:127,1,85,10|0,0:0|0:0,0:0:0:0:
220,282,102924,1,2,0:0:0:0:
314,360,103062,2,0,P|334:312|338:260,1,85,10|0,0:0|0:0,0:0:0:0:
188,123,103337,5,6,0:0:0:0:
109,157,103474,5,2,0:0:0:0:
177,236,103612,5,10,0:0:0:0:
301,189,103750,5,0,0:0:0:0:
212,55,103887,5,8,0:0:0:0:
26,132,104025,5,0,0:0:0:0:
148,309,104163,5,10,0:0:0:0:
375,228,104300,5,10,0:0:0:0:
290,26,104438,5,4,0:2:0:0:
212,156,104575,1,8,0:0:0:0:
218,189,104644,1,0,0:0:0:0:
223,222,104713,1,0,0:0:0:0:
278,354,104851,1,4,0:2:0:0:
286,321,104919,1,0,0:0:0:0:
292,287,104988,1,0,0:0:0:0:
130,232,105126,1,10,0:0:0:0:
374,145,105263,1,4,0:2:0:0:
135,92,105401,1,8,0:0:0:0:
262,24,105539,6,0,B|283:124|231:101|262:215,1,170,6|2,0:0|0:2,0:0:0:0:
431,304,105951,1,0,0:0:0:0:
460,236,106089,2,0,P|464:183|457:145,1,85,2|0,0:2|0:0,0:0:0:0:
321,296,106364,2,0,L|227:310,1,85,2|0,0:2|0:0,0:0:0:0:
112,220,106640,5,6,0:0:0:0:
143,365,106777,1,0,0:0:0:0:
198,228,106915,1,0,0:2:0:0:
55,336,107052,2,0,P|29:281|43:155,1,170,2|2,0:0|0:0,0:0:0:0:
217,113,107465,2,0,L|123:108,1,85,2|2,0:0|0:0,0:0:0:0:
300,42,107740,6,0,B|336:117|336:117|321:213,1,170,6|0,0:0|2:2,0:0:0:0:
388,309,108153,2,0,B|320:316|320:316|290:295|290:295|225:299,1,170,2|0,0:0|2:0,0:0:0:0:
130,162,108566,2,0,B|123:206|123:206|132:266,1,85,2|0,0:0|0:0,0:0:0:0:
409,238,108841,6,0,L|497:247,1,85,4|0,0:2|0:0,0:0:0:0:
307,176,109117,1,8,0:0:0:0:
485,98,109254,2,0,L|375:117,1,85,4|0,0:2|0:0,0:0:0:0:
301,35,109529,1,8,0:0:0:0:
240,217,109667,1,4,0:2:0:0:
106,78,109805,1,8,0:0:0:0:
206,119,109942,6,0,P|217:180|203:294,1,170,6|2,0:0|0:2,0:0:0:0:
71,210,110355,1,0,0:0:0:0:
34,302,110493,2,0,P|86:299|130:302,1,85,2|0,0:2|0:0,0:0:0:0:
265,360,110768,2,0,P|314:360|361:353,1,85,2|0,0:2|0:0,0:0:0:0:
506,276,111043,6,0,P|435:293|334:263,1,170,6|0,0:0|2:0,0:0:0:0:
111,162,111456,2,0,P|182:179|283:149,1,170,2|0,0:0|2:0,0:0:0:0:
401,57,111869,1,2,0:0:0:0:
414,216,112007,1,2,0:0:0:0:
309,96,112144,6,0,P|307:48|312:9,1,85,6|0,0:0|0:0,0:0:0:0:
492,9,112419,2,0,P|496:51|494:93,1,85,2|0,0:2|0:0,0:0:0:0:
337,181,112695,1,2,0:2:0:0:
365,309,112832,1,0,0:0:0:0:
479,285,112970,1,2,0:2:0:0:
453,162,113107,1,2,0:2:0:0:
276,264,113245,5,4,0:2:0:0:
271,297,113314,1,0,0:0:0:0:
267,330,113383,1,8,0:0:0:0:
238,193,113520,1,4,0:2:0:0:
233,159,113589,1,0,0:0:0:0:
226,125,113658,1,8,0:0:0:0:
161,257,113796,5,4,0:2:0:0:
340,190,113933,1,8,0:0:0:0:
175,253,114071,1,10,0:0:0:0:
326,200,114208,1,10,0:0:0:0:
116,357,114346,6,0,B|93:278|141:293|113:184,1,170,6|2,0:0|0:2,0:0:0:0:
160,65,114759,1,0,0:0:0:0:
40,29,114896,1,2,0:2:0:0:
65,105,115034,1,0,0:0:0:0:
59,28,115172,1,2,0:2:0:0:
80,96,115309,1,0,0:0:0:0:
237,12,115447,6,0,L|327:24,1,85,6|2,0:0|0:0,0:0:0:0:
368,146,115722,1,2,0:0:0:0:
510,64,115860,2,0,L|425:71,1,85,2|0,0:0|0:0,0:0:0:0:
269,113,116135,5,2,0:0:0:0:
367,286,116273,1,2,0:0:0:0:
493,151,116410,1,2,0:0:0:0:
255,227,116548,5,6,0:0:0:0:
283,355,116685,1,0,0:0:0:0:
308,185,116823,2,0,P|234:192|187:189,1,85,2|0,0:2|0:0,0:0:0:0:
98,318,117098,2,0,P|140:319|182:324,1,85,2|0,0:2|0:0,0:0:0:0:
259,116,117374,2,0,L|252:24,1,85,2|0,0:2|0:0,0:0:0:0:
49,170,117649,6,0,P|115:169|181:85,1,170,6|8,0:0|0:0,0:0:0:0:
465,210,118062,2,0,P|399:209|333:125,1,170,6|8,0:0|0:0,0:0:0:0:
152,250,118474,1,10,0:0:0:0:
321,274,118612,1,10,0:0:0:0:
230,178,118750,6,0,L|244:366,1,170,6|2,0:0|0:2,0:0:0:0:
372,321,119163,1,0,0:0:0:0:
456,366,119300,1,2,0:2:0:0:
388,304,119438,1,0,0:0:0:0:
317,136,119575,2,0,P|313:178|313:220,1,85,2|0,0:2|0:0,0:0:0:0:
217,28,119851,6,0,P|216:95|136:151,1,170,6|0,0:0|2:0,0:0:0:0:
22,248,120263,1,6,0:0:0:0:
130,315,120401,2,0,P|126:260|113:208,1,85,0|0,2:0|0:0,0:0:0:0:
300,262,120676,2,0,P|292:303|289:346,1,85,2|0,0:0|0:0,0:0:0:0:
254,187,120951,5,6,0:0:0:0:
233,114,121089,1,2,0:2:0:0:
275,179,121227,1,2,0:2:0:0:
254,110,121364,1,0,0:0:0:0:
400,165,121502,6,0,P|401:225|397:262,1,85,2|2,0:2|0:2,0:0:0:0:
140,248,121777,2,0,P|137:205|138:163,1,85,2|2,0:2|0:2,0:0:0:0:
335,331,122052,5,14,0:0:0:0:
248,368,122190,1,0,0:0:0:0:
258,171,122328,1,14,0:0:0:0:
352,232,122465,1,0,0:0:0:0:
161,304,122603,1,14,0:0:0:0:
169,200,122740,1,10,0:0:0:0:
335,331,122878,1,14,0:0:0:0:
248,368,123016,1,10,0:0:0:0:
72,208,123153,5,6,0:0:0:0:
244,268,123291,1,2,0:0:0:0:
95,369,123429,2,0,P|86:324|90:277,1,85,10|0,0:0|0:0,0:0:0:0:
215,130,123704,1,2,0:0:0:0:
134,63,123841,2,0,P|125:108|129:155,1,85,10|0,0:0|0:0,0:0:0:0:
292,317,124117,1,2,0:0:0:0:
369,254,124254,2,0,P|371:211|362:170,1,85,10|0,0:0|0:0,0:0:0:0:
475,83,124529,5,2,0:0:0:0:
266,17,124667,2,0,P|245:74|263:182,1,170,10|10,0:0|0:0,0:0:0:0:
459,261,125080,2,0,P|466:204|454:155,1,85
285,316,125355,5,6,0:0:0:0:
372,208,125493,1,2,0:0:0:0:
185,199,125630,2,0,P|184:247|197:291,1,85,10|0,0:0|0:0,0:0:0:0:
11,322,125906,1,2,0:0:0:0:
89,370,126043,2,0,P|98:308|91:261,1,85,10|0,0:0|0:0,0:0:0:0:
254,144,126318,5,2,0:0:0:0:
45,52,126456,2,0,P|11:113|39:214,1,170,14|0,0:0|0:0,0:0:0:0:
206,299,126869,1,2,0:0:0:0:
356,178,127007,2,0,P|361:121|345:71,1,85,10|0,0:0|0:0,0:0:0:0:
188,5,127282,1,10,0:0:0:0:
93,112,127419,1,0,0:0:0:0:
208,216,127557,5,0,0:0:0:0:
295,87,127695,1,2,0:0:0:0:
104,28,127832,2,0,L|9:35,1,85,10|0,0:0|0:0,0:0:0:0:
179,144,128107,5,2,0:0:0:0:
426,203,128245,2,0,L|521:210,1,85,10|0,0:0|0:0,0:0:0:0:
307,208,128520,5,2,0:0:0:0:
109,290,128658,2,0,L|14:297,1,85,10|0,0:0|0:0,0:0:0:0:
216,290,128933,5,2,0:0:0:0:
400,345,129071,2,0,L|495:352,1,85,10|0,0:0|0:0,0:0:0:0:
394,222,129346,5,2,0:0:0:0:
277,356,129484,1,2,0:0:0:0:
191,196,129621,1,0,0:0:0:0:
297,273,129759,5,6,0:0:0:0:
450,319,129896,1,2,0:0:0:0:
439,135,130034,2,0,P|385:134|343:140,1,85,10|0,0:0|0:0,0:0:0:0:
117,257,130309,1,2,0:0:0:0:
198,306,130447,2,0,P|202:254|195:208,1,85,10|0,0:0|0:0,0:0:0:0:
112,97,130722,1,2,0:0:0:0:
31,48,130860,2,0,P|27:100|34:146,1,85,10|0,0:0|0:0,0:0:0:0:
272,195,131135,5,2,0:0:0:0:
335,50,131273,2,0,P|290:100|188:112,1,170,10|10,0:0|0:0,0:0:0:0:
30,220,131685,2,0,P|83:233|130:228,1,85
355,243,131961,5,14,0:0:0:0:
298,348,132098,1,2,0:0:0:0:
212,255,132236,2,0,P|208:203|212:161,1,85,10|0,0:0|0:0,0:0:0:0:
452,185,132511,1,2,0:0:0:0:
317,57,132649,1,10,0:0:0:0:
296,188,132786,5,10,0:0:0:0:
452,40,132924,1,2,0:0:0:0:
173,15,133062,2,0,P|157:96|179:191,1,170,14|2,0:0|0:0,0:0:0:0:
368,347,133474,2,0,P|385:264|369:181,1,170,10|2,0:0|0:0,0:0:0:0:
149,257,133887,1,10,0:0:0:0:
274,349,134025,1,0,0:0:0:0:
299,199,134163,5,14,0:0:0:0:
102,159,134300,1,2,0:0:0:0:
27,335,134438,2,0,P|86:338|116:328,1,85,10|0,0:0|0:0,0:0:0:0:
121,73,134713,2,0,P|79:63|37:68,1,85,10|2,0:0|0:0,0:0:0:0:
176,213,134988,5,8,0:0:0:0:
352,133,135126,1,10,0:0:0:0:
260,33,135263,2,0,B|279:132|232:104|264:231,1,170,6|2,0:0|0:0,0:0:0:0:
482,307,135676,2,0,P|439:261|311:251,1,170,10|0,0:0|0:0,0:0:0:0:
107,280,136089,2,0,P|142:251|203:242,1,85,10|0,0:0|0:0,0:0:0:0:
339,353,136364,5,6,0:0:0:0:
198,354,136502,1,2,0:0:0:0:
257,201,136640,2,0,L|260:307,1,85,10|0,0:0|0:0,0:0:0:0:
170,195,136915,1,2,0:0:0:0:
256,96,137052,1,10,0:0:0:0:
343,189,137190,1,0,0:0:0:0:
259,285,137328,1,10,0:0:0:0:
29,93,137465,6,0,P|86:70|189:119,1,170,14|2,0:0|0:0,0:0:0:0:
181,274,137878,2,0,P|108:313|29:291,1,170,10|2,0:0|0:0,0:0:0:0:
199,194,138291,2,0,P|259:198|296:188,1,85,10|0,0:0|0:0,0:0:0:0:
483,93,138566,6,0,P|426:70|323:119,1,170,14|2,0:0|0:0,0:0:0:0:
331,274,138979,2,0,P|404:313|483:291,1,170,10|2,0:0|0:0,0:0:0:0:
313,194,139392,2,0,P|253:198|216:188,1,85,10|0,0:0|0:0,0:0:0:0:
86,35,139667,5,6,0:0:0:0:
59,68,139736,1,0,0:0:0:0:
50,109,139805,1,0,0:0:0:0:
56,151,139874,1,0,0:0:0:0:
78,186,139942,6,0,L|138:184,1,42.5,2|0,0:0|0:0,0:0:0:0:
187,226,140080,2,0,L|229:227,1,42.5,2|0,0:0|0:0,0:0:0:0:
402,223,140218,6,0,L|342:221,1,42.5,2|0,0:0|0:0,0:0:0:0:
293,263,140356,2,0,L|250:264,1,42.5,2|0,0:0|0:0,0:0:0:0:
191,315,140493,6,0,L|242:310,1,42.5,2|0,0:0|0:0,0:0:0:0:
302,341,140630,2,0,L|251:336,1,42.5,2|0,0:0|0:0,0:0:0:0:
136,366,140768,5,6,0:0:0:0:
18,266,140906,1,2,0:0:0:0:
143,167,141043,2,0,P|190:162|232:170,1,85,10|0,0:0|0:0,0:0:0:0:
432,297,141318,1,2,0:0:0:0:
472,204,141456,2,0,P|421:216|388:237,1,85,10|0,0:0|0:0,0:0:0:0:
231,325,141731,1,2,0:0:0:0:
325,369,141869,6,2,L|312:199,1,170,10|2,0:0|0:0,0:0:0:0:
500,47,142282,2,0,P|461:92|351:115,1,170,10|2,0:0|0:0,0:0:0:0:
232,187,142695,1,8,0:0:0:0:
159,89,142832,1,2,0:0:0:0:
266,31,142970,5,6,0:0:0:0:
333,197,143107,1,2,0:0:0:0:
151,280,143245,2,0,P|144:238|146:189,1,85,10|0,0:0|0:0,0:0:0:0:
10,87,143520,1,2,0:0:0:0:
98,29,143658,2,0,P|99:71|92:113,1,85,10|0,0:0|0:0,0:0:0:0:
23,253,143933,5,2,0:0:0:0:
172,362,144071,2,0,L|366:344,1,170,14|2,0:0|0:0,0:0:0:0:
465,240,144484,1,2,0:0:0:0:
294,179,144621,2,0,P|290:130|295:85,1,85,10|0,0:0|0:0,0:0:0:0:
113,40,144896,2,0,P|116:82|112:124,1,85,2|0,0:0|0:0,0:0:0:0:
191,285,145172,5,6,0:0:0:0:
204,157,145309,1,2,0:0:0:0:
76,211,145447,2,0,P|74:264|78:304,1,85,10|0,0:0|0:0,0:0:0:0:
243,375,145722,1,2,0:0:0:0:
316,346,145860,2,0,P|319:303|316:261,1,85,10|0,0:0|0:0,0:0:0:0:
408,109,146135,1,2,0:0:0:0:
212,65,146273,6,0,P|202:122|284:191,1,170,14|0,0:0|0:0,0:0:0:0:
420,283,146685,1,2,0:0:0:0:
491,173,146823,2,0,P|436:177|394:199,1,85,10|0,0:0|0:0,0:0:0:0:
242,291,147098,5,2,0:0:0:0:
335,372,147236,2,0,P|341:319|332:272,1,85,0|10,0:0|0:0,0:0:0:0:
121,238,147511,1,2,0:0:0:0:
51,295,147649,2,0,P|83:344|188:353,1,170,10|2,0:0|0:0,0:0:0:0:
219,165,148062,2,0,L|117:156,1,85,10|0,0:0|0:0,0:0:0:0:
41,208,148337,1,2,0:0:0:0:
288,110,148474,6,0,L|390:101,1,85,10|0,0:0|0:0,0:0:0:0:
483,126,148750,1,2,0:0:0:0:
185,244,148887,6,0,P|181:299|191:335,1,85,10|0,0:0|0:0,0:0:0:0:
358,348,149163,2,0,P|366:306|361:264,1,85,2|0,0:0|0:0,0:0:0:0:
445,199,149438,2,0,P|381:237|282:219,1,170,14|2,0:0|0:0,0:0:0:0:
94,64,149851,2,0,P|89:124|101:164,1,85,10|0,0:0|0:0,0:0:0:0:
23,294,150126,1,2,0:0:0:0:
106,366,150263,2,0,P|112:324|106:282,1,85,10|8,0:0|0:0,0:0:0:0:
94,147,150539,5,2,0:0:0:0:
0,184,150676,2,0,P|64:226|163:219,1,170,10|2,0:0|0:0,0:0:0:0:
446,269,151089,2,0,P|382:311|283:304,1,170,10|0,0:0|0:0,0:0:0:0:
191,361,151502,1,10,0:0:0:0:
277,86,151640,6,0,P|320:115|349:240,1,170,6|2,0:0|0:0,0:0:0:0:
162,237,152052,2,0,P|185:206|239:181,1,85,10|0,0:0|0:0,0:0:0:0:
380,329,152328,1,2,0:0:0:0:
257,378,152465,2,0,P|248:329|258:288,1,85,10|0,0:0|0:0,0:0:0:0:
364,124,152740,5,10,0:0:0:0:
469,89,152878,2,0,P|505:154|482:251,1,170,14|2,0:0|0:0,0:0:0:0:
253,186,153291,2,0,P|234:104|271:30,1,170,10|0,0:0|0:0,0:0:0:0:
406,276,153704,2,0,P|363:275|321:283,1,85,10|0,0:0|0:0,0:0:0:0:
181,358,153979,6,0,P|113:359|23:293,1,170,6|2,0:0|0:0,0:0:0:0:
78,140,154392,1,10,0:0:0:0:
120,279,154529,1,0,0:0:0:0:
0,192,154667,1,2,0:0:0:0:
195,140,154805,2,0,P|201:189|198:248,1,85,10|0,0:0|0:0,0:0:0:0:
61,47,155080,6,0,B|159:31|132:77|243:52,1,170,6|2,0:0|0:0,0:0:0:0:
381,180,155493,2,0,P|390:114|347:20,1,170,10|0,0:0|0:0,0:0:0:0:
262,255,155906,1,10,0:0:0:0:
137,111,156043,1,0,0:0:0:0:
265,86,156181,5,6,0:0:0:0:
117,222,156318,1,2,0:0:0:0:
283,332,156456,1,10,0:0:0:0:
446,206,156594,2,0,B|347:224|365:172|264:181,1,170,2|10,0:0|0:0,0:0:0:0:
31,340,157007,2,0,P|28:289|41:244,1,85,10|0,0:0|0:0,0:0:0:0:
181,102,157282,5,4,0:2:0:0:
339,267,157419,1,10,0:0:0:0:
339,267,157488,1,0,0:0:0:0:
339,267,157557,1,10,0:0:0:0:
137,342,157695,5,10,0:0:0:0:
177,213,157832,1,4,0:2:0:0:
312,353,157970,5,8,0:0:0:0:
226,300,158107,1,4,0:2:0:0:
410,317,158245,5,10,0:0:0:0:
481,285,158383,2,0,P|495:242|448:98,1,170,6|2,0:0|0:2,0:0:0:0:
342,65,158796,1,0,0:0:0:0:
277,167,158933,2,0,L|372:161,1,85,2|0,0:2|0:0,0:0:0:0:
197,47,159208,2,0,P|188:92|196:146,1,85,2|0,0:2|0:0,0:0:0:0:
44,265,159484,5,2,0:0:0:0:
151,324,159621,1,0,0:0:0:0:
237,237,159759,1,2,0:0:0:0:
133,184,159896,1,2,0:0:0:0:
244,327,160034,1,0,0:0:0:0:
324,215,160172,1,2,0:0:0:0:
373,288,160309,1,10,0:0:0:0:
432,234,160447,1,10,0:0:0:0:
476,302,160585,6,0,L|486:118,1,170,6|0,0:0|0:0,0:0:0:0:
263,29,160997,2,0,P|311:87|415:93,1,170,2|0,0:0|0:0,0:0:0:0:
250,149,161410,1,2,0:0:0:0:
334,290,161548,1,0,0:0:0:0:
413,194,161685,6,0,P|369:188|297:203,1,85,4|0,0:2|0:0,0:0:0:0:
114,136,161961,1,8,0:0:0:0:
174,38,162098,2,0,P|205:86|203:213,1,170,4|8,0:2|0:0,0:0:0:0:
86,358,162511,1,4,0:2:0:0:
24,217,162649,1,8,0:0:0:0:
213,301,162786,6,0,L|399:270,1,170,4|2,0:0|0:2,0:0:0:0:
463,115,163199,1,0,0:0:0:0:
499,208,163337,2,0,L|409:195,1,85,2|0,0:2|0:0,0:0:0:0:
302,38,163612,2,0,P|309:91|300:140,1,85,2|0,0:2|0:0,0:0:0:0:
98,219,163887,6,0,P|78:140|94:37,1,170,6|0,0:0|0:0,0:0:0:0:
301,208,164300,1,2,0:0:0:0:
210,249,164438,2,0,P|198:201|205:153,1,85
395,171,164713,2,0,P|397:213|386:253,1,85,2|0,0:0|0:0,0:0:0:0:
206,329,164988,6,0,B|103:334|137:293|41:299,1,170,6|2,0:0|0:2,0:0:0:0:
176,204,165401,1,2,0:0:0:0:
250,181,165539,2,0,P|252:125|239:77,1,85,2|2,0:2|0:0,0:0:0:0:
41,21,165814,1,2,0:2:0:0:
98,147,165951,1,2,0:2:0:0:
188,31,166089,5,4,0:2:0:0:
230,24,166158,1,0,0:0:0:0:
271,16,166227,1,8,0:0:0:0:
453,83,166364,1,4,0:2:0:0:
411,76,166433,1,0,0:0:0:0:
370,68,166502,1,8,0:0:0:0:
205,178,166640,1,4,0:2:0:0:
247,171,166709,1,0,0:0:0:0:
288,163,166778,1,8,0:0:0:0:
448,254,166915,1,4,0:2:0:0:
406,247,166984,1,0,0:0:0:0:
365,239,167053,1,8,0:0:0:0:
488,360,167190,6,0,L|503:166,1,170,6|2,0:0|0:2,0:0:0:0:
358,338,167603,1,0,0:0:0:0:
304,302,167740,1,2,0:2:0:0:
349,294,167878,1,2,0:2:0:0:
316,346,168016,1,2,0:2:0:0:
288,229,168153,1,0,0:0:0:0:
204,197,168291,6,0,L|210:308,1,85,6|0,0:0|0:0,0:0:0:0:
114,359,168566,1,2,0:0:0:0:
6,256,168704,2,0,P|63:246|109:258,1,85,2|0,0:0|0:0,0:0:0:0:
132,85,168979,1,2,0:0:0:0:
1,138,169117,1,10,0:0:0:0:
207,196,169254,1,10,0:0:0:0:
384,74,169392,6,0,P|299:57|196:77,1,170,6|0,0:0|0:0,0:0:0:0:
127,309,169805,2,0,P|210:326|294:315,1,170,2|0,0:0|0:0,0:0:0:0:
397,196,170218,1,4,0:2:0:0:
301,126,170355,5,0,0:0:0:0:
218,159,170493,2,0,P|217:208|221:252,1,85,6|0,0:0|0:0,0:0:0:0:
407,376,170768,1,2,0:0:0:0:
468,319,170906,2,0,P|471:276|469:234,1,85,8|0,0:0|0:0,0:0:0:0:
301,47,171181,1,2,0:0:0:0:
154,114,171318,1,10,0:0:0:0:
277,219,171456,1,0,0:0:0:0:
424,142,171594,6,0,P|345:129|227:148,1,170,6|2,0:0|0:2,0:0:0:0:
129,326,172007,1,2,0:2:0:0:
44,214,172144,1,10,0:0:0:0:
184,197,172282,1,2,0:0:0:0:
118,248,172419,1,4,0:2:0:0:
119,237,172557,1,0,0:0:0:0:
178,111,172695,6,0,L|192:281,1,170,6|2,0:0|0:2,0:0:0:0:
387,313,173107,1,2,0:2:0:0:
327,124,173245,1,10,0:0:0:0:
191,280,173383,1,2,0:0:0:0:
298,231,173520,1,4,0:2:0:0:
288,221,173658,1,0,0:0:0:0:
407,57,173796,6,0,L|396:257,1,170,6|0,0:0|0:0,0:0:0:0:
105,57,174208,1,0,0:0:0:0:
105,57,174277,1,0,0:0:0:0:
105,57,174346,2,0,L|116:257,1,170,6|0,0:0|0:0,0:0:0:0:
218,313,174759,5,0,0:0:0:0:
218,313,174828,1,0,0:0:0:0:
218,313,174896,2,0,P|261:301|304:307,1,85,4|0,0:2|0:0,0:0:0:0:
383,337,175172,1,8,0:0:0:0:
477,196,175309,1,8,0:0:0:0:
477,196,175378,1,0,0:0:0:0:
477,196,175447,2,0,P|434:208|391:202,1,85,4|8,0:2|0:0,0:0:0:0:
268,138,175722,1,4,0:2:0:0:
360,45,175860,1,8,0:0:0:0:
312,224,175997,5,0,0:0:0:0:
287,232,176066,1,0,0:0:0:0:
261,233,176135,1,0,0:0:0:0:
236,226,176204,1,0,0:0:0:0:
217,208,176273,5,0,0:0:0:0:
182,193,176341,1,0,0:0:0:0:
143,191,176410,1,0,0:0:0:0:
107,205,176479,1,0,0:0:0:0:
67,188,176548,5,0,0:0:0:0:
75,229,176617,1,0,0:0:0:0:
49,206,176685,1,0,0:0:0:0:
56,228,176754,1,0,0:0:0:0:
37,222,176823,1,2,2:2:0:0:
9,295,176961,1,0,0:0:0:0:
14,311,177029,1,0,0:0:0:0:
18,327,177098,6,0,P|61:335|95:330,1,63.7500024318696,2|0,0:1|0:0,0:0:0:0:
139,284,177374,2,0,L|213:291,1,63.7500024318696,2|0,0:1|0:0,0:0:0:0:
269,326,177649,2,0,B|276:295|276:295|265:244,1,63.7500024318696,2|0,0:1|0:0,0:0:0:0:
320,212,177924,1,2,0:1:0:0:
114,87,178062,6,0,P|162:163|259:168,1,187.000005706787,6|2,0:0|0:0,0:0:0:0:
417,211,178474,2,0,L|422:106,1,93.5000028533936,8|0,0:0|0:0,0:0:0:0:
509,277,178750,1,2,0:0:0:0:
327,268,178887,1,2,0:0:0:0:
222,370,179025,5,10,0:0:0:0:
381,365,179163,1,0,0:0:0:0:
222,192,179300,6,0,B|210:241|210:241|226:303,1,93.5000028533936,6|0,0:0|0:0,0:0:0:0:
415,287,179575,2,0,B|425:245|425:245|413:196,1,93.5000028533936,10|0,0:0|0:0,0:0:0:0:
313,75,179851,2,0,L|311:190,1,93.5000028533936,2|0,0:0|0:0,0:0:0:0:
110,310,180126,1,10,0:0:0:0:
12,185,180263,6,0,P|58:209|205:169,1,187.000005706787,6|0,0:0|0:0,0:0:0:0:
303,347,180676,1,8,0:0:0:0:
305,190,180814,1,0,0:0:0:0:
204,336,180951,1,2,0:0:0:0:
412,218,181089,5,2,0:0:0:0:
239,131,181227,1,8,0:0:0:0:
387,29,181364,1,0,0:0:0:0:
319,103,181502,6,0,B|344:210|273:179|300:298,1,187.000005706787,6|8,0:0|0:0,0:0:0:0:
511,341,181915,2,0,P|477:280|355:250,1,187.000005706787,6|0,0:0|0:0,0:0:0:0:
247,370,182328,1,10,0:0:0:0:
25,241,182465,6,0,P|59:180|181:150,1,187.000005706787,6|0,0:0|0:0,0:0:0:0:
242,15,182878,2,0,P|252:67|250:117,1,93.5000028533936,4|0,0:2|0:0,0:0:0:0:
114,304,183153,1,2,0:0:0:0:
200,360,183291,2,0,P|210:326|210:261,1,93.5000028533936,2|0,0:0|0:0,0:0:0:0:
497,243,183566,6,0,P|422:249|321:174,1,187.000005706787,6|0,0:0|0:0,0:0:0:0:
439,69,183979,2,0,P|434:122|444:164,1,93.5000028533936,4|0,0:2|0:0,0:0:0:0:
193,248,184254,1,2,0:0:0:0:
283,359,184392,2,0,P|285:304|274:249,1,93.5000028533936,2|0,0:0|0:0,0:0:0:0:
57,204,184667,6,0,P|81:142|197:98,1,187.000005706787,6|0,0:0|0:0,0:0:0:0:
355,35,185080,2,0,P|367:97|361:139,1,93.5000028533936,4|0,0:2|0:0,0:0:0:0:
101,282,185355,1,2,0:0:0:0:
189,360,185493,2,0,P|196:306|186:251,1,93.5000028533936,2|0,0:0|0:0,0:0:0:0:
405,208,185768,6,0,B|300:220|316:170|218:178,1,187.000005706787,6|2,0:0|0:0,0:0:0:0:
236,40,186181,2,0,P|179:76|142:82,1,93.5000028533936,2|0,0:0|0:0,0:0:0:0:
101,261,186456,1,2,0:0:0:0:
7,140,186594,1,0,0:0:0:0:
192,195,186731,1,0,0:0:0:0:
24,354,186869,6,0,P|12:270|76:180,1,187.000005706787,6|0,0:0|0:0,0:0:0:0:
207,107,187282,1,8,0:0:0:0:
77,91,187419,1,0,0:0:0:0:
245,233,187557,5,2,0:0:0:0:
272,17,187695,1,2,0:0:0:0:
375,198,187832,5,8,0:0:0:0:
355,73,187970,1,2,0:0:0:0:
304,142,188107,5,6,0:0:0:0:
435,126,188245,1,0,0:0:0:0:
319,286,188383,5,8,0:0:0:0:
469,293,188520,1,2,0:0:0:0:
271,361,188658,5,0,0:0:0:0:
256,181,188796,1,2,0:0:0:0:
414,249,188933,1,8,0:0:0:0:
296,269,189071,6,0,B|187:251|220:302|102:276,1,187.000005706787,6|0,0:0|0:0,0:0:0:0:
33,281,189484,1,8,0:0:0:0:
144,131,189621,1,0,0:0:0:0:
120,373,189759,5,2,0:0:0:0:
31,159,189896,1,2,0:0:0:0:
279,186,190034,1,8,0:0:0:0:
134,266,190172,1,2,0:0:0:0:
342,49,190309,6,0,P|368:96|375:228,1,187.000005706787,6|8,0:0|0:0,0:0:0:0:
106,194,190722,2,0,P|102:101|139:16,1,187.000005706787,2|0,0:0|0:0,0:0:0:0:
296,157,191135,1,8,0:0:0:0:
221,195,191273,6,0,P|217:246|234:317,1,93.5000028533936,6|0,0:0|0:0,0:0:0:0:
279,342,191548,1,2,0:0:0:0:
450,321,191685,2,0,P|420:270|293:249,1,187.000005706787,10|2,0:0|0:0,0:0:0:0:
488,97,192098,1,2,0:0:0:0:
384,30,192236,1,8,0:0:0:0:
279,94,192374,1,8,0:0:0:0:
368,170,192511,6,0,L|469:163,1,93.5000028533936,4|0,0:2|0:0,0:0:0:0:
246,264,192786,1,8,0:0:0:0:
182,217,192924,2,0,L|81:210,1,93.5000028533936,4|0,0:2|0:0,0:0:0:0:
335,293,193199,2,0,L|436:286,1,93.5000028533936,4|8,0:2|0:0,0:0:0:0:
247,346,193474,2,0,B|223:232|282:281|245:135,1,187.000005706787,6|0,0:0|0:0,0:0:0:0:
46,30,193887,6,0,B|33:81|33:81|47:145,1,93.5000028533936,10|0,0:0|0:0,0:0:0:0:
135,157,194163,1,2,0:0:0:0:
259,66,194300,2,0,P|212:68|145:61,1,93.5000028533936,2|8,0:0|0:0,0:0:0:0:
154,265,194575,1,8,0:0:0:0:
346,215,194713,6,0,P|293:178|252:180,1,93.5000028533936,6|0,0:0|0:0,0:0:0:0:
281,360,194988,2,0,P|335:334|356:299,1,93.5000028533936,10|0,0:0|0:0,0:0:0:0:
193,226,195263,2,0,P|189:283|209:328,1,93.5000028533936,2|0,0:0|0:0,0:0:0:0:
275,266,195539,1,10,0:0:0:0:
192,141,195676,6,0,P|103:137|34:215,1,187.000005706787,6|0,0:0|0:0,0:0:0:0:
281,360,196089,2,0,L|350:358,2,62.3333352355958,8|0|0,0:0|0:0|0:0,0:0:0:0:
214,313,196364,2,0,B|203:266|203:266|216:213,1,93.5000028533936,2|2,0:0|0:0,0:0:0:0:
414,219,196640,2,0,B|425:266|425:266|414:309,1,93.5000028533936,8|2,0:0|0:0,0:0:0:0:
133,224,196915,6,0,P|81:229|20:250,1,93.5000028533936,2|0,0:0|0:0,0:0:0:0:
272,144,197190,2,0,P|324:149|385:170,1,93.5000028533936,10|0,0:0|0:0,0:0:0:0:
165,40,197465,2,0,P|113:45|52:66,1,93.5000028533936,2|0,0:0|0:0,0:0:0:0:
266,241,197740,5,10,0:0:0:0:
426,72,197878,2,0,P|472:105|483:240,1,187.000005706787,6|0,0:0|0:0,0:0:0:0:
268,73,198291,2,0,L|273:3,2,62.3333352355958,8|0|0,0:0|0:0|0:0,0:0:0:0:
219,140,198566,2,0,P|177:146|114:138,1,93.5000028533936,2|2,0:0|0:0,0:0:0:0:
325,197,198841,2,0,P|367:203|430:195,1,93.5000028533936,8|2,0:0|0:0,0:0:0:0:
233,357,199117,6,0,P|275:308|399:301,1,187.000005706787,6|8,0:0|0:0,0:0:0:0:
196,204,199529,2,0,P|132:147|16:162,1,187.000005706787,2|0,0:0|0:0,0:0:0:0:
325,80,199942,5,8,0:0:0:0:
254,3,200080,2,0,P|222:59|286:180,1,187.000005706787,6|0,0:0|0:0,0:0:0:0:
472,267,200493,2,0,P|413:228|365:228,1,93.5000028533936,4|0,0:2|0:0,0:0:0:0:
157,289,200768,1,2,0:0:0:0:
251,363,200906,2,0,P|260:311|246:262,1,93.5000028533936,2|0,0:0|0:0,0:0:0:0:
29,258,201181,6,0,P|72:193|188:181,1,187.000005706787,6|0,0:0|0:0,0:0:0:0:
403,140,201594,2,0,P|406:93|396:42,1,93.5000028533936,4|0,0:2|0:0,0:0:0:0:
282,206,201869,1,2,0:0:0:0:
346,257,202007,2,0,P|343:304|353:355,1,93.5000028533936,2|0,0:0|0:0,0:0:0:0:
512,214,202282,6,0,L|392:222,1,93.5000028533936,6|0,0:0|0:0,0:0:0:0:
230,311,202557,1,2,0:0:0:0:
181,248,202695,2,0,P|171:189|181:148,1,93.5000028533936,2|0,0:0|0:0,0:0:0:0:
385,66,202970,1,2,0:0:0:0:
305,13,203107,2,0,P|299:67|309:118,1,93.5000028533936,2|0,0:0|0:0,0:0:0:0:
448,324,203383,6,0,P|394:248|293:231,1,187.000005706787,6|0,0:0|0:0,0:0:0:0:
168,360,203796,1,2,0:0:0:0:
75,213,203933,1,0,0:0:0:0:
195,213,204071,5,2,0:0:0:0:
38,361,204208,1,2,0:0:0:0:
240,278,204346,1,0,0:0:0:0:
12,284,204484,2,0,P|1:233|31:86,1,187.000005706787,6|0,0:0|0:0,0:0:0:0:
188,116,204896,5,8,0:0:0:0:
118,40,205034,1,0,0:0:0:0:
165,229,205172,1,2,0:0:0:0:
305,109,205309,1,2,0:0:0:0:
408,245,205447,5,8,0:0:0:0:
281,201,205585,1,2,0:0:0:0:
296,336,205722,2,0,P|311:306|322:278,2,62.3333352355958,6|2|2,0:0|2:0|2:0,0:0:0:0:
477,159,205997,2,0,P|419:169|395:179,2,62.3333352355958,8|2|2,0:0|2:0|2:0,0:0:0:0:
224,79,206273,2,0,P|248:116|272:143,2,62.3333352355958,2|2|2,0:0|2:0|2:0,0:0:0:0:
395,241,206548,6,0,P|446:247|480:247,2,62.3333352355958,10|2|2,0:0|2:0|2:0,0:0:0:0:
274,225,206823,2,0,P|234:227|186:226,2,62.3333352355958,6|2|2,0:0|2:0|2:0,0:0:0:0:
352,139,207098,2,0,P|357:105|361:69,2,62.3333352355958,10|2|2,0:0|2:0|2:0,0:0:0:0:
240,318,207374,6,0,L|136:322,1,93.5000028533936,2|0,0:0|0:0,0:0:0:0:
9,200,207649,1,10,0:0:0:0:
76,368,207786,1,10,0:0:0:0:
253,233,207924,6,0,P|268:161|220:24,1,187.000005706787,4|8,0:2|0:0,0:0:0:0:
21,19,208337,2,0,P|-6:107|8:199,1,187.000005706787,4|0,0:2|0:0,0:0:0:0:
112,253,208750,1,10,0:0:0:0:
171,134,208887,6,0,P|132:125|65:82,2,93.5000028533936,6|0|8,0:0|0:0|0:0,0:0:0:0:
359,173,209300,2,0,P|394:150|437:104,1,93.5000028533936,8|0,0:0|0:0,0:0:0:0:
210,275,209575,2,0,P|143:255|106:231,1,93.5000028533936,2|0,0:0|0:0,0:0:0:0:
329,357,209851,2,0,P|405:339|452:315,1,93.5000028533936,10|0,0:0|0:0,0:0:0:0:
269,194,210126,5,2,0:0:0:0:
338,48,210263,1,10,0:0:0:0:
149,50,210401,2,0,P|188:85|230:103,1,93.5000028533936,10|0,0:0|0:0,0:0:0:0:
55,178,210676,2,0,P|65:124|57:75,1,93.5000028533936,2|2,0:0|0:0,0:0:0:0:
269,194,210951,1,8,0:0:0:0:
187,204,211089,6,0,P|120:230|96:341,1,187.000005706787,6|8,0:0|0:0,0:0:0:0:
242,109,211502,2,0,L|236:-11,1,93.5000028533936,10|0,0:0|0:0,0:0:0:0:
242,275,211777,2,0,L|236:395,1,93.5000028533936,2|2,0:0|0:0,0:0:0:0:
474,211,212052,1,8,0:0:0:0:
269,194,212190,1,8,0:0:0:0:
269,194,212259,1,0,0:0:0:0:
269,194,212328,1,4,0:0:0:0:
448,124,212465,5,8,0:0:0:0:
306,267,212603,1,4,0:2:0:0:
361,96,212740,5,8,0:0:0:0:
384,296,212878,1,4,0:2:0:0:
264,99,213016,5,8,0:0:0:0:
482,303,213153,1,4,0:2:0:0:
410,27,213291,5,4,0:0:0:0:
410,27,213979,1,2,2:3:0:0:
410,27,214529,1,2,2:3:0:0:
410,27,215080,2,0,B|397:79|397:79|412:144,1,93.5000028533936
466,170,215355,1,0,0:0:0:0:
337,353,215493,5,4,0:0:0:0:
337,353,216181,1,0,2:3:0:0:
337,353,216731,1,0,2:0:0:0:
263,334,217007,1,2,2:3:0:0:
194,315,217282,2,0,B|182:269|182:269|194:213,1,93.5000028533936
129,56,217557,1,0,0:0:0:0:
232,61,217695,6,0,P|225:132|102:168,1,187.000005706787,6|2,0:0|0:0,0:0:0:0:
101,172,218039,1,0,0:0:0:0:
74,162,218107,2,0,P|61:213|66:260,1,93.5000028533936,10|0,0:0|0:0,0:0:0:0:
65,253,218314,1,0,0:0:0:0:
65,253,218383,1,2,0:0:0:0:
294,289,218520,1,2,0:0:0:0:
146,328,218658,1,10,0:0:0:0:
258,374,218796,5,2,0:0:0:0:
250,144,218933,1,2,0:0:0:0:
374,221,219071,5,0,0:0:0:0:
171,192,219208,1,10,0:0:0:0:
350,49,219346,6,0,P|344:111|349:155,1,93.5000028533936,2|0,0:0|0:0,0:0:0:0:
493,223,219621,2,0,P|495:176|489:130,1,93.5000028533936,2|8,0:0|0:0,0:0:0:0:
287,344,219896,2,0,P|359:347|436:253,1,187.000005706787,6|2,0:0|0:0,0:0:0:0:
287,219,220309,2,0,L|185:232,1,93.5000028533936,10|0,0:0|0:0,0:0:0:0:
51,316,220585,1,2,0:0:0:0:
165,142,220722,1,0,0:0:0:0:
142,343,220860,1,10,0:0:0:0:
73,149,220997,1,2,0:0:0:0:
378,32,221135,6,0,P|335:110|234:116,1,187.000005706787,6|8,0:0|0:0,0:0:0:0:
13,9,221548,2,0,P|56:87|157:93,1,187.000005706787,6|0,0:0|0:0,0:0:0:0:
356,302,221961,5,8,0:0:0:0:
483,205,222098,2,0,L|286:221,1,187.000005706787,6|2,0:0|0:0,0:0:0:0:
271,206,222442,1,0,0:0:0:0:
248,189,222511,2,0,B|235:241|235:241|254:301,1,93.5000028533936,8|0,0:0|0:0,0:0:0:0:
228,300,222718,1,0,0:0:0:0:
241,324,222786,2,0,B|284:347|284:347|337:342,1,93.5000028533936,10|0,0:0|0:0,0:0:0:0:
351,360,222993,1,0,0:0:0:0:
377,369,223062,2,0,B|396:324|396:324|392:269,1,93.5000028533936,10|10,0:0|0:0,0:0:0:0:
407,255,223268,1,0,0:0:0:0:
422,231,223337,6,0,B|383:206|383:206|326:208,1,93.5000028533936,6|0,0:0|0:0,0:0:0:0:
321,183,223543,1,0,0:0:0:0:
303,160,223612,2,0,B|272:199|272:199|273:246,1,93.5000028533936,10|0,0:0|0:0,0:0:0:0:
250,259,223818,1,0,0:0:0:0:
228,277,223887,2,0,B|261:311|261:311|318:315,1,93.5000028533936,2|10,0:0|0:0,0:0:0:0:
324,337,224094,1,0,0:0:0:0:
345,355,224163,2,0,B|364:314|364:314|357:260,1,93.5000028533936,10|0,0:0|0:0,0:0:0:0:
224,87,224438,6,0,L|153:94,2,62.3333352355958,4|0|0,0:0|0:0|0:0,0:0:0:0:
287,50,224713,2,0,L|358:57,2,62.3333352355958,10|0|0,0:0|0:0|0:0,0:0:0:0:
214,176,224988,6,0,L|129:167,2,62.3333352355958,0|2|0,0:0|0:0|0:0,0:0:0:0:
306,197,225263,2,0,L|391:188,2,62.3333352355958,8|0|0,0:0|0:0|0:0,0:0:0:0:
179,254,225539,6,0,L|94:245,2,62.3333352355958,2|0|0,0:0|0:0|0:0,0:0:0:0:
326,287,225814,2,0,L|411:278,2,62.3333352355958,8|2|0,0:0|0:0|0:0,0:0:0:0:
157,347,226089,6,0,L|66:338,2,62.3333352355958,10|2|0,0:0|0:0|0:0,0:0:0:0:
331,372,226364,2,0,L|416:363,2,62.3333352355958,8|2|0,0:0|0:0|0:0,0:0:0:0:
250,276,226640,6,0,B|272:174|212:193|237:86,1,187.000005706787,6|10,0:0|0:0,0:0:0:0:
391,73,227052,1,0,0:0:0:0:
321,22,227190,2,0,P|313:84|323:127,1,93.5000028533936,2|2,0:0|0:0,0:0:0:0:
440,146,227465,1,8,0:0:0:0:
235,29,227603,6,0,L|127:41,1,93.5000028533936,2|0,0:0|0:0,0:0:0:0:
29,157,227878,1,2,0:0:0:0:
162,274,228016,2,0,P|169:225|153:152,1,93.5000028533936,10|0,0:0|0:0,0:0:0:0:
86,98,228291,1,0,0:0:0:0:
37,258,228429,5,2,0:0:0:0:
172,363,228566,1,10,0:0:0:0:
290,251,228704,2,0,P|311:186|246:59,1,187.000005706787,6|0,0:0|0:0,0:0:0:0:
96,187,229117,2,0,L|199:178,1,93.5000028533936,10|0,0:0|0:0,0:0:0:0:
463,239,229392,1,2,0:0:0:0:
383,362,229529,2,0,P|368:318|364:268,1,93.5000028533936,0|8,0:0|0:0,0:0:0:0:
169,280,229805,5,2,0:0:0:0:
209,349,229942,2,0,P|257:306|281:162,1,187.000005706787,6|8,0:0|0:0,0:0:0:0:
23,55,230355,2,0,P|38:145|101:213,1,187.000005706787,2|0,0:0|0:0,0:0:0:0:
378,135,230768,5,10,0:0:0:0:
349,52,230906,2,0,P|256:56|182:110,1,187.000005706787,6|0,0:0|0:0,0:0:0:0:
376,224,231318,2,0,P|405:260|423:320,1,93.5000028533936,10|0,0:0|0:0,0:0:0:0:
250,358,231594,1,2,0:0:0:0:
128,241,231731,2,0,P|177:212|226:206,1,93.5000028533936,2|8,0:0|0:0,0:0:0:0:
127,93,232007,6,0,P|176:152|305:155,1,187.000005706787,6|0,0:0|0:0,0:0:0:0:
487,190,232419,2,0,P|486:138|482:89,1,93.5000028533936,10|0,0:0|0:0,0:0:0:0:
316,27,232695,1,2,0:0:0:0:
295,241,232832,2,0,P|294:303|299:345,1,93.5000028533936,2|8,0:0|0:0,0:0:0:0:
375,154,233107,6,0,P|326:213|197:216,1,187.000005706787,6|0,0:0|0:0,0:0:0:0:
108,102,233520,2,0,P|170:94|211:103,1,93.5000028533936,10|0,0:0|0:0,0:0:0:0:
413,235,233796,1,2,0:0:0:0:
196,341,233933,2,0,P|149:346|103:338,1,93.5000028533936,2|8,0:0|0:0,0:0:0:0:
26,177,234208,6,0,P|72:216|204:218,1,187.000005706787,6|0,0:0|0:0,0:0:0:0:
327,343,234621,1,10,0:0:0:0:
481,208,234759,2,0,P|482:158|466:111,1,93.5000028533936,2|0,0:0|0:0,0:0:0:0:
323,208,235034,1,0,0:0:0:0:
297,26,235172,1,0,0:0:0:0:
369,108,235309,6,0,B|264:133|287:79|159:90,1,187.000005706787,6|0,0:0|0:0,0:0:0:0:
31,179,235722,2,0,B|26:231|26:231|35:276,1,93.5000028533936,10|0,0:0|0:0,0:0:0:0:
114,365,235997,1,2,0:0:0:0:
205,326,236135,2,0,B|212:282|212:282|203:211,1,93.5000028533936,2|8,0:0|0:0,0:0:0:0:
134,105,236410,6,0,P|173:175|291:190,1,187.000005706787,2|0,0:0|0:0,0:0:0:0:
247,22,236823,2,0,P|245:78|256:135,1,93.5000028533936,10|0,0:0|0:0,0:0:0:0:
389,275,237098,1,0,0:0:0:0:
451,203,237236,5,2,0:0:0:0:
343,91,237374,1,10,0:0:0:0:
203,180,237511,2,0,P|187:253|209:371,1,187.000005706787,6|0,0:0|0:0,0:0:0:0:
420,298,237924,2,0,P|367:290|310:295,1,93.5000028533936,10|0,0:0|0:0,0:0:0:0:
276,358,238199,1,2,0:0:0:0:
366,208,238337,2,0,P|372:161|356:97,1,93.5000028533936,2|8,0:0|0:0,0:0:0:0:
225,35,238612,1,2,0:0:0:0:
52,164,238750,6,0,P|139:184|241:137,1,187.000005706787,6|8,0:0|0:0,0:0:0:0:
461,230,239163,2,0,P|374:250|272:203,1,187.000005706787,2|0,0:0|0:0,0:0:0:0:
163,87,239575,1,10,0:0:0:0:
359,22,239713,2,0,P|365:74|358:128,1,93.5000028533936,6|0,0:0|0:0,0:0:0:0:
203,253,239988,5,2,0:0:0:0:
300,363,240126,1,10,0:0:0:0:
434,304,240263,1,0,0:0:0:0:
331,195,240401,1,2,0:0:0:0:
262,153,240539,2,0,P|256:106|263:58,1,93.5000028533936,2|8,0:0|0:0,0:0:0:0:
512,127,240814,6,0,P|473:209|390:249,1,187.000005706787,2|0,0:0|0:0,0:0:0:0:
200,224,241227,2,0,P|190:288|205:340,1,93.5000028533936,10|0,0:0|0:0,0:0:0:0:
39,174,241502,1,2,0:0:0:0:
163,113,241640,2,0,L|57:102,1,93.5000028533936,2|8,0:0|0:0,0:0:0:0:
186,23,241915,6,0,P|201:88|311:134,1,187.000005706787,6|0,0:0|0:0,0:0:0:0:
470,206,242328,2,0,L|361:217,1,93.5000028533936,10|0,0:0|0:0,0:0:0:0:
80,263,242603,2,0,L|189:274,1,93.5000028533936,2|0,0:0|0:0,0:0:0:0:
259,369,242878,5,10,0:0:0:0:
256,118,243016,1,4,0:0:0:0:
256,118,243429,5,2,2:3:0:0:
256,118,243704,2,0,L|264:272,1,148.75,4|0,0:0|2:0,0:0:0:0:
194,336,244254,6,0,B|181:298|181:298|189:248,1,85,6|0,0:0|0:0,0:0:0:0:
335,243,244529,2,0,B|348:281|348:281|340:331,1,85,2|0,1:2|0:0,0:0:0:0:
166,183,244805,2,0,L|66:196,1,85,2|0,0:2|0:0,0:0:0:0:
336,115,245080,2,0,L|436:128,1,85,2|0,0:2|0:0,0:0:0:0:
210,33,245355,5,2,0:0:0:0:
265,186,245493,1,0,0:0:0:0:
303,28,245630,1,2,0:0:0:0:
190,136,245768,2,0,P|181:177|192:227,1,85,2|0,0:0|0:0,0:0:0:0:
273,329,246043,1,2,0:0:0:0:
420,261,246181,2,0,L|321:243,1,85,2|0,0:0|0:0,0:0:0:0:
39,335,246456,6,0,P|123:300|214:297,1,170,6|0,0:0|0:0,0:0:0:0:
512,372,246869,2,0,P|428:337|337:334,1,170,2|0,0:0|0:0,0:0:0:0:
262,233,247282,2,0,P|259:175|264:124,1,85,2|0,0:0|0:0,0:0:0:0:
282,50,247557,6,0,P|240:121|140:128,1,170,4|10,0:2|0:0,0:0:0:0:
383,103,247970,2,0,P|425:174|525:181,1,170,4|2,0:2|0:0,0:0:0:0:
319,296,248383,1,10,0:0:0:0:
463,368,248520,1,4,0:2:0:0:
312,208,248658,6,0,P|308:174|314:102,1,85,6|0,0:0|0:0,0:0:0:0:
197,248,248933,2,0,P|201:214|195:142,1,85,2|0,0:2|0:0,0:0:0:0:
326,40,249208,2,0,L|226:37,1,85,2|0,0:2|0:0,0:0:0:0:
92,90,249484,2,0,L|192:87,1,85,2|0,0:2|0:0,0:0:0:0:
77,177,249759,6,0,P|22:218|30:325,1,170,6|0,0:0|0:0,0:0:0:0:
324,352,250172,2,0,P|330:270|268:216,1,170,2|0,0:0|0:0,0:0:0:0:
114,280,250585,1,2,0:0:0:0:
230,365,250722,1,0,0:0:0:0:
177,127,250860,6,0,B|170:176|170:176|181:233,1,85,2|0,0:0|0:0,0:0:0:0:
406,265,251135,2,0,B|415:225|415:225|404:182,1,85,2|0,0:2|0:0,0:0:0:0:
242,290,251410,1,2,0:2:0:0:
67,178,251548,1,0,0:0:0:0:
246,91,251685,1,2,0:2:0:0:
404,182,251823,1,0,0:0:0:0:
132,250,251961,5,4,0:2:0:0:
132,250,252098,1,8,0:0:0:0:
196,154,252236,1,4,0:2:0:0:
163,356,252374,1,10,0:0:0:0:
13,248,252511,1,2,0:0:0:0:
69,135,252649,5,8,0:0:0:0:
250,251,252786,1,4,0:2:0:0:
54,351,252924,1,10,0:0:0:0:
202,109,253062,6,0,P|258:103|326:195,1,170,6|2,0:0|0:2,0:0:0:0:
461,199,253474,1,2,0:2:0:0:
294,267,253612,1,2,0:2:0:0:
364,291,253750,1,0,0:0:0:0:
285,282,253887,1,2,0:2:0:0:
356,317,254025,1,2,0:2:0:0:
349,222,254163,5,6,0:0:0:0:
186,328,254300,1,0,0:0:0:0:
272,372,254438,1,2,0:0:0:0:
260,184,254575,1,2,0:0:0:0:
161,219,254713,5,0,0:0:0:0:
371,342,254851,1,2,0:0:0:0:
246,271,254988,5,2,0:0:0:0:
58,329,255126,1,2,0:0:0:0:
97,107,255263,6,0,P|99:203|159:255,1,170,6|0,0:0|0:0,0:0:0:0:
356,366,255676,2,0,P|411:304|408:222,1,170,2|0,0:0|0:0,0:0:0:0:
454,34,256089,2,0,P|387:42|363:65,1,85,2|0,0:0|0:0,0:0:0:0:
201,102,256364,6,0,P|259:120|286:118,1,85,4|0,0:2|0:0,0:0:0:0:
475,168,256640,1,8,0:0:0:0:
346,200,256777,2,0,P|303:200|264:216,1,85,4|0,0:2|0:0,0:0:0:0:
21,244,257052,1,8,0:0:0:0:
150,276,257190,2,0,P|192:276|231:292,1,85,4|8,0:2|0:0,0:0:0:0:
450,260,257465,6,0,P|358:291|317:371,1,170,6|2,0:0|0:2,0:0:0:0:
274,236,257878,1,2,0:2:0:0:
68,188,258016,1,4,0:2:0:0:
212,323,258153,1,2,0:0:0:0:
173,140,258291,1,10,0:0:0:0:
163,166,258429,1,0,0:0:0:0:
14,273,258566,6,0,P|106:304|147:384,1,170,6|2,0:0|0:2,0:0:0:0:
190,249,258979,1,2,0:2:0:0:
424,195,259117,1,4,0:2:0:0:
264,349,259254,1,2,0:0:0:0:
305,133,259392,1,8,0:0:0:0:
315,159,259530,1,0,0:0:0:0:
476,339,259667,6,0,L|499:147,1,170,6|0,0:0|0:0,0:0:0:0:
205,52,260080,1,0,0:0:0:0:
205,52,260149,1,0,0:0:0:0:
205,52,260218,2,0,L|225:220,1,170,6|0,0:0|0:0,0:0:0:0:
347,336,260630,5,0,0:0:0:0:
347,336,260699,1,0,0:0:0:0:
347,336,260768,2,0,P|304:358|249:361,1,85,4|0,0:2|0:0,0:0:0:0:
53,242,261043,1,8,0:0:0:0:
123,309,261181,1,8,0:0:0:0:
123,309,261250,1,0,0:0:0:0:
123,309,261318,2,0,P|161:317|217:304,1,85,4|0,0:2|0:0,0:0:0:0:
373,193,261594,1,8,0:0:0:0:
194,121,261731,1,8,0:0:0:0:
263,221,261869,5,4,0:0:0:0:
278,256,261938,1,0,0:0:0:0:
310,276,262007,1,0,0:0:0:0:
347,279,262075,1,0,0:0:0:0:
383,266,262144,1,0,0:0:0:0:
420,257,262213,1,0,0:0:0:0:
456,268,262282,1,0,0:0:0:0:
475,301,262351,1,0,0:0:0:0:
468,338,262419,5,0,0:0:0:0:
445,326,262488,1,0,0:0:0:0:
423,325,262557,1,0,0:0:0:0:
407,330,262626,1,0,0:0:0:0:
393,340,262695,1,8,0:0:0:0:
324,362,262832,1,0,0:0:0:0:
324,362,262901,1,0,0:0:0:0:
324,362,262970,6,0,P|285:360|251:352,1,63.7500024318696,2|0,0:1|0:0,0:0:0:0:
200,312,263245,2,0,L|137:321,1,63.7500024318696,2|0,0:1|0:0,0:0:0:0:
65,347,263520,2,0,B|59:316|59:316|61:276,1,63.7500024318696,2|0,0:1|0:0,0:0:0:0:
8,226,263796,1,2,0:1:0:0:
109,64,263933,6,0,P|192:128|170:208,1,187.000005706787,6|0,0:0|0:0,0:0:0:0:
14,131,264346,1,8,0:0:0:0:
237,42,264484,1,0,0:0:0:0:
241,253,264621,2,0,P|242:311|238:360,1,93.5000028533936,2|2,0:0|0:0,0:0:0:0:
116,227,264896,1,8,0:0:0:0:
287,137,265034,1,2,0:0:0:0:
402,276,265172,6,0,P|360:251|304:203,1,93.5000028533936,6|0,0:0|0:0,0:0:0:0:
203,21,265447,2,0,P|216:72|214:118,1,93.5000028533936,10|0,0:0|0:0,0:0:0:0:
68,289,265722,2,0,P|114:264|166:250,1,93.5000028533936,2|0,0:0|0:0,0:0:0:0:
367,143,265997,5,10,0:0:0:0:
340,70,266135,2,0,P|278:107|248:224,1,187.000005706787,6|0,0:0|0:0,0:0:0:0:
374,356,266548,1,8,0:0:0:0:
491,215,266685,1,0,0:0:0:0:
354,222,266823,1,2,0:0:0:0:
507,355,266961,1,2,0:0:0:0:
444,149,267098,2,0,P|441:103|452:47,1,93.5000028533936,8|2,0:0|0:0,0:0:0:0:
177,31,267374,6,0,P|246:75|269:183,1,187.000005706787,6|8,0:0|0:0,0:0:0:0:
37,305,267786,2,0,P|23:224|88:134,1,187.000005706787,6|0,0:0|0:0,0:0:0:0:
398,257,268199,5,8,0:0:0:0:
368,330,268337,2,0,P|316:353|196:310,1,187.000005706787,6|0,0:0|0:0,0:0:0:0:
363,160,268750,2,0,P|415:162|459:175,1,93.5000028533936,4|0,0:2|0:0,0:0:0:0:
318,269,269025,1,2,0:0:0:0:
286,126,269163,2,0,L|279:6,1,93.5000028533936,2|0,0:0|0:0,0:0:0:0:
57,198,269438,6,0,P|116:193|183:87,1,187.000005706787,6|0,0:0|0:0,0:0:0:0:
182,251,269851,2,0,P|180:308|192:354,1,93.5000028533936,4|0,0:2|0:0,0:0:0:0:
421,287,270126,1,2,0:0:0:0:
361,225,270263,2,0,L|266:236,1,93.5000028533936,2|0,0:0|0:0,0:0:0:0:
382,26,270539,6,0,P|433:72|436:213,1,187.000005706787,6|2,0:0|0:0,0:0:0:0:
250,114,270951,2,0,P|246:67|259:-9,1,93.5000028533936,4|0,0:2|0:0,0:0:0:0:
348,180,271227,1,2,0:0:0:0:
179,194,271364,2,0,P|176:244|187:287,1,93.5000028533936,2|0,0:0|0:0,0:0:0:0:
265,363,271640,6,0,P|198:320|78:345,1,187.000005706787,6|0,0:0|0:0,0:0:0:0:
305,272,272052,2,0,P|338:258|405:262,1,93.5000028533936,2|0,0:0|0:0,0:0:0:0:
498,134,272328,2,0,P|433:168|308:138,1,187.000005706787,2|0,0:0|0:0,0:0:0:0:
63,64,272740,6,0,P|128:98|253:68,1,187.000005706787,6|0,0:0|0:0,0:0:0:0:
253,239,273153,1,10,0:0:0:0:
341,71,273291,1,0,0:0:0:0:
162,208,273429,5,2,0:0:0:0:
226,363,273566,1,2,0:0:0:0:
376,316,273704,1,8,0:0:0:0:
313,158,273841,1,10,0:0:0:0:
78,244,273979,6,0,P|137:288|257:250,1,187.000005706787,6|8,0:0|0:0,0:0:0:0:
507,124,274392,2,0,P|429:76|343:102,1,187.000005706787,2|0,0:0|0:0,0:0:0:0:
182,198,274805,1,10,0:0:0:0:
318,366,274942,2,0,L|331:168,1,187.000005706787,6|0,0:0|0:0,0:0:0:0:
200,38,275355,5,10,0:0:0:0:
41,174,275493,1,0,0:0:0:0:
240,233,275630,1,0,0:0:0:0:
161,134,275768,1,2,0:0:0:0:
206,338,275906,5,8,0:0:0:0:
386,224,276043,1,10,0:0:0:0:
261,38,276181,2,0,P|235:98|265:224,1,187.000005706787,6|8,0:0|0:0,0:0:0:0:
465,347,276594,2,0,P|490:258|461:171,1,187.000005706787,6|0,0:0|0:0,0:0:0:0:
335,96,277007,1,8,0:0:0:0:
157,243,277144,6,0,P|154:292|162:346,1,93.5000028533936,6|0,0:0|0:0,0:0:0:0:
339,365,277419,1,2,0:0:0:0:
373,295,277557,2,0,P|375:234|371:175,1,93.5000028533936,10|0,0:0|0:0,0:0:0:0:
212,89,277832,1,2,0:0:0:0:
265,253,277970,1,2,0:0:0:0:
327,24,278107,2,0,P|325:82|327:129,1,93.5000028533936,8|2,0:0|0:0,0:0:0:0:
501,262,278383,6,0,P|494:190|383:136,1,187.000005706787,6|8,0:0|0:0,0:0:0:0:
230,349,278796,2,0,P|277:356|335:339,1,93.5000028533936,2|0,0:0|0:0,0:0:0:0:
309,194,279071,2,0,P|263:183|217:190,1,93.5000028533936,2|8,0:0|0:0,0:0:0:0:
128,59,279346,6,0,P|72:131|97:237,1,187.000005706787,6|0,0:0|0:0,0:0:0:0:
269,279,279759,2,0,L|376:267,1,93.5000028533936,10|0,0:0|0:0,0:0:0:0:
481,264,280034,1,2,0:0:0:0:
230,355,280172,2,0,L|125:348,1,93.5000028533936,2|8,0:0|0:0,0:0:0:0:
28,319,280447,1,10,0:0:0:0:
266,197,280585,6,0,P|269:143|261:80,1,93.5000028533936,6|0,0:0|0:0,0:0:0:0:
33,51,280860,2,0,P|29:97|32:144,1,93.5000028533936,10|0,0:0|0:0,0:0:0:0:
151,273,281135,2,0,P|154:219|146:156,1,93.5000028533936,2|0,0:0|0:0,0:0:0:0:
344,112,281410,1,10,0:0:0:0:
348,18,281548,6,0,P|284:39|261:152,1,187.000005706787,6|0,0:0|0:0,0:0:0:0:
442,220,281961,2,0,L|514:208,2,62.3333352355958,10|0|0,0:0|0:0|0:0,0:0:0:0:
366,243,282236,2,0,B|357:292|357:292|368:343,1,93.5000028533936,2|2,0:0|0:0,0:0:0:0:
505,306,282511,1,8,0:0:0:0:
351,157,282649,1,2,0:0:0:0:
172,226,282786,6,0,L|280:210,1,93.5000028533936,6|0,0:0|0:0,0:0:0:0:
511,136,283062,2,0,L|403:120,1,93.5000028533936,10|0,0:0|0:0,0:0:0:0:
178,55,283337,2,0,L|286:39,1,93.5000028533936,2|0,0:0|0:0,0:0:0:0:
390,28,283612,1,10,0:0:0:0:
77,93,283750,6,0,P|40:145|61:263,1,187.000005706787,6|0,0:0|0:0,0:0:0:0:
169,361,284163,1,10,0:0:0:0:
302,295,284300,1,0,0:0:0:0:
180,197,284438,5,2,0:0:0:0:
197,282,284575,1,2,0:0:0:0:
279,220,284713,5,8,0:0:0:0:
251,113,284851,1,2,0:0:0:0:
364,35,284988,6,0,P|405:93|374:231,1,187.000005706787,6|8,0:0|0:0,0:0:0:0:
106,334,285401,2,0,P|59:255|75:164,1,187.000005706787,2|0,0:0|0:0,0:0:0:0:
338,158,285814,5,10,0:0:0:0:
305,244,285951,2,0,P|244:277|133:240,1,187.000005706787,6|0,0:0|0:0,0:0:0:0:
215,95,286364,2,0,P|223:146|220:199,1,93.5000028533936,4|0,0:2|0:0,0:0:0:0:
344,356,286640,1,2,0:0:0:0:
494,314,286777,2,0,L|398:309,1,93.5000028533936,2|0,0:0|0:0,0:0:0:0:
341,87,287052,6,0,P|430:118|443:229,1,187.000005706787,6|0,0:0|0:0,0:0:0:0:
232,363,287465,2,0,P|228:306|234:257,1,93.5000028533936,4|0,0:2|0:0,0:0:0:0:
58,142,287740,1,2,0:0:0:0:
240,167,287878,2,0,L|136:173,1,93.5000028533936,2|0,0:0|0:0,0:0:0:0:
5,341,288153,6,0,P|58:347|136:250,1,187.000005706787,6|2,0:0|0:0,0:0:0:0:
343,111,288566,2,0,P|342:61|336:15,1,93.5000028533936,4|0,0:2|0:0,0:0:0:0:
246,256,288841,1,2,0:0:0:0:
148,103,288979,2,0,P|149:53|155:7,1,93.5000028533936,2|0,0:0|0:0,0:0:0:0:
330,210,289254,6,0,P|431:217|487:275,1,187.000005706787,6|0,0:0|0:0,0:0:0:0:
236,193,289667,2,0,P|232:151|236:89,1,93.5000028533936,4|0,0:2|0:0,0:0:0:0:
248,24,289942,1,2,0:0:0:0:
349,132,290080,1,0,0:0:0:0:
241,272,290218,1,2,0:0:0:0:
136,147,290355,6,0,P|70:169|25:280,1,187.000005706787,6|0,0:0|0:0,0:0:0:0:
192,359,290768,1,10,0:0:0:0:
142,235,290906,1,0,0:0:0:0:
77,332,291043,1,0,0:0:0:0:
249,255,291181,1,2,0:0:0:0:
434,232,291318,5,10,0:0:0:0:
262,155,291456,1,2,0:0:0:0:
405,44,291594,2,0,L|378:119,2,62.3333352355958,6|2|2,0:0|2:0|2:0,0:0:0:0:
172,228,291869,2,0,L|245:222,2,62.3333352355958,8|2|2,0:0|2:0|2:0,0:0:0:0:
429,360,292144,2,0,L|394:301,2,62.3333352355958,2|2|2,0:0|2:0|2:0,0:0:0:0:
298,286,292419,6,0,L|260:340,2,62.3333352355958,10|2|2,0:0|2:0|2:0,0:0:0:0:
437,195,292695,2,0,L|501:195,2,62.3333352355958,6|2|2,0:0|2:0|2:0,0:0:0:0:
271,114,292970,2,0,L|226:66,2,62.3333352355958,8|2|2,0:0|2:0|2:0,0:0:0:0:
339,186,293245,5,2,0:0:0:0:
379,74,293383,1,0,0:0:0:0:
214,202,293520,1,10,0:0:0:0:
409,291,293658,1,10,0:0:0:0:
409,291,293727,1,0,0:0:0:0:
409,291,293796,1,6,0:0:0:0:
316,22,293933,5,8,0:0:0:0:
256,67,294071,1,4,0:2:0:0:
181,71,294208,1,8,0:0:0:0:
107,56,294346,1,4,0:2:0:0:
40,91,294484,1,8,0:0:0:0:
19,162,294621,1,4,0:2:0:0:
118,337,294759,6,0,L|105:146,1,187.000005706787,6|0,0:0|0:0,0:0:0:0:
332,199,295172,1,10,0:0:0:0:
195,221,295309,1,0,0:0:0:0:
314,104,295447,1,2,0:0:0:0:
473,211,295585,5,2,0:0:0:0:
461,302,295722,1,8,0:0:0:0:
444,219,295860,1,10,0:0:0:0:
489,313,295997,2,0,L|375:308,1,93.5000028533936,2|0,0:0|0:0,0:0:0:0:
228,353,296273,2,0,P|277:357|341:332,1,93.5000028533936,8|2,0:0|0:0,0:0:0:0:
375,166,296548,5,0,0:0:0:0:
265,123,296685,1,2,0:0:0:0:
224,231,296823,1,10,0:0:0:0:
333,261,296961,1,10,0:0:0:0:
512,91,297098,6,0,P|449:55|331:96,1,187.000005706787,6|8,0:0|0:0,0:0:0:0:
152,171,297511,1,2,0:0:0:0:
255,345,297649,2,0,L|265:245,1,93.5000028533936,0|2,0:0|0:0,0:0:0:0:
237,23,297924,2,0,L|246:116,1,93.5000028533936,10|10,0:0|0:0,0:0:0:0:
48,217,298199,6,0,P|44:121|115:52,1,187.000005706787,6|8,0:0|0:0,0:0:0:0:
362,60,298612,2,0,P|422:128|416:219,1,187.000005706787,6|2,0:0|0:0,0:0:0:0:
248,343,299025,1,10,0:0:0:0:
149,183,299163,6,0,B|249:204|220:154|341:171,1,187.000005706787,14|0,0:0|0:0,0:0:0:0:
453,346,299575,1,10,0:0:0:0:
364,282,299713,1,0,0:0:0:0:
512,267,299851,5,0,0:0:0:0:
332,359,299988,1,2,0:0:0:0:
333,163,300126,1,10,0:0:0:0:
445,217,300263,1,8,0:0:0:0:
288,235,300401,2,0,L|298:22,1,187.000005706787,6|8,0:0|0:0,0:0:0:0:
69,11,300814,2,0,L|77:197,1,187.000005706787,2|8,0:0|0:0,0:0:0:0:
164,359,301227,1,10,0:0:0:0:
383,260,301364,6,0,P|310:229|216:285,1,187.000005706787,6|0,0:0|0:0,0:0:0:0:
13,153,301777,1,10,0:0:0:0:
142,60,301915,1,0,0:0:0:0:
224,171,302052,2,0,P|156:182|116:167,1,93.5000028533936,0|2,0:0|0:0,0:0:0:0:
280,41,302328,2,0,P|325:33|370:45,1,93.5000028533936,10|8,0:0|0:0,0:0:0:0:
505,47,302603,6,0,P|419:57|361:137,1,187.000005706787,2|8,0:0|0:0,0:0:0:0:
252,258,303016,1,2,0:0:0:0:
399,341,303153,2,0,P|401:297|396:231,1,93.5000028533936,4|2,0:2|0:0,0:0:0:0:
289,118,303429,1,10,0:0:0:0:
102,263,303566,6,0,P|155:336|245:349,1,187.000005706787,6|0,0:0|0:0,0:0:0:0:
164,164,303979,2,0,L|50:155,1,93.5000028533936,10|0,0:0|0:0,0:0:0:0:
230,91,304254,1,0,0:0:0:0:
213,251,304392,1,2,0:0:0:0:
129,18,304529,1,10,0:0:0:0:
373,37,304667,1,10,0:0:0:0:
310,196,304805,6,0,P|277:130|294:17,1,187.000005706787,6|8,0:0|0:0,0:0:0:0:
489,135,305218,2,0,P|506:225|470:310,1,187.000005706787,2|0,0:0|0:0,0:0:0:0:
238,294,305630,1,10,0:0:0:0:
409,377,305768,1,8,0:0:0:0:
233,199,305906,6,0,B|130:188|154:228|37:210,1,187.000005706787,6|8,0:0|0:0,0:0:0:0:
156,337,306318,1,2,0:0:0:0:
339,228,306456,2,0,B|345:182|345:182|335:129,1,93.5000028533936,0|2,0:0|0:0,0:0:0:0:
236,22,306731,2,0,B|227:68|227:68|233:114,1,93.5000028533936,10|0,0:0|0:0,0:0:0:0:
437,237,307007,6,0,P|369:244|323:346,1,187.000005706787,6|10,0:0|0:0,0:0:0:0:
154,244,307419,1,0,0:0:0:0:
126,353,307557,2,0,L|227:340,1,93.5000028533936,2|0,0:0|0:0,0:0:0:0:
149,157,307832,1,10,0:0:0:0:
24,269,307970,1,10,0:0:0:0:
248,241,308107,6,0,P|265:167|234:43,1,187.000005706787,6|8,0:0|0:0,0:0:0:0:
83,19,308520,1,2,0:0:0:0:
88,195,308658,1,0,0:0:0:0:
172,28,308796,1,2,0:0:0:0:
24,120,308933,1,10,0:0:0:0:
174,311,309071,5,8,0:0:0:0:
340,232,309208,2,0,P|411:234|469:338,1,187.000005706787,6|8,0:0|0:0,0:0:0:0:
255,353,309621,2,0,B|232:242|283:284|250:151,1,187.000005706787,2|0,0:0|0:0,0:0:0:0:
428,51,310034,5,10,0:0:0:0:
352,156,310172,1,10,0:0:0:0:
279,35,310309,2,0,P|224:31|152:135,1,187.000005706787,6|8,0:0|0:0,0:0:0:0:
31,233,310722,1,2,0:0:0:0:
160,353,310860,2,0,L|151:229,1,93.5000028533936,0|2,0:0|0:0,0:0:0:0:
45,44,311135,2,0,L|38:137,1,93.5000028533936,10|8,0:0|0:0,0:0:0:0:
255,313,311410,6,0,P|332:330|430:280,1,187.000005706787,6|8,0:0|0:0,0:0:0:0:
244,226,311823,2,0,P|202:181|217:55,1,187.000005706787,2|0,0:0|0:0,0:0:0:0:
401,33,312236,1,8,0:0:0:0:
344,202,312374,1,8,0:0:0:0:
297,81,312511,5,4,0:2:0:0:
488,137,312649,1,8,0:0:0:0:
420,308,312786,1,8,0:0:0:0:
420,308,313062,5,4,0:2:0:0:
237,246,313199,1,8,0:0:0:0:
297,81,313337,2,0,P|312:127|303:184,1,93.5000028533936,8|0,0:0|0:0,0:0:0:0:
15,240,313612,6,0,P|47:198|222:318,1,318.75,4|0,0:0|2:0,0:0:0:0:
124,343,314713,6,0,P|116:280|126:232,1,93.5000028533936,4|8,0:0|0:0,0:0:0:0:
120,250,314919,1,0,0:0:0:0:
120,250,314988,1,8,0:0:0:0:
341,78,315126,1,4,0:2:0:0:
341,78,315195,1,0,0:0:0:0:
341,78,315263,2,0,P|352:136|346:183,1,93.5000028533936,8|8,0:0|0:0,0:0:0:0:
469,292,315539,1,4,0:2:0:0:
307,361,315676,2,0,L|196:348,1,93.5000028533936,10|0,0:0|0:0,0:0:0:0:
112,109,315951,5,8,0:0:0:0:
68,127,316020,1,0,0:0:0:0:
48,169,316089,1,0,0:0:0:0:
44,215,316158,1,0,0:0:0:0:
71,253,316227,1,0,0:0:0:0:
112,273,316296,1,0,0:0:0:0:
157,265,316364,5,4,0:2:0:0:
166,22,316502,1,6,0:0:0:0:
256,192,316571,12,0,317465,0:0:0:0:
