osu file format v12

[General]
AudioFilename: bg.mp3
AudioLeadIn: 2000
PreviewTime: 171197
Countdown: 0
SampleSet: Soft
StackLeniency: 0.7
Mode: 0
LetterboxInBreaks: 0
WidescreenStoryboard: 0

[Editor]
DistanceSpacing: 1.4
BeatDivisor: 4
GridSize: 4

[Metadata]
Title:Last Remote - Type gamma
TitleUnicode:ラストリモート - Type γ
Artist:Dark PHOENiX
ArtistUnicode:Dark PHOENiX
Creator:sjoy
Version:Lunatic
Source:Touhou
Tags:Sound-0 Phase-11 Komeiji Koishi ZUN th11 ichibannobaka [Minakami Yuki] Loneight l1106188
BeatmapID:320098
BeatmapSetID:123871

[Difficulty]
HPDrainRate:6
CircleSize:4
OverallDifficulty:8
ApproachRate:9
SliderMultiplier:2
SliderTickRate:1

[Events]
//Background and Video events
0,0,"bg.jpg",0,0
//Break Periods
2,130122,139644
//Storyboard Layer 0 (Background)
//Storyboard Layer 1 (Fail)
//Storyboard Layer 2 (Pass)
//Storyboard Layer 3 (Foreground)
//Storyboard Sound Samples
//Background Colour Transformations
3,100,163,162,255

[TimingPoints]
888,645.161290322581,4,2,1,30,1,0
21210,-100,4,2,1,60,0,0
21535,322.58064516129,4,1,1,65,1,0
31212,-100,4,1,1,70,0,0
31857,-100,4,1,1,65,0,0
41212,-100,4,1,1,60,0,0
41534,-100,4,1,1,70,0,0
41857,-100,4,1,1,60,0,0
42180,-100,4,1,1,45,0,0
44760,-100,4,1,1,50,0,0
47341,-100,4,1,1,55,0,0
49922,-100,4,1,1,60,0,0
52502,-100,4,1,1,65,0,0
55083,-100,4,1,1,70,0,0
57664,-100,4,1,1,75,0,0
60244,-100,4,1,1,80,0,0
62664,-100,4,1,1,65,0,0
62905,-100,4,2,1,60,0,0
66696,-100,4,1,1,70,0,0
67341,-100,4,1,1,65,0,0
67986,-100,4,1,1,70,0,0
97502,-100,4,1,1,5,0,0
97664,-100,4,1,1,70,0,0
98954,-100,4,1,1,65,0,0
108309,-100,4,1,1,60,0,0
108631,-100,4,1,1,70,0,0
108954,-100,4,1,1,60,0,0
109276,-100,4,1,1,65,0,0
140244,-100,4,1,1,50,0,0
142825,-100,4,1,1,55,0,0
145405,-100,4,1,1,60,0,0
147986,-100,4,1,1,65,0,0
150567,-100,4,1,1,60,0,0
153147,-100,4,1,1,65,0,0
155728,-100,4,1,1,60,0,0
158309,-100,4,1,1,65,0,0
168631,-100,4,1,1,80,0,0
168954,-100,4,1,1,85,0,0
169276,-100,4,1,1,90,0,0
169599,-100,4,1,1,95,0,0
170889,-100,4,1,1,5,0,0
171212,-200,4,2,1,65,0,0
172502,-90.9090909090909,4,1,1,70,0,1
180325,-90.9090909090909,4,1,1,5,0,1
181373,-90.9090909090909,4,1,1,70,0,1
190567,-100,4,1,1,50,0,0
191857,-100,4,1,1,70,0,0
192180,-100,4,1,1,60,0,0
192502,-100,4,1,1,70,0,0
192825,-100,4,1,1,60,0,0
193147,-90.9090909090909,4,1,1,70,0,1
211212,-100,4,1,1,50,0,0
212502,-90.9090909090909,4,1,1,75,0,0
213793,-90.9090909090909,4,1,1,70,0,1
232986,-100,4,1,1,50,0,0
235486,-100,4,2,1,5,0,0

[Colours]
Combo1 : 255,255,128
Combo2 : 140,255,100
Combo3 : 250,180,220
Combo4 : 172,251,253

[HitObjects]
170,339,888,1,2,0:0:0:0:
160,104,1533,1,2,0:0:0:0:
380,192,2178,1,2,0:0:0:0:
256,40,3146,5,2,0:0:0:0:
256,112,3307,1,2,0:0:0:0:
256,184,3468,2,0,L|256:320,1,100,2|0,0:0|0:0,0:0:0:0:
256,284,4113,2,0,B|220:312|172:324,1,75,2|0,0:0|0:0,0:0:0:0:
108,323,4597,1,0,0:0:0:0:
60,296,4758,2,0,B|-20:212|52:116,1,200,2|0,0:0|0:0,0:0:0:0:
108,52,5726,5,2,0:0:0:0:
52,115,5888,1,2,0:0:0:0:
108,180,6049,2,0,P|154:197|219:200,1,100,2|0,0:0|0:0,0:0:0:0:
262,117,6533,2,0,B|329:175|289:258,1,150,2|0,0:0|0:0,0:0:0:0:
256,340,7339,5,2,0:0:0:0:
88,192,7662,1,2,0:0:0:0:
256,44,7984,1,2,0:0:0:0:
424,192,8307,1,2,0:0:0:0:
511,254,8629,6,0,B|424:312|315:248,1,200,2|0,0:0|0:0,0:0:0:0:
0,120,9920,2,0,B|88:72|200:128,1,200,2|0,0:0|0:0,0:0:0:0:
244,212,10888,5,0,0:0:0:0:
178,273,11049,1,0,0:0:0:0:
100,228,11210,2,0,P|80:184|96:132,1,100,2|0,0:0|0:0,0:0:0:0:
140,48,11855,1,2,0:0:0:0:
372,336,12500,1,2,0:0:0:0:
256,180,13146,5,0,0:0:0:0:
328,252,13307,2,0,L|388:252,1,50,2|0,0:0|0:0,0:0:0:0:
184,252,13629,2,0,L|124:252,1,50,2|0,0:0|0:0,0:0:0:0:
256,252,13952,5,2,0:0:0:0:
256,180,14113,1,2,0:0:0:0:
256,108,14275,1,2,0:0:0:0:
256,36,14436,1,2,0:0:0:0:
156,108,14597,1,2,0:0:0:0:
356,108,14758,1,2,0:0:0:0:
256,252,14920,1,2,0:0:0:0:
84,192,15081,5,2,0:0:0:0:
256,36,15404,1,2,0:0:0:0:
428,192,15726,1,2,0:0:0:0:
256,372,16049,6,0,B|256:304,1,50,2|2,0:0|0:0,0:0:0:0:
256,252,16371,1,2,0:0:0:0:
325,200,16533,1,2,0:0:0:0:
298,119,16694,1,2,0:0:0:0:
212,119,16855,1,2,0:0:0:0:
185,200,17017,1,2,0:0:0:0:
256,192,17500,5,2,0:0:0:0:
329,265,17823,5,2,0:0:0:0:
256,296,17984,1,2,0:0:0:0:
182,265,18146,1,2,0:0:0:0:
151,192,18307,1,2,0:0:0:0:
182,118,18468,1,2,0:0:0:0:
256,87,18629,1,2,0:0:0:0:
329,118,18791,1,2,0:0:0:0:
360,192,18952,1,2,0:0:0:0:
300,192,20242,5,2,0:0:0:0:
256,192,21210,5,8,0:0:0:0:
200,312,21535,6,0,B|140:312|104:276,1,100,4|0,0:0|0:0,0:0:0:0:
129,147,21857,1,8,0:0:0:0:
256,192,22018,1,0,0:0:0:0:
370,270,22179,2,0,B|391:214|371:173,1,100,0|0,0:0|0:0,0:0:0:0:
256,192,22502,1,8,0:0:0:0:
329,83,22664,1,0,0:0:0:0:
329,83,22744,1,0,0:0:0:0:
329,83,22825,6,0,P|379:83|451:110,1,100
256,192,23147,2,0,P|172:152|161:48,1,200,8|0,0:0|0:0,0:0:0:0:
328,84,23631,1,0,0:0:0:0:
439,211,23793,1,8,0:0:0:0:
305,311,23954,1,0,0:0:0:0:
305,311,24034,1,0,0:0:0:0:
305,311,24115,6,0,B|256:332|208:312,1,100
342,227,24438,2,0,B|392:207|440:227,1,100,8|0,0:0|0:0,0:0:0:0:
305,147,24760,2,0,B|256:128|208:148,1,100
104,328,25083,2,0,B|228:320|260:200,1,200,8|2,0:0|0:0,0:0:0:0:
124,192,25567,5,2,0:0:0:0:
32,96,25728,2,0,B|68:52|132:56,1,100,8|0,0:0|0:0,0:0:0:0:
240,112,26051,2,0,P|288:120|340:112,2,100,0|2|10,0:0|0:0|0:0,0:0:0:0:
288,36,26534,1,0,0:0:0:0:
336,216,26696,6,0,P|286:223|237:215,1,100,4|0,0:0|0:0,0:0:0:0:
100,127,27018,1,8,0:0:0:0:
47,311,27180,1,0,0:0:0:0:
236,320,27341,2,0,B|288:332|360:320,1,100
188,256,27664,2,0,B|136:244|64:256,1,100,8|0,0:0|0:0,0:0:0:0:
48,84,27986,6,0,B|84:48|140:48,1,100,2|2,0:0|0:0,0:0:0:0:
324,156,28309,2,0,B|288:192|232:192,1,100,8|0,0:0|0:0,0:0:0:0:
164,128,28631,1,0,0:0:0:0:
324,156,28793,1,2,0:0:0:0:
226,317,28954,1,10,0:0:0:0:
400,244,29115,1,0,0:0:0:0:
400,244,29196,1,0,0:0:0:0:
400,244,29276,6,0,B|452:236|496:200,1,100,2|0,0:0|0:0,0:0:0:0:
392,96,29599,1,10,0:0:0:0:
418,315,29760,2,0,B|470:307|514:271,1,100,2|0,0:0|0:0,0:0:0:0:
416,163,30083,1,10,0:0:0:0:
256,256,30244,2,0,B|196:296,2,50,8|0|0,0:0|0:0|0:0,0:0:0:0:
416,163,30567,6,0,B|452:127|508:127,1,100,2|2,0:0|0:0,0:0:0:0:
260,52,30889,2,0,B|224:88|168:88,1,100,8|2,0:0|0:0,0:0:0:0:
43,26,31213,1,8,0:0:0:0:
29,57,31293,1,0,0:0:0:0:
26,92,31374,1,10,0:0:0:0:
33,125,31454,1,0,0:0:0:0:
55,151,31535,1,10,0:0:0:0:
87,165,31616,1,0,0:0:0:0:
121,164,31696,1,8,0:0:0:0:
152,148,31777,1,0,0:0:0:0:
183,133,31857,6,0,B|231:138|275:169,1,100,4|0,0:0|0:0,0:0:0:0:
139,334,32180,2,0,B|91:329|47:298,1,100,8|0,0:0|0:0,0:0:0:0:
103,86,32502,1,0,0:0:0:0:
275,169,32664,1,0,0:0:0:0:
432,64,32825,2,0,B|397:29|341:29,1,100,8|0,0:0|0:0,0:0:0:0:
352,140,33147,6,0,B|328:192|352:240,1,100,2|2,0:0|0:0,0:0:0:0:
360,348,33470,2,0,B|408:344|446:300,1,100,8|0,0:0|0:0,0:0:0:0:
272,244,33793,1,0,0:0:0:0:
170,340,33954,1,2,0:0:0:0:
160,156,34115,2,0,B|160:108|200:68,1,100,10|0,0:0|0:0,0:0:0:0:
488,212,34438,6,0,B|488:260|448:300,1,100,0|0,0:0|0:0,0:0:0:0:
360,348,34760,1,8,0:0:0:0:
272,244,34922,1,0,0:0:0:0:
324,79,35083,2,0,P|268:70|224:79,1,100,0|0,0:0|0:0,0:0:0:0:
44,224,35405,2,0,P|99:232|144:224,1,100,8|0,0:0|0:0,0:0:0:0:
324,79,35728,5,2,0:0:0:0:
411,242,35889,1,2,0:0:0:0:
188,142,36051,1,8,0:0:0:0:
322,227,36212,1,0,0:0:0:0:
188,305,36373,2,0,B|84:306,1,100,0|2,0:0|0:0,0:0:0:0:
188,142,36696,2,0,B|292:141,1,100,10|0,0:0|0:0,0:0:0:0:
411,242,37018,6,0,B|375:278|319:278,1,100,4|0,0:0|0:0,0:0:0:0:
98,178,37341,2,0,B|134:142|190:142,1,100,8|0,0:0|0:0,0:0:0:0:
324,79,37664,2,0,B|392:100|412:156,1,100,0|0,0:0|0:0,0:0:0:0:
188,305,37986,2,0,B|120:284|100:228,1,100,8|0,0:0|0:0,0:0:0:0:
324,304,38309,6,0,B|428:304,1,100,2|2,0:0|0:0,0:0:0:0:
188,304,38631,2,0,B|84:304,1,100,10|0,0:0|0:0,0:0:0:0:
256,192,38954,1,0,0:0:0:0:
256,192,39034,1,0,0:0:0:0:
256,192,39115,1,2,0:0:0:0:
306,83,39276,2,0,P|257:75|208:84,1,100,10|0,0:0|0:0,0:0:0:0:
207,299,39599,6,0,P|257:308|306:300,1,100,2|0,0:0|0:0,0:0:0:0:
116,140,39922,2,0,B|90:191|118:235,1,100,10|2,0:0|0:0,0:0:0:0:
208,300,40244,1,0,0:0:0:0:
200,188,40405,1,2,0:0:0:0:
164,72,40567,2,0,B|116:52|64:72,1,100,8|0,0:0|0:0,0:0:0:0:
16,208,40890,5,8,0:0:0:0:
29,241,40971,1,0,0:0:0:0:
58,263,41051,1,0,0:0:0:0:
94,263,41132,1,0,0:0:0:0:
123,242,41213,1,8,0:0:0:0:
132,209,41293,1,0,0:0:0:0:
158,182,41374,1,0,0:0:0:0:
194,183,41454,1,0,0:0:0:0:
221,208,41535,5,8,0:0:0:0:
221,243,41616,1,0,0:0:0:0:
240,272,41696,1,8,0:0:0:0:
273,288,41777,1,0,0:0:0:0:
307,280,41857,1,8,0:0:0:0:
335,257,41938,1,0,0:0:0:0:
346,223,42018,1,8,0:0:0:0:
343,187,42099,1,0,0:0:0:0:
331,153,42180,6,0,B|301:88|242:56|161:55,1,200,4|8,0:0|0:0,0:0:0:0:
20,31,42664,1,0,0:0:0:0:
10,173,42825,2,0,B|-14:221|10:273,1,100
152,336,43147,2,0,B|176:288|152:236,1,100,8|0,0:0|0:0,0:0:0:0:
144,76,43470,6,0,B|180:40|236:40,1,100,2|2,0:0|0:0,0:0:0:0:
310,171,43793,2,0,B|256:172|220:136,1,100,8|0,0:0|0:0,0:0:0:0:
376,64,44115,1,0,0:0:0:0:
440,168,44276,1,2,0:0:0:0:
309,268,44438,2,0,B|290:219|310:171,1,100,10|0,0:0|0:0,0:0:0:0:
430,19,44760,6,0,B|455:86|456:149|424:225,1,200,4|8,0:0|0:0,0:0:0:0:
357,336,45244,1,0,0:0:0:0:
217,278,45405,2,0,L|113:246,1,100
24,148,45728,2,0,L|128:116,1,100,8|0,0:0|0:0,0:0:0:0:
392,118,46051,6,0,L|488:148,1,100,0|2,0:0|0:0,0:0:0:0:
392,248,46374,2,0,L|297:278,1,100,8|0,0:0|0:0,0:0:0:0:
176,192,46696,1,0,0:0:0:0:
336,192,46857,1,2,0:0:0:0:
256,60,47018,2,0,L|256:160,1,100,10|0,0:0|0:0,0:0:0:0:
304,312,47341,6,0,P|256:324|204:312,1,100,4|0,0:0|0:0,0:0:0:0:
24,248,47664,2,0,B|40:196|96:184,1,100,8|0,0:0|0:0,0:0:0:0:
237,165,47986,1,0,0:0:0:0:
330,65,48147,1,0,0:0:0:0:
476,116,48309,2,0,B|436:149|375:158,1,100,8|0,0:0|0:0,0:0:0:0:
205,295,48631,6,0,B|252:312|304:312,1,100,2|2,0:0|0:0,0:0:0:0:
472,280,48954,1,8,0:0:0:0:
376,152,49115,1,0,0:0:0:0:
476,116,49276,2,0,B|476:16,2,100,0|2|10,0:0|0:0|0:0,0:0:0:0:
472,280,49760,1,0,0:0:0:0:
220,328,49922,5,4,0:0:0:0:
220,328,50002,1,0,0:0:0:0:
220,328,50083,2,0,P|164:324|105:283,1,100,0|8,0:0|0:0,0:0:0:0:
204,212,50405,1,0,0:0:0:0:
288,120,50567,2,0,B|336:92|384:120,2,100,0|0|8,0:0|0:0|0:0,0:0:0:0:
164,136,51051,1,0,0:0:0:0:
336,192,51212,6,0,P|380:224|392:284,1,100,2|2,0:0|0:0,0:0:0:0:
220,328,51534,2,0,P|176:296|164:236,1,100,8|0,0:0|0:0,0:0:0:0:
288,268,51857,2,0,B|368:340,2,100,0|2|10,0:0|0:0|0:0,0:0:0:0:
196,272,52341,1,0,0:0:0:0:
196,272,52422,1,0,0:0:0:0:
196,272,52502,6,0,B|186:199|272:149|334:192,1,200,4|12,0:0|0:0,0:0:0:0:
432,240,52986,1,0,0:0:0:0:
364,104,53147,1,0,0:0:0:0:
364,104,53228,1,0,0:0:0:0:
364,104,53309,2,0,P|320:88|248:88,1,100,0|8,0:0|0:0,0:0:0:0:
100,96,53631,1,0,0:0:0:0:
132,248,53793,5,2,0:0:0:0:
132,248,53873,1,0,0:0:0:0:
132,248,53954,1,2,0:0:0:0:
132,248,54034,1,0,0:0:0:0:
132,248,54115,2,0,B|132:296|92:336,1,100,8|0,0:0|0:0,0:0:0:0:
232,304,54438,2,0,P|279:298|352:256,1,100,0|2,0:0|0:0,0:0:0:0:
280,80,54760,2,0,P|232:85|160:128,1,100,10|0,0:0|0:0,0:0:0:0:
376,192,55083,5,4,0:0:0:0:
376,192,55164,1,0,0:0:0:0:
376,192,55244,2,0,P|401:147|404:92,1,100,0|8,0:0|0:0,0:0:0:0:
256,192,55567,1,0,0:0:0:0:
136,192,55728,1,0,0:0:0:0:
136,192,55809,1,0,0:0:0:0:
136,192,55889,2,0,P|111:236|108:292,1,100,0|8,0:0|0:0,0:0:0:0:
256,192,56212,1,0,0:0:0:0:
352,272,56373,5,2,0:0:0:0:
352,272,56454,1,0,0:0:0:0:
352,272,56534,2,0,P|400:288|456:284,1,100,2|8,0:0|0:0,0:0:0:0:
412,116,56857,1,0,0:0:0:0:
412,116,56938,1,0,0:0:0:0:
412,116,57018,1,0,0:0:0:0:
256,192,57180,1,2,0:0:0:0:
256,60,57341,2,0,L|256:0,2,50,10|0|0,0:0|0:0|0:0,0:0:0:0:
208,260,57664,5,4,0:0:0:0:
208,260,57744,1,0,0:0:0:0:
208,260,57825,2,0,P|257:268|308:256,1,100,0|8,0:0|0:0,0:0:0:0:
400,192,58147,1,0,0:0:0:0:
388,84,58309,2,0,B|440:84|480:124,1,100
477,262,58631,2,0,B|440:300|388:300,1,100,8|0,0:0|0:0,0:0:0:0:
256,192,58954,5,2,0:0:0:0:
256,192,59034,1,0,0:0:0:0:
256,192,59115,2,0,B|132:192,1,100,2|8,0:0|0:0,0:0:0:0:
28,192,59438,1,0,0:0:0:0:
28,320,59599,1,0,0:0:0:0:
28,320,59679,1,0,0:0:0:0:
28,320,59760,2,0,B|152:320,1,100,2|10,0:0|0:0,0:0:0:0:
256,320,60083,1,0,0:0:0:0:
416,364,60244,6,0,B|435:314|415:266,1,100,4|0,0:0|0:0,0:0:0:0:
360,160,60567,2,0,B|308:140|252:160,1,100,8|0,0:0|0:0,0:0:0:0:
120,224,60889,1,0,0:0:0:0:
256,320,61051,1,0,0:0:0:0:
415,266,61212,2,0,B|471:246|483:174,1,100,8|0,0:0|0:0,0:0:0:0:
304,76,61534,5,8,0:0:0:0:
304,76,61615,1,0,0:0:0:0:
304,76,61696,2,0,P|256:68|196:80,1,100,8|0,0:0|0:0,0:0:0:0:
244,240,62018,1,0,0:0:0:0:
244,240,62099,1,0,0:0:0:0:
244,240,62180,2,0,P|263:183|236:120,1,100,0|8,0:0|0:0,0:0:0:0:
65,69,62502,2,0,P|47:167|64:266,1,200,8|4,0:0|0:0,0:0:0:0:
256,192,62905,12,4,64760,0:0:0:0:
256,192,64841,12,0,66373,0:0:0:0:
28,192,66696,5,0,0:0:0:0:
56,192,66776,1,0,0:0:0:0:
82,192,66857,1,0,0:0:0:0:
108,192,66938,1,0,0:0:0:0:
136,192,67018,1,0,0:0:0:0:
161,192,67099,1,0,0:0:0:0:
189,192,67180,1,0,0:0:0:0:
214,192,67260,1,0,0:0:0:0:
244,192,67341,5,0,0:0:0:0:
283,201,67422,1,0,0:0:0:0:
317,220,67502,1,0,0:0:0:0:
334,256,67583,1,0,0:0:0:0:
334,296,67664,1,0,0:0:0:0:
309,327,67744,1,0,0:0:0:0:
268,329,67825,1,0,0:0:0:0:
232,311,67905,1,0,0:0:0:0:
212,276,67986,6,0,B|188:196|256:120|350:154,1,200,12|0,0:0|0:0,0:0:0:0:
431,206,68470,1,0,0:0:0:0:
401,363,68631,2,0,B|339:389|271:313|295:233,1,200,8|0,0:0|0:0,0:0:0:0:
337,105,69115,1,0,0:0:0:0:
213,42,69276,5,8,0:0:0:0:
81,82,69438,1,8,0:0:0:0:
81,82,69518,1,0,0:0:0:0:
81,82,69599,2,0,P|70:134|84:188,1,100
306,133,69922,2,0,B|206:133,1,100,0|8,0:0|0:0,0:0:0:0:
432,179,70244,2,0,P|442:130|431:82,1,100,8|0,0:0|0:0,0:0:0:0:
158,205,70567,6,0,B|256:240|360:204,1,200,8|0,0:0|0:0,0:0:0:0:
324,68,71051,1,0,0:0:0:0:
158,205,71212,2,0,B|118:303|147:382,2,150,8|0|0,0:0|0:0|0:0,0:0:0:0:
339,336,71857,6,0,B|275:328|256:288,1,100,8|8,0:0|0:0,0:0:0:0:
273,156,72180,2,0,B|328:156|364:192,1,100,0|0,0:0|0:0,0:0:0:0:
256,288,72502,1,0,0:0:0:0:
148,192,72664,1,8,0:0:0:0:
256,96,72825,1,8,0:0:0:0:
380,116,72986,1,0,0:0:0:0:
440,224,73147,6,0,B|346:272|236:221,1,200,8|0,0:0|0:0,0:0:0:0:
246,225,73631,1,0,0:0:0:0:
438,30,73793,2,0,B|486:124|440:224,1,200,8|0,0:0|0:0,0:0:0:0:
440,223,74276,1,0,0:0:0:0:
240,112,74438,6,0,B|356:112,1,100,8|0,0:0|0:0,0:0:0:0:
192,292,74760,2,0,B|76:292,1,100,8|0,0:0|0:0,0:0:0:0:
364,192,75083,2,0,B|364:308,1,100,8|0,0:0|0:0,0:0:0:0:
148,192,75405,2,0,B|148:76,1,100,8|0,0:0|0:0,0:0:0:0:
364,80,75728,6,0,B|464:80,1,100,8|8,0:0|0:0,0:0:0:0:
364,192,76051,2,0,B|264:192,1,100,0|0,0:0|0:0,0:0:0:0:
148,192,76373,1,0,0:0:0:0:
256,80,76534,1,8,0:0:0:0:
256,304,76696,1,8,0:0:0:0:
364,80,77018,5,8,0:0:0:0:
364,304,77180,1,8,0:0:0:0:
148,304,77341,1,0,0:0:0:0:
148,80,77502,1,0,0:0:0:0:
256,240,77664,2,0,L|268:190,1,50
332,144,77825,2,0,L|340:194,1,50,8|0,0:0|0:0,0:0:0:0:
411,221,77986,2,0,B|515:221,1,100,8|0,0:0|0:0,0:0:0:0:
364,304,78309,6,0,B|301:278|301:154|376:128,1,200,8|0,0:0|0:0,0:0:0:0:
511,221,78793,1,0,0:0:0:0:
364,304,78954,2,0,B|268:360|164:300,1,200,8|0,0:0|0:0,0:0:0:0:
227,148,79438,1,0,0:0:0:0:
227,148,79518,1,0,0:0:0:0:
227,148,79599,1,8,0:0:0:0:
440,172,79760,5,8,0:0:0:0:
440,172,79841,1,0,0:0:0:0:
440,172,79922,2,0,P|460:224|444:280,1,100,0|0,0:0|0:0,0:0:0:0:
296,288,80244,1,0,0:0:0:0:
296,288,80325,1,0,0:0:0:0:
296,288,80405,2,0,P|276:236|292:180,1,100,8|8,0:0|0:0,0:0:0:0:
312,48,80728,6,0,P|222:17|134:68,1,200,8|0,0:0|0:0,0:0:0:0:
72,248,81212,1,8,0:0:0:0:
229,119,81373,1,0,0:0:0:0:
24,140,81534,1,8,0:0:0:0:
144,340,81696,1,0,0:0:0:0:
296,288,81857,2,0,B|280:256|248:248,2,50,8|0|0,0:0|0:0|0:0,0:0:0:0:
368,364,82180,6,0,B|404:292|376:232,1,100,8|0,0:0|0:0,0:0:0:0:
488,28,82502,2,0,B|452:100|480:160,1,100,8|0,0:0|0:0,0:0:0:0:
508,200,82825,2,0,B|408:224|408:160|316:208,1,150,8|0,0:0|0:0,0:0:0:0:
320,204,83147,5,2,0:0:0:0:
196,200,83309,1,0,0:0:0:0:
216,72,83470,1,2,0:0:0:0:
101,146,83631,1,0,0:0:0:0:
336,114,83793,1,2,0:0:0:0:
136,37,83954,1,0,0:0:0:0:
4,200,84115,2,0,B|100:248|196:200,1,200,2|0,0:0|0:0,0:0:0:0:
336,114,84599,5,2,0:0:0:0:
336,114,84680,1,0,0:0:0:0:
336,114,84760,2,0,P|388:134|416:198,1,100
176,292,85083,2,0,P|124:272|76:212,1,100,2|0,0:0|0:0,0:0:0:0:
176,184,85405,1,2,0:0:0:0:
336,114,85567,1,2,0:0:0:0:
408,274,85728,1,2,0:0:0:0:
247,343,85889,1,2,0:0:0:0:
292,228,86051,1,2,0:0:0:0:
256,192,86131,12,0,87018,0:0:0:0:
256,220,87341,5,8,0:0:0:0:
292,204,87422,1,0,0:0:0:0:
324,180,87502,1,8,0:0:0:0:
348,148,87583,1,0,0:0:0:0:
352,108,87664,1,2,0:0:0:0:
232,96,87825,1,0,0:0:0:0:
112,208,87986,5,0,0:0:0:0:
120,244,88067,1,0,0:0:0:0:
132,276,88147,1,8,0:0:0:0:
356,188,88309,1,10,0:0:0:0:
232,96,88470,1,0,0:0:0:0:
152,308,88631,6,0,P|198:328|260:336,1,100,4|0,0:0|0:0,0:0:0:0:
472,256,88954,2,0,P|425:235|364:228,1,100,8|0,0:0|0:0,0:0:0:0:
246,336,89276,1,0,0:0:0:0:
376,228,89438,1,0,0:0:0:0:
300,80,89599,1,8,0:0:0:0:
152,160,89760,1,0,0:0:0:0:
152,160,89841,1,0,0:0:0:0:
152,160,89922,6,0,P|101:171|48:164,1,100,0|0,0:0|0:0,0:0:0:0:
153,81,90244,2,0,P|226:139|192:226,1,200,8|0,0:0|0:0,0:0:0:0:
76,312,90728,1,0,0:0:0:0:
54,165,90889,1,8,0:0:0:0:
192,226,91051,1,0,0:0:0:0:
192,226,91131,1,0,0:0:0:0:
192,226,91212,6,0,P|249:241|309:233,1,100,0|0,0:0|0:0,0:0:0:0:
448,184,91534,1,8,0:0:0:0:
328,104,91696,1,0,0:0:0:0:
192,156,91857,1,0,0:0:0:0:
301,354,92018,1,0,0:0:0:0:
76,312,92180,1,8,0:0:0:0:
192,156,92341,1,0,0:0:0:0:
192,156,92422,1,0,0:0:0:0:
192,156,92502,6,0,P|200:112|186:53,1,100,2|2,0:0|0:0,0:0:0:0:
301,245,92825,2,0,P|343:229|387:195,1,100,8|0,0:0|0:0,0:0:0:0:
165,297,93147,2,0,P|199:325|251:347,1,100,0|2,0:0|0:0,0:0:0:0:
45,217,93470,2,0,P|37:260|45:317,1,100,10|0,0:0|0:0,0:0:0:0:
113,154,93793,6,0,P|120:110|113:54,1,100,4|0,0:0|0:0,0:0:0:0:
398,55,94115,2,0,P|390:104|399:154,1,100,8|0,0:0|0:0,0:0:0:0:
305,299,94438,2,0,P|256:307|206:298,2,100,0|0|8,0:0|0:0|0:0,0:0:0:0:
256,192,94922,1,0,0:0:0:0:
256,192,95002,1,0,0:0:0:0:
256,192,95083,6,0,L|256:80,1,100,2|2,0:0|0:0,0:0:0:0:
256,92,95405,1,8,0:0:0:0:
168,242,95567,1,0,0:0:0:0:
343,242,95728,1,0,0:0:0:0:
168,141,95889,1,2,0:0:0:0:
256,292,96051,1,10,0:0:0:0:
343,141,96212,1,0,0:0:0:0:
196,40,96373,6,0,P|144:36|88:48,1,100,2|0,0:0|0:0,0:0:0:0:
0,74,96696,1,10,0:0:0:0:
168,141,96857,2,0,P|138:184|120:238,1,100,2|0,0:0|0:0,0:0:0:0:
99,327,97180,1,10,0:0:0:0:
297,348,97341,2,0,P|356:320|372:238,1,150,8|0,0:0|0:0,0:0:0:0:
345,218,97664,5,8,0:0:0:0:
314,200,97744,1,0,0:0:0:0:
299,168,97825,1,0,0:0:0:0:
296,133,97905,1,0,0:0:0:0:
309,100,97986,1,8,0:0:0:0:
333,75,98067,1,0,0:0:0:0:
365,62,98147,1,0,0:0:0:0:
400,60,98228,1,0,0:0:0:0:
434,64,98309,5,8,0:0:0:0:
463,81,98389,1,0,0:0:0:0:
480,111,98470,1,8,0:0:0:0:
482,146,98551,1,0,0:0:0:0:
475,180,98631,1,8,0:0:0:0:
460,212,98712,1,0,0:0:0:0:
436,236,98793,1,8,0:0:0:0:
404,249,98873,1,0,0:0:0:0:
370,259,98954,6,0,B|324:283|268:285,1,100,4|0,0:0|0:0,0:0:0:0:
124,267,99276,1,8,0:0:0:0:
164,172,99438,1,0,0:0:0:0:
164,172,99518,1,0,0:0:0:0:
164,172,99599,2,0,B|200:136|256:136,1,100
348,84,99922,2,0,B|374:136|346:180,1,100,8|0,0:0|0:0,0:0:0:0:
192,336,100244,5,2,0:0:0:0:
304,256,100405,1,2,0:0:0:0:
304,256,100486,1,0,0:0:0:0:
304,256,100567,2,0,P|356:248|404:256,1,100,8|0,0:0|0:0,0:0:0:0:
428,112,100889,2,0,L|472:148,2,50,0|0|2,0:0|0:0|0:0,0:0:0:0:
280,100,101212,2,0,B|224:112|160:100,1,100,10|0,0:0|0:0,0:0:0:0:
58,245,101534,6,0,B|61:303|110:341,1,100,0|0,0:0|0:0,0:0:0:0:
205,234,101857,1,8,0:0:0:0:
280,100,102018,1,0,0:0:0:0:
280,100,102099,1,0,0:0:0:0:
280,100,102180,2,0,B|332:92|408:104,1,100,0|0,0:0|0:0,0:0:0:0:
474,226,102502,2,0,P|425:234|376:228,1,100,8|0,0:0|0:0,0:0:0:0:
160,204,102825,5,2,0:0:0:0:
384,108,102986,1,2,0:0:0:0:
256,276,103147,1,8,0:0:0:0:
172,84,103309,1,0,0:0:0:0:
376,228,103470,1,0,0:0:0:0:
284,40,103631,1,2,0:0:0:0:
160,204,103793,1,10,0:0:0:0:
272,156,103954,1,0,0:0:0:0:
376,228,104115,6,0,B|424:256|492:240,1,100,4|0,0:0|0:0,0:0:0:0:
384,108,104438,1,8,0:0:0:0:
160,204,104599,1,0,0:0:0:0:
160,204,104680,1,0,0:0:0:0:
160,204,104760,2,0,P|108:224|44:220,1,100
204,128,105083,2,0,P|240:164|244:220,1,100,8|0,0:0|0:0,0:0:0:0:
184,332,105405,5,2,0:0:0:0:
64,224,105567,1,2,0:0:0:0:
64,224,105647,1,0,0:0:0:0:
64,224,105728,2,0,P|54:174|64:116,1,100,8|0,0:0|0:0,0:0:0:0:
239,34,106051,2,0,P|189:31|139:36,1,100,0|2,0:0|0:0,0:0:0:0:
336,100,106373,2,0,P|385:108|434:100,1,100,10|0,0:0|0:0,0:0:0:0:
176,284,106696,6,0,P|124:276|76:284,1,100,2|0,0:0|0:0,0:0:0:0:
260,308,107018,1,10,0:0:0:0:
172,184,107180,2,0,P|120:176|72:184,1,100,2|0,0:0|0:0,0:0:0:0:
252,208,107502,1,2,0:0:0:0:
168,80,107664,2,0,P|120:72|68:80,1,100,8|0,0:0|0:0,0:0:0:0:
244,124,107985,5,10,0:0:0:0:
271,101,108066,1,0,0:0:0:0:
275,66,108147,1,2,0:0:0:0:
261,34,108227,1,0,0:0:0:0:
228,20,108308,1,8,0:0:0:0:
193,16,108389,1,0,0:0:0:0:
160,28,108469,1,0,0:0:0:0:
135,53,108550,1,0,0:0:0:0:
124,86,108631,5,8,0:0:0:0:
122,120,108711,1,0,0:0:0:0:
132,157,108793,1,10,0:0:0:0:
154,183,108873,1,0,0:0:0:0:
187,193,108954,1,10,0:0:0:0:
221,192,109034,1,0,0:0:0:0:
254,182,109115,1,8,0:0:0:0:
269,150,109196,1,0,0:0:0:0:
280,118,109276,6,0,B|367:51|482:87,1,200,12|0,0:0|0:0,0:0:0:0:
469,83,109760,1,0,0:0:0:0:
304,272,109922,2,0,B|217:339|102:303,1,200,8|0,0:0|0:0,0:0:0:0:
114,306,110405,1,0,0:0:0:0:
116,132,110567,5,8,0:0:0:0:
258,90,110728,1,8,0:0:0:0:
258,90,110809,1,0,0:0:0:0:
258,90,110889,2,0,P|315:79|363:89,1,100
494,156,111212,2,0,P|489:205|461:246,1,100,0|8,0:0|0:0,0:0:0:0:
355,134,111534,2,0,P|360:85|389:45,1,100,8|0,0:0|0:0,0:0:0:0:
364,217,111857,6,0,B|287:261|169:238,1,200,8|0,0:0|0:0,0:0:0:0:
30,171,112341,1,0,0:0:0:0:
162,91,112502,2,0,B|192:161|168:238,2,150
9,23,113147,5,8,0:0:0:0:
162,92,113309,1,8,0:0:0:0:
162,92,113389,1,0,0:0:0:0:
162,92,113469,2,0,B|213:117|262:98,1,100,0|0,0:0|0:0,0:0:0:0:
352,239,113793,1,0,0:0:0:0:
352,239,113873,1,0,0:0:0:0:
352,239,113954,2,0,P|304:249|248:229,1,100,8|8,0:0|0:0,0:0:0:0:
121,156,114276,5,0,0:0:0:0:
353,144,114438,2,0,L|452:103,1,100,12|0,0:0|0:0,0:0:0:0:
368,28,114760,1,0,0:0:0:0:
256,36,114922,2,0,B|232:136|276:136|256:236,1,200,8|0,0:0|0:0,0:0:0:0:
159,240,115405,2,0,L|60:281,1,100,8|0,0:0|0:0,0:0:0:0:
104,40,115728,6,0,L|144:150,1,100,8|0,0:0|0:0,0:0:0:0:
224,328,116051,2,0,L|264:218,1,100,8|0,0:0|0:0,0:0:0:0:
340,40,116373,2,0,L|380:150,1,100,8|0,0:0|0:0,0:0:0:0:
436,328,116696,2,0,L|476:218,1,100,8|0,0:0|0:0,0:0:0:0:
456,84,117018,5,8,0:0:0:0:
456,84,117099,1,0,0:0:0:0:
456,84,117180,1,8,0:0:0:0:
364,216,117341,2,0,P|324:224|256:224,1,100,0|0,0:0|0:0,0:0:0:0:
224,144,117664,2,0,P|184:152|116:152,1,100,0|8,0:0|0:0,0:0:0:0:
100,72,117986,2,0,P|60:80|-8:80,1,100,8|0,0:0|0:0,0:0:0:0:
36,264,118309,5,8,0:0:0:0:
212,324,118470,1,8,0:0:0:0:
212,324,118551,1,0,0:0:0:0:
212,324,118631,2,0,P|252:332|320:332,1,100,0|0,0:0|0:0,0:0:0:0:
296,176,118954,2,0,L|262:135,1,50
212,204,119115,2,0,L|165:187,1,50,8|0,0:0|0:0,0:0:0:0:
136,266,119276,2,0,L|80:269,1,50,8|0,0:0|0:0,0:0:0:0:
108,352,119438,2,0,L|58:359,1,50
212,324,119599,6,0,B|336:348|380:252,1,200,12|0,0:0|0:0,0:0:0:0:
256,192,120083,1,0,0:0:0:0:
136,132,120244,2,0,B|180:36|304:60,1,200,8|0,0:0|0:0,0:0:0:0:
464,96,120728,1,0,0:0:0:0:
376,251,120889,5,8,0:0:0:0:
256,192,121051,1,8,0:0:0:0:
256,192,121131,1,0,0:0:0:0:
256,192,121212,2,0,P|208:188|156:192,1,100
56,320,121534,1,0,0:0:0:0:
56,320,121615,1,0,0:0:0:0:
56,320,121696,2,0,P|104:324|156:320,1,100,8|8,0:0|0:0,0:0:0:0:
256,192,122018,1,0,0:0:0:0:
302,79,122180,6,0,P|255:67|207:79,1,100,8|0,0:0|0:0,0:0:0:0:
207,304,122502,2,0,P|255:316|304:304,1,100,8|0,0:0|0:0,0:0:0:0:
450,132,122825,2,0,P|452:82|439:35,1,100,8|0,0:0|0:0,0:0:0:0:
73,34,123147,2,0,P|59:82|62:132,1,100,8|0,0:0|0:0,0:0:0:0:
112,336,123470,6,0,B|24:244,1,100,8|0,0:0|0:0,0:0:0:0:
176,276,123793,2,0,B|88:184,1,100,8|0,0:0|0:0,0:0:0:0:
240,220,124115,2,0,B|104:84,1,150,8|0,0:0|0:0,0:0:0:0:
104,80,124438,5,2,0:0:0:0:
256,40,124599,1,0,0:0:0:0:
404,100,124760,2,0,B|444:128|460:188,1,100,6|0,0:0|0:0,0:0:0:0:
294,301,125083,2,0,B|254:273|240:220,1,100,2|0,0:0|0:0,0:0:0:0:
358,270,125405,2,0,B|400:324|320:421|249:360,1,200,2|0,0:0|0:0,0:0:0:0:
324,176,125889,5,2,0:0:0:0:
324,176,125970,1,0,0:0:0:0:
324,176,126051,2,0,P|372:176|432:208,1,100
200,296,126373,2,0,P|152:296|92:264,1,100,2|0,0:0|0:0,0:0:0:0:
72,177,126696,1,2,0:0:0:0:
228,126,126857,1,0,0:0:0:0:
72,76,127018,1,2,0:0:0:0:
168,208,127180,1,0,0:0:0:0:
168,44,127341,1,2,0:0:0:0:
256,192,127422,12,0,128309,0:0:0:0:
392,84,128631,5,12,0:0:0:0:
404,116,128712,1,0,0:0:0:0:
416,148,128793,1,0,0:0:0:0:
428,180,128873,1,0,0:0:0:0:
440,212,128954,1,0,0:0:0:0:
488,350,129115,1,8,0:0:0:0:
242,295,129276,5,8,0:0:0:0:
210,287,129357,1,0,0:0:0:0:
174,279,129438,1,0,0:0:0:0:
314,175,129599,2,0,P|358:203|370:267,1,100,8|0,0:0|0:0,0:0:0:0:
146,275,129922,1,4,0:0:0:0:
304,308,140244,5,4,0:0:0:0:
304,308,140325,1,0,0:0:0:0:
304,308,140405,2,0,P|256:316|200:304,1,100,0|8,0:0|0:0,0:0:0:0:
372,224,140728,1,0,0:0:0:0:
308,128,140889,1,4,0:0:0:0:
308,128,140970,1,0,0:0:0:0:
308,128,141050,2,0,P|260:136|204:124,1,100,0|8,0:0|0:0,0:0:0:0:
372,40,141373,1,0,0:0:0:0:
176,52,141534,5,2,0:0:0:0:
176,52,141615,1,0,0:0:0:0:
176,52,141696,2,0,B|120:84|128:160,1,100,2|8,0:0|0:0,0:0:0:0:
220,236,142018,2,0,L|272:300,2,50
308,128,142341,1,2,0:0:0:0:
308,128,142422,1,0,0:0:0:0:
308,128,142502,2,0,P|364:126|428:140,1,100,10|0,0:0|0:0,0:0:0:0:
220,236,142825,6,0,B|170:236,2,50,4|0|0,0:0|0:0|0:0,0:0:0:0:
64,188,143147,2,0,B|42:229|66:285,1,100,8|0,0:0|0:0,0:0:0:0:
168,344,143470,1,0,0:0:0:0:
220,236,143631,1,0,0:0:0:0:
184,116,143793,2,0,B|236:92|284:96,1,100,8|0,0:0|0:0,0:0:0:0:
448,248,144115,6,0,B|400:240|360:184,1,100,2|2,0:0|0:0,0:0:0:0:
352,92,144438,1,8,0:0:0:0:
452,80,144599,1,0,0:0:0:0:
464,180,144760,1,0,0:0:0:0:
367,193,144922,1,2,0:0:0:0:
367,193,145002,1,0,0:0:0:0:
367,193,145083,2,0,L|264:208,1,100,10|0,0:0|0:0,0:0:0:0:
56,328,145405,6,0,L|159:313,2,100,4|0|8,0:0|0:0|0:0,0:0:0:0:
8,192,145889,1,0,0:0:0:0:
56,56,146051,2,0,L|159:70,2,100,0|0|8,0:0|0:0|0:0,0:0:0:0:
100,192,146534,1,0,0:0:0:0:
155,313,146696,5,2,0:0:0:0:
252,224,146857,1,2,0:0:0:0:
252,224,146938,1,0,0:0:0:0:
252,224,147018,2,0,B|360:240,1,100,8|0,0:0|0:0,0:0:0:0:
460,120,147341,1,0,0:0:0:0:
460,120,147422,1,0,0:0:0:0:
460,120,147502,2,0,B|352:104,1,100,2|10,0:0|0:0,0:0:0:0:
100,192,147825,5,0,0:0:0:0:
100,192,147905,1,0,0:0:0:0:
100,192,147986,2,0,L|136:312,1,100,4|0,0:0|0:0,0:0:0:0:
132,119,148309,2,0,B|71:106|33:148,1,100,8|0,0:0|0:0,0:0:0:0:
228,132,148631,2,8,B|264:96|255:36,1,100,0|0,0:0|0:0,0:0:0:0:
180,216,148954,2,8,B|192:265|248:287,1,100,8|0,0:0|0:0,0:0:0:0:
392,264,149276,5,8,0:0:0:0:
428,244,149357,1,0,0:0:0:0:
456,216,149438,1,8,0:0:0:0:
460,176,149518,1,0,0:0:0:0:
452,136,149599,1,0,0:0:0:0:
304,184,149760,1,0,0:0:0:0:
268,200,149841,1,0,0:0:0:0:
228,204,149922,1,0,0:0:0:0:
52,128,150083,5,8,0:0:0:0:
52,128,150164,1,0,0:0:0:0:
52,128,150244,2,0,L|132:108,1,50,8|0,0:0|0:0,0:0:0:0:
168,40,150405,2,0,L|248:60,1,50,8|0,0:0|0:0,0:0:0:0:
296,120,150567,5,12,0:0:0:0:
431,349,151051,1,8,0:0:0:0:
64,268,151534,1,8,0:0:0:0:
52,128,151696,1,8,0:0:0:0:
455,30,152180,1,8,0:0:0:0:
222,358,152664,1,8,0:0:0:0:
116,88,153147,5,12,0:0:0:0:
222,358,153631,1,8,0:0:0:0:
392,24,154115,1,8,0:0:0:0:
484,144,154276,1,8,0:0:0:0:
54,35,154760,1,8,0:0:0:0:
388,312,155244,1,8,0:0:0:0:
74,352,155728,5,12,0:0:0:0:
419,170,156212,1,8,0:0:0:0:
136,48,156696,1,8,0:0:0:0:
232,200,156857,1,8,0:0:0:0:
480,40,157341,1,8,0:0:0:0:
322,351,157825,1,8,0:0:0:0:
40,76,158309,5,12,0:0:0:0:
128,340,158793,1,8,0:0:0:0:
256,60,159276,1,8,0:0:0:0:
448,136,159438,1,8,0:0:0:0:
256,336,159760,5,8,0:0:0:0:
256,336,159841,1,0,0:0:0:0:
256,336,159922,2,0,L|152:344,1,100,8|0,0:0|0:0,0:0:0:0:
40,308,160244,1,0,0:0:0:0:
56,196,160405,2,0,L|80:52,1,100,8|8,0:0|0:0,0:0:0:0:
256,60,160728,5,0,0:0:0:0:
256,60,160809,1,0,0:0:0:0:
256,60,160889,2,0,L|392:80,1,100,12|0,0:0|0:0,0:0:0:0:
192,116,161212,2,0,B|160:64|184:16,2,100,2|8|0,0:0|0:0|0:0,0:0:0:0:
224,292,161696,1,0,0:0:0:0:
224,292,161776,1,0,0:0:0:0:
224,292,161857,2,0,L|96:336,1,100,10|0,0:0|0:0,0:0:0:0:
36,136,162180,5,0,0:0:0:0:
224,292,162341,1,0,0:0:0:0:
360,88,162502,2,0,P|412:80|472:96,1,100,10|0,0:0|0:0,0:0:0:0:
432,292,162825,1,0,0:0:0:0:
267,175,162986,2,0,P|233:141|223:92,1,100,8|2,0:0|0:0,0:0:0:0:
420,150,163309,5,0,0:0:0:0:
420,150,163389,1,0,0:0:0:0:
420,150,163470,2,0,P|455:186|464:234,1,100,8|0,0:0|0:0,0:0:0:0:
224,292,163793,1,2,0:0:0:0:
224,92,163954,2,0,P|274:83|356:88,1,100,8|0,0:0|0:0,0:0:0:0:
224,292,164276,1,0,0:0:0:0:
224,292,164357,1,0,0:0:0:0:
224,292,164438,2,0,P|176:297|120:288,1,100,10|0,0:0|0:0,0:0:0:0:
224,92,164760,6,0,P|236:153|228:212,2,100,0|0|10,0:0|0:0|0:0,0:0:0:0:
36,260,165244,1,0,0:0:0:0:
40,84,165405,2,0,P|86:51|152:44,1,100,0|8,0:0|0:0,0:0:0:0:
384,80,165728,1,2,0:0:0:0:
224,92,165889,5,0,0:0:0:0:
224,92,165970,1,0,0:0:0:0:
224,92,166051,2,0,B|200:144|224:188,1,100,12|0,0:0|0:0,0:0:0:0:
384,80,166373,1,2,0:0:0:0:
304,244,166534,1,8,0:0:0:0:
304,244,166615,1,0,0:0:0:0:
304,244,166696,2,0,P|261:277|192:292,1,100
32,140,167018,2,0,P|74:106|144:92,1,100,10|0,0:0|0:0,0:0:0:0:
304,244,167341,5,0,0:0:0:0:
136,220,167502,1,0,0:0:0:0:
264,48,167664,1,10,0:0:0:0:
292,44,167744,1,0,0:0:0:0:
324,44,167825,1,0,0:0:0:0:
352,48,167905,1,0,0:0:0:0:
380,56,167986,1,0,0:0:0:0:
484,208,168147,1,8,0:0:0:0:
304,244,168309,2,0,P|250:235|188:252,1,100,2|0,0:0|0:0,0:0:0:0:
40,296,168631,5,8,0:0:0:0:
64,313,168712,1,0,0:0:0:0:
93,320,168793,1,0,0:0:0:0:
122,320,168873,1,0,0:0:0:0:
151,314,168954,1,8,0:0:0:0:
179,305,169034,1,0,0:0:0:0:
201,284,169115,1,0,0:0:0:0:
203,254,169196,1,0,0:0:0:0:
188,222,169276,5,8,0:0:0:0:
180,187,169357,1,0,0:0:0:0:
189,153,169438,1,8,0:0:0:0:
222,145,169518,1,0,0:0:0:0:
256,139,169599,1,0,0:0:0:0:
290,133,169680,1,0,0:0:0:0:
320,117,169760,1,8,0:0:0:0:
337,86,169841,1,0,0:0:0:0:
339,50,169922,1,4,0:0:0:0:
256,192,170002,12,0,170889,0:0:0:0:
264,160,171212,6,0,P|303:98|371:69,1,150
380,184,171857,1,2,0:3:0:0:
380,184,171938,1,2,0:3:0:0:
380,184,172018,2,0,L|424:224,1,50,2|8,0:3|0:0,0:3:0:0:
248,336,172502,6,0,B|128:344|48:256,1,220.000006713867,6|8,0:0|0:0,0:0:0:0:
188,192,172986,1,0,0:0:0:0:
104,72,173147,2,0,B|180:44|268:68,1,165.000005035401,2|2,0:0|0:0,0:0:0:0:
320,88,173470,2,0,P|369:116|424:128,1,110.000003356934,8|0,0:0|0:0,0:0:0:0:
248,336,173793,6,0,B|188:304|192:220,1,110.000003356934,2|8,0:0|0:0,0:0:0:0:
320,88,174115,2,0,B|380:120|376:204,1,110.000003356934,8|0,0:0|0:0,0:0:0:0:
284,248,174438,1,2,0:0:0:0:
245,259,174518,1,0,0:0:0:0:
206,252,174599,1,8,0:0:0:0:
170,237,174680,1,0,0:0:0:0:
148,205,174760,1,8,0:0:0:0:
149,166,174841,1,0,0:0:0:0:
165,131,174922,1,0,0:0:0:0:
200,112,175002,1,0,0:0:0:0:
238,107,175083,6,0,B|306:113|331:173|310:244|246:258,1,220.000006713867,6|8,0:0|0:0,0:0:0:0:
228,183,175567,1,0,0:0:0:0:
432,152,175728,2,0,B|480:148|500:192|500:192|496:316,1,165.000005035401,2|2,0:0|0:0,0:0:0:0:
468,320,176051,2,0,B|420:340|352:320,1,110.000003356934,8|0,0:0|0:0,0:0:0:0:
228,260,176373,5,2,0:0:0:0:
432,152,176534,1,8,0:0:0:0:
468,320,176696,1,8,0:0:0:0:
228,260,176857,1,0,0:0:0:0:
228,260,176938,1,0,0:0:0:0:
228,260,177018,2,0,P|172:248|104:260,1,110.000003356934,2|8,0:0|0:0,0:0:0:0:
320,156,177341,1,8,0:0:0:0:
88,68,177502,5,0,0:0:0:0:
88,68,177583,1,0,0:0:0:0:
88,68,177664,2,0,B|184:112|308:72,1,220.000006713867,2|8,0:0|0:0,0:0:0:0:
448,32,178147,2,0,P|488:68|504:124,1,110.000003356934,2|0,0:0|0:0,0:0:0:0:
464,240,178470,1,2,0:0:0:0:
302,73,178631,1,8,0:0:0:0:
464,240,178793,1,2,0:0:0:0:
256,324,178954,6,0,P|196:324|128:304,1,110.000003356934,2|8,0:0|0:0,0:0:0:0:
302,73,179276,2,0,B|364:108|393:193|344:288,1,220.000006713867,10|0,0:0|0:0,0:0:0:0:
78,172,179760,1,8,0:0:0:0:
302,73,179922,1,8,0:0:0:0:
256,324,180083,1,2,0:0:0:0:
220,190,180244,1,2,0:0:0:0:
256,192,180325,12,0,181212,0:0:0:0:
332,112,181373,5,0,0:0:0:0:
372,104,181454,1,0,0:0:0:0:
404,96,181534,1,2,0:0:0:0:
296,184,181696,1,0,0:0:0:0:
264,192,181777,1,0,0:0:0:0:
232,204,181857,1,10,0:0:0:0:
148,312,182018,1,0,0:0:0:0:
180,300,182099,1,0,0:0:0:0:
212,292,182180,1,0,0:0:0:0:
456,272,182341,6,0,B|456:152|332:112,1,220.000006713867,2|0,0:0|0:0,0:0:0:0:
88,132,182825,2,0,B|88:252|212:292,1,220.000006713867,6|8,0:0|0:0,0:0:0:0:
212,292,183309,1,0,0:0:0:0:
196,180,183470,2,0,B|142:191|99:241|101:318,2,165.000005035401,2|0|2,0:0|0:0|0:0,0:0:0:0:
344,316,184115,6,0,L|480:284,1,110.000003356934,2|8,0:0|0:0,0:0:0:0:
344,68,184438,2,0,L|480:100,1,110.000003356934,8|0,0:0|0:0,0:0:0:0:
340,192,184760,1,2,0:0:0:0:
308,192,184841,1,0,0:0:0:0:
276,192,184922,1,8,0:0:0:0:
244,192,185002,1,0,0:0:0:0:
212,192,185083,1,8,0:0:0:0:
72,92,185244,1,0,0:0:0:0:
240,48,185405,6,0,B|321:31|382:43|462:95,1,220.000006713867,6|8,0:0|0:0,0:0:0:0:
484,225,185889,1,0,0:0:0:0:
396,336,186051,2,0,P|280:336|152:276,1,220.000006713867,2|2,0:0|0:0,0:0:0:0:
329,129,186534,5,0,0:0:0:0:
329,129,186615,1,0,0:0:0:0:
329,129,186696,2,0,P|336:199|306:269,1,110.000003356934,2|8,0:0|0:0,0:0:0:0:
167,63,187018,2,0,P|237:54|307:85,1,110.000003356934,10|0,0:0|0:0,0:0:0:0:
101,231,187341,2,0,P|92:160|123:90,1,110.000003356934,2|8,0:0|0:0,0:0:0:0:
263,289,187664,2,0,P|193:298|123:267,1,110.000003356934,10|0,0:0|0:0,0:0:0:0:
167,63,187986,6,0,P|267:19|363:63,1,220.000006713867,2|8,0:0|0:0,0:0:0:0:
472,184,188470,2,0,P|348:168|280:68,1,220.000006713867,2|0,0:0|0:0,0:0:0:0:
412,76,188954,1,8,0:0:0:0:
472,184,189115,1,0,0:0:0:0:
416,292,189276,1,2,0:0:0:0:
300,332,189438,1,0,0:0:0:0:
241,220,189599,2,0,P|346:211|416:292,1,220.000006713867,2|0,0:0|0:0,0:0:0:0:
241,220,190083,5,2,0:0:0:0:
32,109,190244,1,2,0:0:0:0:
193,61,190405,1,2,0:0:0:0:
76,286,190567,1,2,0:0:0:0:
256,192,190647,12,0,191534,0:0:0:0:
56,308,191857,5,8,0:0:0:0:
90,299,191938,1,0,0:0:0:0:
121,284,192018,1,0,0:0:0:0:
146,259,192099,1,0,0:0:0:0:
159,226,192180,1,8,0:0:0:0:
159,191,192260,1,0,0:0:0:0:
151,157,192341,1,0,0:0:0:0:
129,129,192422,1,0,0:0:0:0:
98,116,192502,5,8,0:0:0:0:
63,115,192583,1,0,0:0:0:0:
31,130,192664,1,8,0:0:0:0:
11,159,192744,1,0,0:0:0:0:
14,193,192825,1,8,0:0:0:0:
35,221,192905,1,0,0:0:0:0:
69,230,192986,1,8,0:0:0:0:
103,224,193067,1,0,0:0:0:0:
136,213,193147,6,0,B|242:177|366:214,1,220.000006713867,6|8,0:0|0:0,0:0:0:0:
476,256,193631,1,0,0:0:0:0:
312,344,193793,2,0,P|256:352|176:336,1,110.000003356934,2|0,0:0|0:0,0:0:0:0:
256,240,194115,2,0,B|256:112,1,110.000003356934,8|0,0:0|0:0,0:0:0:0:
152,272,194438,6,0,L|40:312,1,110.000003356934,2|8,0:0|0:0,0:0:0:0:
360,272,194760,2,0,L|472:312,1,110.000003356934,8|0,0:0|0:0,0:0:0:0:
256,240,195083,1,2,0:0:0:0:
256,224,195164,1,0,0:0:0:0:
256,208,195244,1,8,0:0:0:0:
256,192,195325,1,0,0:0:0:0:
256,176,195405,1,8,0:0:0:0:
256,160,195486,1,0,0:0:0:0:
256,144,195567,1,0,0:0:0:0:
256,128,195647,1,0,0:0:0:0:
256,112,195728,6,0,B|208:72|104:72|40:112,1,220.000006713867,6|8,0:0|0:0,0:0:0:0:
152,212,196212,1,0,0:0:0:0:
208,332,196373,2,0,P|152:344|92:332,1,110.000003356934,2|0,0:0|0:0,0:0:0:0:
152,212,196696,1,8,0:0:0:0:
256,112,196857,1,0,0:0:0:0:
256,112,196938,1,0,0:0:0:0:
256,112,197018,6,0,P|316:100|372:112,1,110.000003356934,2|8,0:0|0:0,0:0:0:0:
480,192,197341,1,8,0:0:0:0:
352,268,197502,1,0,0:0:0:0:
352,268,197583,1,0,0:0:0:0:
352,268,197664,2,0,P|316:224|320:156,1,110.000003356934,2|8,0:0|0:0,0:0:0:0:
152,212,197986,2,0,P|89:219|24:212,1,110.000003356934,8|0,0:0|0:0,0:0:0:0:
256,48,198309,6,0,B|312:20|416:20|472:48,1,220.000006713867,2|8,0:0|0:0,0:0:0:0:
256,184,198793,2,0,B|200:212|96:212|41:184,1,220.000006713867,2|0,0:0|0:0,0:0:0:0:
148,104,199276,1,8,0:0:0:0:
256,184,199438,1,0,0:0:0:0:
256,184,199518,1,0,0:0:0:0:
256,184,199599,6,0,P|303:215|345:274,1,110.000003356934,2|8,0:0|0:0,0:0:0:0:
202,331,199922,2,0,B|111:295|127:227|44:184,1,220.000006713867,10|0,0:0|0:0,0:0:0:0:
64,316,200405,1,8,0:0:0:0:
204,248,200567,1,8,0:0:0:0:
148,104,200728,1,2,0:0:0:0:
4,160,200889,1,2,0:0:0:0:
256,192,200970,12,0,201857,0:0:0:0:
256,140,202018,5,0,0:0:0:0:
256,140,202099,1,0,0:0:0:0:
256,140,202180,2,0,L|256:276,1,110.000003356934,2|0,0:0|0:0,0:0:0:0:
204,68,202502,2,0,P|256:56|312:68,1,110.000003356934,2|0,0:0|0:0,0:0:0:0:
488,192,202825,1,2,0:0:0:0:
310,316,202986,2,0,P|257:328|204:316,1,110.000003356934
24,192,203309,1,0,0:0:0:0:
204,68,203470,6,0,B|264:32|348:32|436:64,1,220.000006713867,6|8,0:0|0:0,0:0:0:0:
488,192,203954,1,0,0:0:0:0:
310,316,204115,2,0,L|178:264,1,110.000003356934,2|0,0:0|0:0,0:0:0:0:
204,68,204438,2,0,L|336:120,1,110.000003356934,8|0,0:0|0:0,0:0:0:0:
112,132,204760,6,0,L|73:93,2,55.0000016784668,2|0|8,0:0|0:0|0:0,0:0:0:0:
304,108,205083,2,0,L|340:228,1,110.000003356934,10|0,0:0|0:0,0:0:0:0:
456,320,205405,2,0,L|420:200,1,110.000003356934,2|8,0:0|0:0,0:0:0:0:
400,108,205728,1,8,0:0:0:0:
208,260,205889,5,0,0:0:0:0:
208,260,205970,1,0,0:0:0:0:
208,260,206051,2,0,P|92:256|-16:212,1,220.000006713867,6|8,0:0|0:0,0:0:0:0:
176,104,206534,1,0,0:0:0:0:
176,104,206614,1,0,0:0:0:0:
176,104,206695,2,0,P|236:96|328:104,1,110.000003356934,2|0,0:0|0:0,0:0:0:0:
400,108,207018,1,8,0:0:0:0:
208,260,207180,5,0,0:0:0:0:
208,260,207260,1,0,0:0:0:0:
208,260,207341,2,0,P|248:303|328:324,1,110.000003356934,2|8,0:0|0:0,0:0:0:0:
468,272,207664,1,10,0:0:0:0:
400,108,207825,1,0,0:0:0:0:
208,260,207986,1,2,0:0:0:0:
372,220,208147,1,8,0:0:0:0:
264,96,208309,1,8,0:0:0:0:
96,120,208470,1,0,0:0:0:0:
208,260,208631,6,0,B|329:260|413:192,1,220.000006713867,2|8,0:0|0:0,0:0:0:0:
228,180,209115,2,0,B|164:168|128:224,1,110.000003356934,2|0,0:0|0:0,0:0:0:0:
64,320,209438,1,0,0:0:0:0:
264,348,209599,1,8,0:0:0:0:
228,180,209760,1,0,0:0:0:0:
228,180,209841,1,0,0:0:0:0:
228,180,209922,1,2,0:0:0:0:
330,31,210083,5,8,0:0:0:0:
488,128,210244,2,0,L|436:232,1,110.000003356934,8|0,0:0|0:0,0:0:0:0:
264,348,210567,1,2,0:0:0:0:
80,240,210728,1,8,0:0:0:0:
80,240,210809,1,0,0:0:0:0:
80,240,210889,2,0,P|112:192|188:168,1,110.000003356934,8|0,0:0|0:0,0:0:0:0:
256,192,211212,12,0,212180,0:0:0:0:
256,269,212502,5,2,0:0:0:0:
178,192,212664,1,0,0:0:0:0:
256,114,212825,1,2,0:0:0:0:
333,192,212986,1,0,0:0:0:0:
336,332,213147,2,0,B|256:352|168:332,2,165.000005035401,8|8|8,0:0|0:0|0:0,0:0:0:0:
472,232,213792,5,8,0:0:0:0:
456,202,213873,1,0,0:0:0:0:
433,178,213953,1,0,0:0:0:0:
402,164,214034,1,0,0:0:0:0:
370,174,214115,2,0,P|336:181|303:177,3,55.0000016784668,8|0|0|0,0:0|0:0|0:0|0:0,0:0:0:0:
283,170,214438,1,8,0:0:0:0:
254,154,214518,1,0,0:0:0:0:
239,124,214599,1,8,0:0:0:0:
244,91,214680,1,0,0:0:0:0:
270,71,214760,2,0,P|303:58|347:56,3,55.0000016784668,8|0|0|0,0:0|0:0|0:0|0:0,0:0:0:0:
355,60,215083,5,0,0:0:0:0:
383,77,215164,1,0,0:0:0:0:
398,105,215244,1,8,0:0:0:0:
405,137,215325,1,0,0:0:0:0:
392,167,215405,1,8,0:0:0:0:
369,191,215486,1,0,0:0:0:0:
337,202,215567,1,8,0:0:0:0:
305,212,215647,1,0,0:0:0:0:
286,239,215728,1,0,0:0:0:0:
284,272,215809,1,0,0:0:0:0:
302,298,215889,1,8,0:0:0:0:
331,314,215970,1,0,0:0:0:0:
364,316,216051,1,8,0:0:0:0:
327,132,216374,5,0,0:0:0:0:
310,103,216454,1,0,0:0:0:0:
285,81,216534,1,8,0:0:0:0:
253,69,216615,1,0,0:0:0:0:
219,69,216696,1,8,0:0:0:0:
187,77,216776,1,0,0:0:0:0:
158,93,216857,1,0,0:0:0:0:
141,121,216938,1,0,0:0:0:0:
142,153,217018,5,0,0:0:0:0:
154,183,217099,1,0,0:0:0:0:
181,201,217180,1,8,0:0:0:0:
213,204,217260,1,0,0:0:0:0:
245,195,217341,1,8,0:0:0:0:
277,191,217422,1,0,0:0:0:0:
306,205,217502,1,0,0:0:0:0:
315,236,217583,1,0,0:0:0:0:
309,268,217664,6,0,P|290:292|255:311,3,55.0000016784668,8|0|0|0,0:0|0:0|0:0|0:0,0:0:0:0:
236,305,217986,2,0,P|205:306|167:318,3,55.0000016784668,8|0|0|0,0:0|0:0|0:0|0:0,0:0:0:0:
149,321,218309,5,8,0:0:0:0:
116,324,218389,1,0,0:0:0:0:
84,319,218470,1,8,0:0:0:0:
52,307,218551,1,0,0:0:0:0:
29,283,218631,1,8,0:0:0:0:
19,251,218712,1,0,0:0:0:0:
23,218,218793,1,0,0:0:0:0:
41,191,218873,1,0,0:0:0:0:
68,173,218954,6,0,P|126:171|174:149,1,110.000003356934,8|0,0:0|0:0,0:0:0:0:
100,67,219276,1,8,0:0:0:0:
248,230,219438,1,0,0:0:0:0:
68,173,219599,1,0,0:0:0:0:
281,126,219760,1,0,0:0:0:0:
141,253,219922,1,8,0:0:0:0:
207,44,220083,1,0,0:0:0:0:
207,44,220164,1,0,0:0:0:0:
207,44,220244,6,0,P|259:24|328:34,1,110.000003356934,8|8,0:0|0:0,0:0:0:0:
335,37,220486,1,0,0:0:0:0:
364,52,220567,2,0,P|410:83|434:155,1,110.000003356934
432,164,220809,1,0,0:0:0:0:
426,196,220889,2,0,P|393:246|332:280,1,110.000003356934,0|8,0:0|0:0,0:0:0:0:
320,281,221131,1,0,0:0:0:0:
286,282,221212,2,0,P|226:279|156:246,1,110.000003356934,8|0,0:0|0:0,0:0:0:0:
263,121,221534,6,0,P|283:147|286:175,3,55.0000016784668,0|0|8|0,0:0|0:0|0:0|0:0,0:0:0:0:
290,201,221857,2,0,P|295:227|313:248,3,55.0000016784668,8|0|0|0,0:0|0:0|0:0|0:0,0:0:0:0:
346,254,222180,1,0,0:0:0:0:
378,248,222260,1,0,0:0:0:0:
406,231,222341,1,8,0:0:0:0:
426,206,222422,1,0,0:0:0:0:
433,174,222502,1,8,0:0:0:0:
432,145,222583,1,0,0:0:0:0:
421,113,222664,1,0,0:0:0:0:
397,90,222744,1,0,0:0:0:0:
364,85,222825,5,8,0:0:0:0:
342,88,222905,1,0,0:0:0:0:
319,89,222986,1,0,0:0:0:0:
297,92,223067,1,0,0:0:0:0:
259,69,223147,5,8,0:0:0:0:
237,72,223227,1,0,0:0:0:0:
214,73,223308,1,0,0:0:0:0:
192,76,223389,1,0,0:0:0:0:
153,55,223470,5,8,0:0:0:0:
131,58,223550,1,0,0:0:0:0:
108,59,223631,1,8,0:0:0:0:
86,62,223712,1,0,0:0:0:0:
64,65,223793,2,0,B|34:184,1,110.000003356934,8|0,0:0|0:0,0:0:0:0:
92,308,224115,6,0,B|168:332|232:332|316:308,1,220.000006713867,6|0,0:0|0:0,0:0:0:0:
436,244,224599,1,0,0:0:0:0:
300,192,224760,2,0,P|248:204|204:252,1,110.000003356934,2|0,0:0|0:0,0:0:0:0:
308,310,225083,2,0,L|348:372,2,55.0000016784668,2|0|0,0:0|0:0|0:0,0:0:0:0:
138,192,225405,5,2,0:0:0:0:
256,76,225567,1,0,0:0:0:0:
373,192,225728,1,2,0:0:0:0:
256,308,225889,2,0,L|256:198,1,110.000003356934,0|2,0:0|0:0,0:0:0:0:
256,76,226212,1,0,0:0:0:0:
100,42,226373,1,2,0:0:0:0:
30,188,226534,5,0,0:0:0:0:
30,188,226615,1,0,0:0:0:0:
30,188,226696,2,0,P|86:197|153:188,1,110.000003356934,2|0,0:0|0:0,0:0:0:0:
280,139,227018,1,2,0:0:0:0:
100,42,227180,1,0,0:0:0:0:
100,42,227260,1,0,0:0:0:0:
100,42,227341,2,0,P|83:100|100:160,1,110.000003356934,2|0,0:0|0:0,0:0:0:0:
107,183,227583,1,0,0:0:0:0:
129,214,227664,1,2,0:0:0:0:
164,228,227744,1,0,0:0:0:0:
202,234,227825,1,0,0:0:0:0:
240,230,227905,1,0,0:0:0:0:
274,211,227986,6,0,P|326:191|407:206,1,110.000003356934,2|0,0:0|0:0,0:0:0:0:
417,206,228228,1,0,0:0:0:0:
450,223,228309,2,0,P|470:274|455:356,1,110.000003356934,2|0,0:0|0:0,0:0:0:0:
289,338,228631,2,0,P|237:358|156:343,1,110.000003356934,2|0,0:0|0:0,0:0:0:0:
60,292,228954,1,2,0:0:0:0:
274,211,229115,1,0,0:0:0:0:
105,106,229276,6,0,P|70:155|67:228,1,110.000003356934,2|0,0:0|0:0,0:0:0:0:
76,357,229599,1,0,0:0:0:0:
289,338,229760,1,0,0:0:0:0:
289,338,229841,1,0,0:0:0:0:
289,338,229922,1,2,0:0:0:0:
381,194,230083,2,0,P|326:195|274:211,1,110.000003356934,0|2,0:0|0:0,0:0:0:0:
464,351,230405,5,0,0:0:0:0:
464,351,230486,1,0,0:0:0:0:
464,351,230567,2,0,P|465:286|443:233,1,110.000003356934,2|0,0:0|0:0,0:0:0:0:
307,193,230889,1,2,0:0:0:0:
238,34,231051,1,0,0:0:0:0:
427,50,231212,2,0,P|418:101|338:191,1,165.000005035401,2|0,0:0|0:0,0:0:0:0:
307,193,231534,1,2,0:0:0:0:
0,168,231696,5,0,0:0:0:0:
0,168,231776,1,0,0:0:0:0:
0,168,231857,2,0,L|112:168,1,110.000003356934,2|2,0:0|0:0,0:0:0:0:
116,196,232099,1,0,0:0:0:0:
124,224,232180,2,0,L|252:224,1,110.000003356934,2|2,0:0|0:0,0:0:0:0:
240,252,232422,1,0,0:0:0:0:
248,280,232502,2,0,L|360:280,1,110.000003356934,2|2,0:0|0:0,0:0:0:0:
364,308,232744,1,0,0:0:0:0:
368,336,232825,2,0,L|444:336,2,55.0000016784668,2|0|6,0:0|0:0|0:0,0:0:0:0:
256,192,233067,12,0,235567,0:0:0:0:
