osu file format v11

[General]
AudioFilename: Last Remote - Type y.mp3
AudioLeadIn: 1511
PreviewTime: -1
Countdown: 0
SampleSet: Normal
StackLeniency: 0.7
Mode: 0
LetterboxInBreaks: 1

[Editor]
Bookmarks: 42330,52006,87970,129578
DistanceSpacing: 0.2
BeatDivisor: 4
GridSize: 8

[Metadata]
Title:Last Remote
TitleUnicode:
Artist:Dark PHOENiX
ArtistUnicode:
Creator:PCBlossom
Version:Extra Stage
Source:Touhou
Tags:Subterranean animism chireiden
BeatmapID:168512
BeatmapSetID:54389

[Difficulty]
HPDrainRate:6
CircleSize:4
OverallDifficulty:8
ApproachRate:9
SliderMultiplier:2
SliderTickRate:1

[Events]
//Background and Video events
0,0,"satori & koishi.jpg"
//Break Periods
2,19145,20603
2,150744,160265
//Storyboard Layer 0 (Background)
//Storyboard Layer 1 (Fail)
//Storyboard Layer 2 (Pass)
//Storyboard Layer 3 (Foreground)
//Storyboard Sound Samples
//Background Colour Transformations
3,100,163,162,255

[TimingPoints]
883,322.545962799699,4,1,0,60,1,0
1124,-100,4,2,0,60,0,0
1286,-100,4,1,0,60,0,0
1770,-100,4,2,0,60,0,0
1931,-100,4,1,0,60,0,0
2415,-100,4,2,0,60,0,0
7575,-133.333333333333,4,2,0,60,0,0
11768,-100,4,2,0,60,0,0
13784,-133.333333333333,4,2,0,60,0,0
14994,-100,4,2,0,60,0,0
17574,-100,4,1,0,30,0,0
17736,-100,4,2,0,60,0,0
17816,-133.333333333333,4,2,0,60,0,0
21122,-100,4,1,0,60,0,0
52087,-80,4,1,0,60,0,0
62892,-100,4,2,0,60,0,0
67972,-100,4,1,0,60,0,0
77568,-100,4,2,0,60,0,0
78294,-100,4,1,0,60,0,0
80793,-80,4,1,0,60,0,0
82083,-100,4,1,0,60,0,0
82406,-100,4,2,0,60,0,0
82567,-100,4,1,0,60,0,0
109016,-100,4,2,0,60,0,0
109177,-100,4,1,0,60,0,0
115789,-80,4,1,0,60,0,0
117080,-100,4,1,0,60,0,0
118854,-100,4,2,0,60,0,0
119579,-100,4,1,0,60,0,0
122079,-80,4,1,0,60,0,0
123531,-100,4,1,0,60,0,0
128369,-100,4,2,0,60,0,0
128530,-100,4,1,0,60,0,0
140222,-80,4,1,0,60,0,0
150141,-80,4,2,0,60,0,0
150544,-80,4,1,0,60,0,0
160785,-100,4,1,0,60,0,0
166268,-100,4,2,0,60,0,0
168526,-100,4,1,0,30,0,0
168929,-100,4,1,0,40,0,0
169251,-100,4,1,0,50,0,0
169574,-100,4,1,0,60,0,0
169897,-133.333333333333,4,2,0,60,0,0
171751,-133.333333333333,4,1,0,80,0,0
172316,-133.333333333333,4,2,0,80,0,0
172477,-80,4,1,0,80,0,1
190943,-80,4,2,0,80,0,1
191185,-80,4,2,0,80,0,0
191749,-80,4,1,0,80,0,0
192878,-80,4,1,0,80,0,1
211747,-80,4,2,0,80,0,1
212392,-80,4,1,0,80,0,1
213118,-133.333333333333,4,1,0,80,0,1
213521,-100,4,2,0,60,0,0
215295,-100,4,1,0,60,0,0
216263,-100,4,2,0,60,0,0
217714,-100,4,1,0,60,0,0
219246,-100,4,2,0,60,0,0
219327,-100,4,1,0,60,0,0
219891,-100,4,2,0,60,0,0
219972,-100,4,1,0,60,0,0
221423,-100,4,2,0,60,0,0
223923,-100,4,1,0,80,0,1
224165,-80,4,1,0,80,0,1
232067,-100,4,2,0,80,0,1
232874,-133.333333333333,4,2,0,30,0,0
235454,-133.333333333333,4,2,0,15,0,0

[Colours]
Combo1 : 255,128,255
Combo2 : 255,255,128
Combo3 : 128,255,128
Combo4 : 128,255,255

[HitObjects]
64,96,882,2,0,B|96:40|152:32|208:48|232:104,1,200,0|2,0:0|0:0,0:0:0
176,288,1528,6,0,B|208:344|264:352|320:336|344:280,1,200,0|2,0:0|0:0,0:0:0
448,96,2173,6,0,B|416:40|360:32|304:48|280:104,1,200,0|2,0:0|0:0,0:0:0
112,192,2818,5,0,0:0:0
304,192,3140,2,0,B|408:192,2,100,2|0|2,0:0|0:0|0:0,0:0:0
160,336,3785,6,0,B|168:272|96:256,1,100
40,192,4108,1,2,0:0:0
160,48,4269,2,0,B|168:112|96:128,1,100,2|0,0:0|0:0,0:0:0
184,192,4592,2,0,B|296:192,1,100,0|2,0:0|0:0,0:0:0
360,64,5076,6,0,B|464:64,2,100
152,64,5721,5,2,0:0:0
120,160,5882,1,0,0:0:0
184,240,6043,2,0,B|224:192|288:224,1,100,2|0,0:0|0:0,0:0:0
248,312,6366,1,0,0:0:0
408,232,6527,2,0,B|384:176|320:168,1,100,2|0,0:0|0:0,0:0:0
192,32,7011,6,0,B|304:32,2,100,2|0|2,0:0|0:0|0:0,0:0:0
192,32,7656,5,0,0:0:0
80,128,7979,1,2,0:0:0
224,176,8301,1,0,0:0:0
104,272,8624,1,4,0:0:0
256,192,8785,12,2,11204,0:0:0
120,192,11849,5,0,0:0:0
256,40,12172,2,0,B|312:32|352:72,1,100
272,136,12494,1,2,0:0:0
160,304,12817,5,0,0:0:0
160,304,13139,2,0,B|184:248|256:248,1,100,0|2,0:0|0:0,0:0:0
320,304,13462,2,0,B|368:344|432:296,1,100,0|2,0:0|0:0,0:0:0
368,224,13784,5,0,0:0:0
408,160,13946,1,0,0:0:0
368,96,14107,1,2,0:0:0
328,160,14268,1,0,0:0:0
288,224,14429,5,2,0:0:0
248,160,14591,1,0,0:0:0
288,96,14752,1,2,0:0:0
216,96,14913,1,0,0:0:0
216,96,15075,6,0,B|144:56|96:128|128:192|200:184,1,200,2|0,0:0|0:0,0:0:0
56,336,15720,2,0,B|56:280|120:264,1,100,2|0,0:0|0:0,0:0:0
211,241,16042,6,2,B|256:272|304:240,2,100,2|0|2,0:0|0:0|0:0,0:0:0
128,192,16526,1,0,0:0:0
304,144,16687,2,0,B|256:112|208:144,2,100,2|0|2,0:0|0:0|0:0,0:0:0
392,192,17171,5,0,0:0:0
448,112,17332,1,0,0:0:0
448,112,17494,2,0,B|400:56|320:112,1,100,2|0,0:0|0:0,0:0:0
176,48,17816,2,0,B|160:128,1,74.9999977648259,2|0,0:0|0:0,0:0:0
128,272,18139,5,0,0:0:0
200,288,18300,1,2,0:0:0
256,336,18461,1,0,0:0:0
312,288,18623,1,2,0:0:0
384,272,18784,1,0,0:0:0
384,272,18945,1,4,0:0:0
256,192,21203,5,0,0:0:0
36,32,21525,6,0,B|136:32,2,100,2|0|0,0:0|0:0|0:0,0:0:0
56,128,22009,1,0,0:0:0
144,168,22171,1,0,0:0:0
64,232,22332,2,0,B|32:288|72:336,1,100,0|2,0:0|0:0,0:0:0
152,280,22654,5,0,0:0:0
192,248,22735,1,0,0:0:0
240,240,22816,2,0,B|280:288|352:264,1,100
312,168,23138,1,2,0:0:0
312,168,23299,1,0,0:0:0
384,104,23461,2,0,B|432:144|408:216,1,100,2|0,0:0|0:0,0:0:0
240,96,23783,5,0,0:0:0
136,96,23945,1,0,0:0:0
96,72,24025,1,0,0:0:0
48,88,24106,2,0,B|32:152|96:184,1,100
156,272,24428,2,0,B|56:272,2,100,2|0|0,0:0|0:0|0:0,0:0:0
232,344,24912,6,0,B|248:280|320:280,1,100,0|2,0:0|0:0,0:0:0
400,256,25235,1,0,0:0:0
424,216,25315,1,0,0:0:0
400,176,25396,2,0,B|376:128|400:72,1,100,2|0,0:0|0:0,0:0:0
304,40,25719,2,0,B|272:82|218:86,1,100,0|2,0:0|0:0,0:0:0
128,48,26041,1,0,0:0:0
96,144,26202,2,0,B|80:208|144:248,1,100,2|0,0:0|0:0,0:0:0
200,168,26525,1,0,0:0:0
248,144,26606,1,0,0:0:0
296,152,26686,6,0,B|336:192|312:256,1,100,2|0,0:0|0:0,0:0:0
136,312,27009,1,0,0:0:0
136,312,27170,2,0,B|98:270|121:218,1,100
216,240,27493,1,0,0:0:0
248,336,27654,1,2,0:0:0
344,312,27815,2,0,B|416:312,2,50
328,216,28138,2,0,B|339:159|395:148,1,100,0|2,0:0|0:0,0:0:0
432,240,28460,5,0,0:0:0
272,112,28621,2,0,B|224:80|176:112,1,100,2|0,0:0|0:0,0:0:0
88,72,28944,1,0,0:0:0
40,160,29105,5,0,0:0:0
40,208,29186,1,0,0:0:0
88,224,29267,2,0,B|128:176|192:192,1,100,2|0,0:0|0:0,0:0:0
160,288,29589,5,0,0:0:0
168,336,29670,1,0,0:0:0
216,344,29750,2,0,B|256:280|344:320,1,100,2|0,0:0|0:0,0:0:0
400,280,30073,1,0,0:0:0
432,184,30234,5,2,0:0:0
440,136,30315,1,0,0:0:0
424,88,30395,1,0,0:0:0
376,64,30476,1,0,0:0:0
328,64,30557,2,0,B|288:112|328:168,1,100,2|0,0:0|0:0,0:0:0
256,232,30879,5,0,0:0:0
184,64,31041,2,0,B|224:112|184:168,1,100,2|0,0:0|0:0,0:0:0
96,120,31363,1,2,0:0:0
48,208,31524,2,0,B|40:264|96:296,1,100,0|2,0:0|0:0,0:0:0
192,296,31847,1,6,0:0:0
288,280,32008,6,0,B|344:240|408:288,1,100
448,192,32331,1,0,0:0:0
288,104,32492,2,0,B|344:144|408:96,1,100
336,24,32815,1,2,0:0:0
328,216,32976,5,0,0:0:0
328,216,33137,2,0,B|384:216|408:280,2,100,0|0|2,0:0|0:0|0:0,0:0:0
224,216,33621,1,0,0:0:0
128,208,33782,1,2,0:0:0
80,128,33943,2,0,B|104:72|168:64,1,100
256,64,34266,5,0,0:0:0
432,128,34427,2,0,B|408:72|344:64,1,100
344,168,34750,1,2,0:0:0
424,232,34911,1,0,0:0:0
326,262,35072,6,0,B|280:232|232:256,1,100
272,344,35395,1,2,0:0:0
240,160,35556,2,0,B|288:136|334:166,1,100,0|2,0:0|0:0,0:0:0
296,72,35879,1,0,0:0:0
200,64,36040,1,0,0:0:0
200,64,36201,6,0,B|144:112|184:200,1,100,2|0,0:0|0:0,0:0:0
80,208,36524,2,0,B|88:272|152:296,1,100,2|0,0:0|0:0,0:0:0
224,336,36846,1,0,0:0:0
248,288,36927,1,0,0:0:0
288,264,37008,6,0,B|328:216|392:240,1,100,2|0,0:0|0:0,0:0:0
479,65,37330,2,0,B|448:160,1,100
352,136,37653,1,0,0:0:0
280,72,37814,1,0,0:0:0
248,112,37895,1,0,0:0:0
200,136,37975,2,0,B|72:136,2,100,2|0|0,0:0|0:0|0:0,0:0:0
200,336,38459,6,0,B|320:336,1,100,0|2,0:0|0:0,0:0:0
392,296,38782,1,0,0:0:0
432,264,38862,1,0,0:0:0
448,216,38943,2,0,B|416:168|344:184,1,100,2|0,0:0|0:0,0:0:0
280,240,39265,1,0,0:0:0
184,208,39427,1,0,0:0:0
160,112,39588,5,2,0:0:0
240,56,39749,1,0,0:0:0
336,80,39911,1,0,0:0:0
336,80,40072,2,0,B|448:80,2,100,2|0|0,0:0|0:0|0:0,0:0:0
336,280,40556,6,0,B|316:326|260:342|204:334|172:278,1,200,2|2,0:0|0:0,0:0:0
152,256,40959,1,0,0:0:0
144,224,41039,1,0,0:0:0
144,192,41120,1,0,0:0:0
152,160,41201,1,0,0:0:0
168,136,41281,1,0,0:0:0
192,120,41362,5,2,0:0:0
224,112,41443,1,0,0:0:0
256,112,41523,1,0,0:0:0
280,120,41604,1,0,0:0:0
304,136,41685,5,2,0:0:0
336,144,41765,1,0,0:0:0
368,144,41846,1,0,0:0:0
400,136,41926,1,0,0:0:0
424,120,42007,1,2,0:0:0
440,96,42088,1,0,0:0:0
448,64,42168,5,4,0:0:0
448,320,42491,6,0,B|408:280|352:304,1,100
312,216,42813,1,8,0:0:0
272,304,42975,2,0,B|232:344|176:320,1,100
200,224,43297,1,0,0:0:0
184,128,43459,1,8,0:0:0
104,192,43620,2,0,B|81:244|121:284,1,100
272,304,43942,2,0,B|232:344|176:320,1,100,2|0,0:0|0:0,0:0:0
200,224,44265,1,2,0:0:0
448,64,44587,5,0,0:0:0
448,64,44749,2,0,B|408:104|352:80,1,100,2|0,0:0|0:0,0:0:0
312,168,45071,1,8,0:0:0
272,80,45233,2,0,B|232:40|176:64,1,100,0|2,0:0|0:0,0:0:0
200,160,45555,1,0,0:0:0
184,256,45717,1,8,0:0:0
104,192,45878,2,0,B|81:139|121:99,1,100,0|0,0:0|0:0,0:0:0
272,80,46200,2,0,B|232:40|176:64,1,100,2|0,0:0|0:0,0:0:0
200,160,46523,1,2,0:0:0
160,352,46845,1,2,0:0:0
344,232,47168,6,0,B|375:183|341:137,1,100,0|0,0:0|0:0,0:0:0
256,184,47490,1,0,0:0:0
256,184,47652,1,8,0:0:0
170,137,47813,2,0,B|136:183|168:232,1,100,0|0,0:0|0:0,0:0:0
256,184,48135,1,0,0:0:0
256,184,48297,1,8,0:0:0
344,232,48458,6,0,B|375:183|341:137,1,100,0|2,0:0|0:0,0:0:0
256,80,48781,1,0,0:0:0
170,137,48942,2,0,B|136:183|168:232,1,100,0|2,0:0|0:0,0:0:0
256,280,49264,1,0,0:0:0
344,232,49426,2,0,B|375:183|341:137,1,100,2|0,0:0|0:0,0:0:0
256,80,49748,1,0,0:0:0
160,40,49909,6,0,B|96:56|96:136,1,100,2|0,0:0|0:0,0:0:0
40,192,50232,1,8,0:0:0
160,344,50393,2,0,B|96:328|96:248,1,100,0|0,0:0|0:0,0:0:0
160,192,50716,1,0,0:0:0
256,152,50877,1,8,0:0:0
352,192,51038,1,0,0:0:0
256,232,51200,2,0,B|264:288|328:312,1,100,4|0,0:0|0:0,0:0:0
196,306,51522,2,0,B|248:288|256:232,1,100,0|4,0:0|0:0,0:0:0
256,80,51845,1,4,0:0:0
256,80,52167,5,8,0:0:0
128,96,52329,1,0,0:0:0
128,96,52409,1,0,0:0:0
128,96,52490,2,0,P|80:136|64:200,1,125
80,320,52812,2,0,P|136:304|200:320,1,125,8|0,0:0|0:0,0:0:0
256,208,53135,1,0,0:0:0
256,208,53296,1,0,0:0:0
312,320,53457,2,0,P|376:336|432:320,1,125,8|0,0:0|0:0,0:0:0
472,136,53780,2,0,P|488:72,2,62.5
352,112,54103,2,0,P|304:72|240:72,1,125,8|2,0:0|0:0,0:0:0
51,118,54425,1,0,0:0:0
51,118,54506,1,0,0:0:0
51,118,54586,2,0,P|99:158|160:160,1,125,2|0,0:0|0:0,0:0:0
144,32,54909,1,2,0:0:0
64,272,55070,5,8,0:0:0
160,360,55231,1,0,0:0:0
280,312,55393,2,0,P|336:296|400:312,1,125,8|0,0:0|0:0,0:0:0
256,192,55715,1,0,0:0:0
256,192,55877,1,0,0:0:0
232,72,56038,2,0,P|176:88|112:72,1,125,8|0,0:0|0:0,0:0:0
152,256,56360,2,0,P|96:328,2,62.5
280,256,56683,2,10,P|336:240|408:256,1,125,8|2,0:0|0:0,0:0:0
464,132,57005,1,0,0:0:0
464,132,57086,1,0,0:0:0
464,132,57167,2,10,P|408:148|344:136,1,125,2|0,0:0|0:0,0:0:0
400,24,57489,1,2,0:0:0
400,280,57651,5,8,0:0:0
104,48,57973,1,8,0:0:0
224,80,58134,2,0,P|200:144|144:168,1,125
80,272,58457,1,0,0:0:0
192,320,58618,2,0,P|256:328|320:320,1,125,8|0,0:0|0:0,0:0:0
256,192,58941,1,0,0:0:0
256,192,59102,1,0,0:0:0
315,63,59263,2,0,P|256:56|192:64,1,125,8|2,0:0|0:0,0:0:0
40,136,59586,1,0,0:0:0
40,136,59667,1,0,0:0:0
40,136,59747,2,0,P|99:143|163:135,1,125,2|0,0:0|0:0,0:0:0
256,288,60070,1,2,0:0:0
472,136,60231,6,0,P|408:128|348:135,1,125,2|0,0:0|0:0,0:0:0
408,248,60554,1,8,0:0:0
348,55,60715,2,0,P|408:48|472:56,1,125,2|0,0:0|0:0,0:0:0
104,128,61199,1,8,0:0:0
64,248,61360,1,0,0:0:0
64,248,61441,1,0,0:0:0
64,248,61521,1,0,0:0:0
176,304,61682,1,0,0:0:0
256,208,61844,1,8,0:0:0
256,208,61924,1,0,0:0:0
256,208,62005,1,0,0:0:0
368,256,62166,5,0,0:0:0
384,256,62247,1,0,0:0:0
400,256,62328,1,8,0:0:0
416,256,62408,1,0,0:0:0
432,256,62489,1,0,0:0:0
448,256,62569,1,0,0:0:0
464,256,62650,1,8,0:0:0
480,256,62731,1,0,0:0:0
496,256,62811,1,12,0:0:0
256,192,62973,12,4,64747,0:0:0
256,192,64908,12,2,66359,0:0:0
64,176,66682,5,0,0:0:0
72,208,66763,1,0,0:0:0
88,232,66843,1,0,0:0:0
112,248,66924,1,0,0:0:0
144,256,67004,1,0,0:0:0
176,256,67085,1,0,0:0:0
208,248,67166,1,0,0:0:0
232,232,67246,1,0,0:0:0
248,208,67327,5,0,0:0:0
256,176,67408,1,0,0:0:0
264,144,67488,1,0,0:0:0
272,112,67569,1,0,0:0:0
288,88,67649,1,0,0:0:0
312,72,67730,1,0,0:0:0
344,64,67810,1,0,0:0:0
376,64,67891,1,0,0:0:0
408,72,67972,6,0,B|476:99|454:179,1,100,8|0,0:0|0:0,0:0:0
373,248,68295,2,0,B|384:320|303:341,1,100
133,329,68617,2,0,B|232:312,1,100,8|0,0:0|0:0,0:0:0
336,144,68940,1,0,0:0:0
336,144,69101,2,0,B|304:96|240:96,1,100,0|8,0:0|0:0,0:0:0
248,200,69424,5,0,0:0:0
344,24,69585,1,0,0:0:0
432,72,69746,2,0,B|464:120|440:176,1,100,0|8,0:0|0:0,0:0:0
360,224,70069,1,0,0:0:0
248,64,70230,6,0,B|200:32|144:72,2,100,0|0|8,0:0|0:0|0:0,0:0:0
200,152,70714,1,0,0:0:0
112,192,70875,6,0,B|80:144|120:88,2,100,0|0|8,0:0|0:0|0:0,0:0:0
168,272,71359,1,0,0:0:0
256,232,71520,2,0,B|272:176|336:176,1,100
344,272,71843,1,8,0:0:0
400,184,72004,5,0,0:0:0
376,88,72165,2,0,B|336:40|264:80,1,100
256,168,72488,2,0,B|216:216|144:176,1,100,8|0,0:0|0:0,0:0:0
200,96,72810,5,0,0:0:0
240,288,72972,1,0,0:0:0
240,288,73133,2,0,B|344:336,2,100,8|0|0,0:0|0:0|0:0,0:0:0
144,320,73617,1,0,0:0:0
104,224,73778,1,8,0:0:0
72,128,73939,1,0,0:0:0
168,152,74100,5,0,0:0:0
200,248,74262,2,0,B|232:184|320:192,1,100,0|8,0:0|0:0,0:0:0
304,288,74584,1,0,0:0:0
384,232,74746,5,2,0:0:0
400,328,74907,1,0,0:0:0
384,232,75068,1,2,0:0:0
480,256,75229,1,0,0:0:0
384,232,75391,1,2,0:0:0
320,152,75552,1,0,0:0:0
256,72,75713,6,0,B|200:32|128:96,1,100,2|0,0:0|0:0,0:0:0
208,160,76036,1,8,0:0:0
60,279,76197,2,0,B|152:240,1,100
256,248,76520,1,0,0:0:0
451,279,76681,2,0,B|360:240,1,100,8|0,0:0|0:0,0:0:0
384,144,77003,5,0,0:0:0
336,56,77165,1,0,0:0:0
256,112,77326,2,0,B|224:64|152:88,1,100,8|0,0:0|0:0,0:0:0
96,152,77648,5,2,0:0:0
88,200,77729,1,0,0:0:0
96,248,77810,1,0,0:0:0
176,312,77971,5,2,0:0:0
216,280,78052,1,0,0:0:0
264,264,78132,1,2,0:0:0
312,264,78213,1,0,0:0:0
360,280,78294,1,4,0:0:0
144,80,78616,5,0,0:0:0
240,48,78777,2,0,B|240:112|304:136,1,100,0|8,0:0|0:0,0:0:0
344,48,79100,1,0,0:0:0
424,104,79261,2,0,B|424:168|360:192,1,100
352,280,79584,2,0,B|319:227|262:217|201:266|239:349,1,200,8|0,0:0|0:0,0:0:0
160,256,80068,2,0,B|184:192|256:168,1,100,0|8,0:0|0:0,0:0:0
371,193,80390,6,0,B|316:152|242:171,1,100,0|0,0:0|0:0,0:0:0
224,80,80713,1,0,0:0:0
104,104,80874,5,2,0:0:0
72,224,81035,1,0,0:0:0
72,224,81196,1,2,0:0:0
168,144,81358,5,0,0:0:0
168,144,81519,1,2,0:0:0
160,272,81680,1,0,0:0:0
240,176,81842,5,2,0:0:0
264,296,82003,1,0,0:0:0
264,296,82164,6,0,B|304:344|376:328,1,100,2|0,0:0|0:0,0:0:0
432,280,82487,2,0,B|496:152,1,100,2|0,0:0|0:0,0:0:0
432,104,82809,1,2,0:0:0
344,56,82970,2,0,B|280:32|232:96,1,100,0|0,0:0|0:0,0:0:0
320,144,83293,5,0,0:0:0
256,216,83454,1,2,0:0:0
192,144,83616,1,0,0:0:0
256,288,83777,5,2,0:0:0
320,144,83938,1,0,0:0:0
256,360,84099,1,2,0:0:0
192,144,84261,5,0,0:0:0
256,216,84422,1,8,0:0:0
320,144,84583,2,0,B|352:96|416:112,1,100,2|0,0:0|0:0,0:0:0
392,208,84906,1,0,0:0:0
304,24,85067,6,0,B|272:80|192:64,1,100,2|0,0:0|0:0,0:0:0
128,32,85390,2,0,B|96:88|152:144,1,100,2|0,0:0|0:0,0:0:0
88,208,85712,1,2,0:0:0
184,224,85873,1,0,0:0:0
232,136,86035,1,6,0:0:0
256,192,86196,12,0,87970,0:0:0
368,240,88131,5,0,0:0:0
320,328,88292,1,0,0:0:0
256,248,88454,2,0,B|208:216|156:251,1,100,0|2,0:0|0:0,0:0:0
208,336,88776,1,0,0:0:0
112,160,88938,1,0,0:0:0
64,72,89099,2,0,B|112:48|164:72,1,100
256,40,89421,1,0,0:0:0
288,136,89583,5,2,0:0:0
368,80,89744,1,0,0:0:0
408,48,89825,1,0,0:0:0
448,80,89905,2,0,B|480:136|440:192,1,100
368,224,90228,2,0,B|320:184|248:224,1,100,2|0,0:0|0:0,0:0:0
312,304,90550,5,2,0:0:0
216,336,90712,2,0,B|167:358|119:334,1,100
80,240,91034,1,0,0:0:0
64,192,91115,1,0,0:0:0
96,152,91195,2,0,B|126:108|180:105,1,100
256,40,91518,5,2,0:0:0
331,105,91679,2,0,B|385:108|416:152,1,100
432,248,92002,1,0,0:0:0
352,312,92163,1,2,0:0:0
280,240,92324,5,0,0:0:0
200,192,92486,1,2,0:0:0
192,288,92647,1,0,0:0:0
112,232,92808,2,0,B|108:178|65:147,1,100,0|2,0:0|0:0,0:0:0
16,56,93131,2,0,B|64:32|112:54,1,100,0|2,0:0|0:0,0:0:0
297,160,93453,6,0,B|320:112|296:64,1,100,0|4,0:0|0:0,0:0:0
208,112,93776,1,2,0:0:0
390,63,93937,2,0,B|414:111|392:160,1,100
470,326,94260,2,0,B|400:256,1,100
312,304,94582,1,0,0:0:0
256,216,94743,5,2,0:0:0
200,304,94905,1,0,0:0:0
160,328,94985,1,0,0:0:0
112,304,95066,2,0,B|112:240|32:224,1,100,0|0,0:0|0:0,0:0:0
208,112,95388,6,0,B|256:88|304:110,1,100,2|0,0:0|0:0,0:0:0
376,40,95711,1,2,0:0:0
408,136,95872,2,0,B|432:184|410:232,1,100
368,320,96195,5,0,0:0:0
336,280,96275,1,0,0:0:0
296,256,96356,2,0,B|256:208|176:224,1,100,2|0,0:0|0:0,0:0:0
144,64,96679,5,0,0:0:0
176,104,96759,1,0,0:0:0
216,128,96840,2,0,B|256:176|336:160,1,100,2|0,0:0|0:0,0:0:0
296,64,97162,5,0,0:0:0
344,40,97243,1,0,0:0:0
392,48,97324,1,2,0:0:0
424,88,97404,1,0,0:0:0
424,136,97485,1,0,0:0:0
392,176,97566,1,0,0:0:0
376,224,97646,2,0,B|386:282|440:312,1,100,2|0,0:0|0:0,0:0:0
472,216,97969,5,0,0:0:0
304,320,98130,2,0,B|294:262|240:232,1,100,2|0,0:0|0:0,0:0:0
160,192,98453,1,2,0:0:0
304,64,98614,2,0,B|294:122|240:152,1,100,0|2,0:0|0:0,0:0:0
208,56,98936,1,4,0:0:0
104,56,99098,6,0,B|0:56,2,100
56,144,99582,1,0,0:0:0
32,240,99743,2,0,B|64:304|152:280,1,100,0|2,0:0|0:0,0:0:0
216,288,100065,5,0,0:0:0
256,192,100227,1,0,0:0:0
296,288,100388,1,0,0:0:0
392,288,100549,2,0,B|424:224|512:248,1,100,2|0,0:0|0:0,0:0:0
472,344,100872,1,2,0:0:0
376,168,101033,6,0,B|296:48,1,100
240,24,101356,1,0,0:0:0
216,120,101517,1,0,0:0:0
136,56,101678,1,0,0:0:0
104,152,101839,1,2,0:0:0
112,256,102001,6,0,B|144:208|208:208,1,100
192,304,102323,1,0,0:0:0
400,256,102484,2,0,B|368:208|304:208,1,100,2|0,0:0|0:0,0:0:0
320,304,102806,1,2,0:0:0
256,224,102968,5,0,0:0:0
200,144,103130,2,0,B|176:208|96:200,1,100,0|2,0:0|0:0,0:0:0
312,144,103452,2,0,B|336:208|416:200,1,100,0|2,0:0|0:0,0:0:0
392,104,103775,1,0,0:0:0
312,48,103936,6,0,B|256:32,1,50
216,32,104097,2,0,B|152:48|136:120,1,100
56,144,104420,1,0,0:0:0
144,192,104581,1,0,0:0:0
56,240,104742,1,0,0:0:0
144,288,104904,2,0,B|184:240|240:256,1,100,0|2,0:0|0:0,0:0:0
216,352,105226,5,0,0:0:0
256,160,105387,2,0,B|296:200|360:192,1,100,0|2,0:0|0:0,0:0:0
352,96,105710,1,2,0:0:0
458,79,105871,2,0,B|464:136|424:168,1,100,0|2,0:0|0:0,0:0:0
416,264,106194,5,0,0:0:0
368,352,106355,1,0,0:0:0
320,264,106516,1,0,0:0:0
272,352,106678,1,0,0:0:0
224,264,106839,1,0,0:0:0
176,176,107000,2,0,B|104:176,2,50,2|0|0,0:0|0:0|0:0,0:0:0
224,88,107323,6,0,B|296:88,1,50
328,88,107484,1,0,0:0:0
418,176,107645,2,0,B|368:176,1,50,2|0,0:0|0:0,0:0:0
320,176,107806,1,0,0:0:0
224,136,107968,5,0,0:0:0
184,112,108048,1,0,0:0:0
136,112,108129,1,0,0:0:0
96,136,108210,1,0,0:0:0
80,184,108290,1,0,0:0:0
88,232,108371,1,0,0:0:0
128,264,108452,5,0,0:0:0
176,272,108532,1,0,0:0:0
224,248,108613,1,0,0:0:0
272,232,108693,1,0,0:0:0
320,248,108774,2,0,B|371:221|424:248,1,100,0|2,0:0|0:0,0:0:0
368,336,109097,1,2,0:0:0
416,152,109258,6,0,B|368:128|319:151,1,100,4|2,0:0|0:0,0:0:0
256,72,109580,1,0,0:0:0
96,152,109742,2,0,B|144:128|193:151,1,100,4|2,0:0|0:0,0:0:0
256,344,110226,6,0,B|144:352,2,100,0|2|0,0:0|0:0|0:0,0:0:0
296,256,110709,1,2,0:0:0
216,192,110871,1,0,0:0:0
312,152,111032,1,0,0:0:0
240,80,111193,2,0,B|192:64|136:80,1,100,2|0,0:0|0:0,0:0:0
32,248,111516,5,0,0:0:0
112,192,111677,1,0,0:0:0
120,288,111838,1,2,0:0:0
480,248,112161,5,0,0:0:0
400,192,112322,1,0,0:0:0
392,288,112483,1,2,0:0:0
256,40,112806,5,0,0:0:0
256,40,112967,1,2,0:0:0
192,112,113128,1,0,0:0:0
192,112,113290,1,2,0:0:0
128,40,113451,1,0,0:0:0
128,40,113612,1,0,0:0:0
128,40,113774,1,2,0:0:0
112,240,114096,5,2,0:0:0
176,320,114257,1,0,0:0:0
232,232,114419,2,0,B|248:176|312:176,1,100,2|0,0:0|0:0,0:0:0
344,272,114741,2,0,B|400:256|400:192,1,100
400,96,115064,1,2,0:0:0
320,40,115225,5,0,0:0:0
256,120,115386,1,0,0:0:0
192,40,115548,1,0,0:0:0
112,96,115709,6,0,B|80:152|112:224,1,100,2|0,0:0|0:0,0:0:0
48,304,116031,2,0,B|104:336|176:304,1,100,2|0,0:0|0:0,0:0:0
192,176,116354,2,0,B|224:232|192:304,1,100,2|0,0:0|0:0,0:0:0
344,320,116677,2,0,B|288:352|215:320,1,100,2|0,0:0|0:0,0:0:0
128,240,116999,1,2,0:0:0
176,48,117322,5,0,0:0:0
272,32,117483,1,0,0:0:0
312,128,117644,1,0,0:0:0
336,104,117725,1,0,0:0:0
368,96,117805,1,0,0:0:0
400,104,117886,1,0,0:0:0
424,128,117967,1,0,0:0:0
432,160,118047,1,0,0:0:0
424,192,118128,1,0,0:0:0
400,216,118209,1,0,0:0:0
368,224,118289,5,0,0:0:0
336,216,118370,1,0,0:0:0
304,208,118451,1,0,0:0:0
272,216,118531,1,0,0:0:0
248,232,118612,1,0,0:0:0
208,320,118773,1,0,0:0:0
128,264,118934,6,0,B|72:320,2,50
48,200,119257,2,0,B|88:168,1,50,2|0,0:0|0:0,0:0:0
80,120,119418,2,0,B|144:112,1,50,2|0,0:0|0:0,0:0:0
152,72,119579,1,2,0:0:0
256,64,119741,5,0,0:0:0
304,152,119902,1,0,0:0:0
400,128,120063,2,0,B|416:192|376:232,1,100,0|2,0:0|0:0,0:0:0
408,320,120386,2,0,B|352:328|304:288,1,100
256,216,120708,1,0,0:0:0
104,320,120870,6,0,B|160:328|208:288,1,100,2|0,0:0|0:0,0:0:0
128,224,121192,1,0,0:0:0
56,152,121353,1,0,0:0:0
152,128,121515,2,0,B|168:72|232:56,1,100,0|2,0:0|0:0,0:0:0
320,64,121837,2,0,B|448:120,1,100
416,232,122160,5,2,0:0:0
312,160,122321,1,0,0:0:0
240,256,122482,1,2,0:0:0
368,272,122644,5,0,0:0:0
264,200,122805,1,2,0:0:0
192,296,122966,1,0,0:0:0
312,272,123127,5,2,0:0:0
216,352,123288,5,0,0:0:0
168,240,123450,1,2,0:0:0
256,64,123773,5,2,0:0:0
56,80,124095,1,2,0:0:0
56,176,124256,5,0,0:0:0
104,200,124337,1,0,0:0:0
144,168,124418,2,0,B|200:160|248:200,1,100
304,272,124740,1,2,0:0:0
368,112,124901,1,0,0:0:0
368,272,125063,1,2,0:0:0
304,112,125224,1,0,0:0:0
368,192,125385,2,0,B|480:192,2,100,2|0|0,0:0|0:0|0:0,0:0:0
264,192,125869,6,0,B|256:200|256:200|248:184|248:184|240:200|240:200|232:184|232:184|224:200|224:200|216:184|216:184|208:200|208:200|200:184|200:184|192:200|192:200|184:184|184:184|176:192|176:192|144:192,1,200,2|8,0:0|0:0,0:0:0
72,240,126353,2,0,B|72:304|144:304,1,100,0|2,0:0|0:0,0:0:0
72,144,126675,2,0,B|72:80|144:80,1,100,0|2,0:0|0:0,0:0:0
328,80,126998,1,2,0:0:0
360,288,127159,1,0,0:0:0
168,216,127321,1,6,0:0:0
256,192,127482,12,0,128449,0:0:0
256,192,128611,12,0,129578,0:0:0
144,200,129901,6,0,B|128:256|160:296,1,100
256,264,130223,1,0,0:0:0
256,160,130385,1,0,0:0:0
368,200,130546,2,0,B|384:256|352:296,2,100,8|0|0,0:0|0:0|0:0,0:0:0
440,128,131030,2,0,B|408:88|352:88,1,100,0|8,0:0|0:0,0:0:0
256,56,131352,1,0,0:0:0
256,56,131514,1,0,0:0:0
72,128,131675,2,0,B|104:88|160:88,1,100,2|0,0:0|0:0,0:0:0
152,184,131997,1,2,0:0:0
312,304,132320,5,0,0:0:0
408,288,132481,2,0,B|424:232|376:192,1,100
344,24,132804,2,0,B|301:58|317:114,1,100,8|0,0:0|0:0,0:0:0
280,208,133126,1,0,0:0:0
200,152,133288,1,0,0:0:0
192,248,133449,2,0,B|184:304|136:336,1,100,8|0,0:0|0:0,0:0:0
96,240,133771,1,0,0:0:0
264,352,133933,2,0,B|288:304|344:296,1,100
440,296,134255,1,2,0:0:0
440,192,134417,2,0,B|416:144|360:136,1,100,0|2,0:0|0:0,0:0:0
176,72,134900,5,0,0:0:0
80,104,135062,2,0,B|88:160|144:176,1,100,4|0,0:0|0:0,0:0:0
168,272,135384,2,0,B|224:264|240:208,1,100,8|0,0:0|0:0,0:0:0
272,112,135707,1,0,0:0:0
452,66,135868,2,0,B|368:120,1,100,0|8,0:0|0:0,0:0:0
360,216,136191,1,0,0:0:0
448,272,136352,2,0,B|440:328|384:352,1,100
296,336,136674,2,0,B|256:296,1,50,8|0,0:0|0:0,0:0:0
216,272,136836,1,2,0:0:0
120,296,136997,1,0,0:0:0
72,208,137158,1,2,0:0:0
144,136,137319,1,0,0:0:0
320,40,137481,1,0,0:0:0
320,40,137642,5,2,0:0:0
336,136,137803,1,0,0:0:0
432,112,137965,1,8,0:0:0
432,112,138126,1,0,0:0:0
448,208,138287,2,0,B|488:248|456:304,1,100
368,264,138610,2,0,B|320:264,1,50,8|0,0:0|0:0,0:0:0
264,264,138771,1,0,0:0:0
248,72,138932,1,4,0:0:0
248,72,139093,1,2,0:0:0
160,248,139255,1,4,0:0:0
160,248,139416,1,2,0:0:0
64,248,139577,5,0,0:0:0
56,216,139658,1,0,0:0:0
56,184,139739,1,0,0:0:0
72,160,139819,1,0,0:0:0
96,144,139900,1,0,0:0:0
128,136,139980,1,0,0:0:0
160,144,140061,1,0,0:0:0
184,160,140142,1,0,0:0:0
216,184,140222,6,0,B|272:224|336:184,1,124.999998137355
272,72,140545,1,8,0:0:0
272,328,140706,1,0,0:0:0
392,304,140867,1,0,0:0:0
440,184,141029,1,0,0:0:0
376,80,141190,2,0,B|304:104|312:184,1,124.999998137355,8|0,0:0|0:0,0:0:0
440,184,141513,5,0,0:0:0
224,64,141674,1,0,0:0:0
248,184,141835,1,8,0:0:0
128,144,141996,1,2,0:0:0
144,272,142158,1,0,0:0:0
176,328,142238,1,0,0:0:0
240,344,142319,2,0,B|312:352|352:296,1,124.999998137355,2|0,0:0|0:0,0:0:0
352,176,142641,1,0,0:0:0
440,88,142803,6,0,B|400:40|328:40,1,124.999998137355
352,176,143125,1,8,0:0:0
240,120,143287,1,0,0:0:0
304,224,143448,1,0,0:0:0
192,168,143609,1,0,0:0:0
256,272,143770,1,8,0:0:0
144,216,143932,1,0,0:0:0
216,320,144093,6,0,B|160:288|96:312,1,124.999998137355
40,200,144415,2,0,B|40:128|112:104,1,124.999998137355,8|2,0:0|0:0,0:0:0
224,56,144738,1,0,0:0:0
280,40,144819,1,0,0:0:0
336,56,144899,1,2,0:0:0
472,184,145061,1,0,0:0:0
416,208,145142,1,0,0:0:0
360,184,145222,1,2,0:0:0
240,160,145383,6,0,B|176:160|176:160|136:208,1,124.999998137355
72,312,145706,1,8,0:0:0
200,312,145867,1,0,0:0:0
136,208,146028,1,0,0:0:0
72,312,146189,1,0,0:0:0
200,312,146351,1,8,0:0:0
296,232,146512,6,0,B|296:160|360:128,1,124.999998137355
424,240,146835,1,0,0:0:0
216,104,146996,1,8,0:0:0
424,240,147157,1,2,0:0:0
464,120,147318,2,0,B|488:56,2,62.4999990686774,0|0|2,0:0|0:0|0:0,0:0:0
360,48,147641,2,0,B|296:24|240:24|176:48,1,187.499997206032,8|0,0:0|0:0,0:0:0
136,96,147963,6,0,B|160:160|120:216,1,124.999998137355,2|0,0:0|0:0,0:0:0
24,136,148286,1,8,0:0:0
264,192,148447,1,2,0:0:0
312,312,148609,1,0,0:0:0
192,296,148770,1,0,0:0:0
264,192,148931,1,8,0:0:0
312,312,149092,1,0,0:0:0
400,216,149254,1,0,0:0:0
352,96,149415,2,0,B|312:48|240:48,1,124.999998137355,0|8,0:0|0:0,0:0:0
136,112,149737,1,0,0:0:0
72,216,149899,1,0,0:0:0
64,232,149979,1,0,0:0:0
56,248,150060,1,0,0:0:0
136,344,150221,5,0,0:0:0
144,328,150302,1,0,0:0:0
152,312,150383,1,0,0:0:0
160,296,150463,1,0,0:0:0
168,280,150544,1,2,0:0:0
208,64,160865,6,0,B|224:120|184:160,1,100,2|0,0:0|0:0,0:0:0
304,64,161188,2,0,B|288:120|328:160,1,100,2|0,0:0|0:0,0:0:0
256,224,161510,1,0,0:0:0
352,248,161672,1,0,0:0:0
352,248,161752,1,0,0:0:0
352,248,161833,2,0,B|360:304|312:336,1,100,8|0,0:0|0:0,0:0:0
160,248,162155,2,0,B|152:304|200:336,1,100
256,224,162478,6,0,B|264:168|216:136,1,100,2|0,0:0|0:0,0:0:0
224,40,162801,2,0,B|168:32|136:80,1,100,2|0,0:0|0:0,0:0:0
128,176,163123,2,0,B|72:184|40:136,1,100,2|0,0:0|0:0,0:0:0
40,88,163365,2,0,B|40:32,1,50,0|8,0:0|0:0,0:0:0
40,232,163607,5,0,0:0:0
96,320,163768,2,0,B|144:352|192:320,1,100,2|0,0:0|0:0,0:0:0
288,352,164091,2,0,B|344:340|355:284,1,100,2|0,0:0|0:0,0:0:0
440,232,164413,2,0,B|471:183|439:135,1,100,2|0,0:0|0:0,0:0:0
344,104,164736,2,0,B|332:47|276:36,1,100,2|0,0:0|0:0,0:0:0
176,32,165058,2,0,B|128:48|128:48|128:104,1,100,2|0,0:0|0:0,0:0:0
80,184,165381,2,0,B|128:200|128:200|128:256,1,100,2|0,0:0|0:0,0:0:0
184,336,165703,1,0,0:0:0
256,264,165865,1,0,0:0:0
256,264,165945,1,0,0:0:0
256,264,166026,1,8,0:0:0
328,336,166187,1,0,0:0:0
400,192,166349,5,4,0:0:0
120,192,166671,5,4,0:0:0
352,352,166994,5,4,0:0:0
256,88,167316,5,4,0:0:0
168,352,167639,5,4,0:0:0
400,192,167961,5,4,0:0:0
120,192,168284,5,4,0:0:0
352,352,168606,5,0,0:0:0
344,336,168687,1,0,0:0:0
360,320,168768,1,0,0:0:0
344,304,168848,1,0,0:0:0
360,288,168929,5,0,0:0:0
344,272,169010,1,0,0:0:0
360,256,169090,1,0,0:0:0
344,240,169171,1,0,0:0:0
360,224,169251,5,0,0:0:0
344,208,169332,1,0,0:0:0
360,192,169413,1,0,0:0:0
344,176,169493,1,0,0:0:0
352,160,169574,6,0,B|352:104|400:72,2,100,0|0|4,0:0|0:0|0:0,0:0:0
280,136,170058,1,0,0:0:0
256,64,170219,2,0,B|168:16|72:80|72:208|168:272|272:216,1,374.999988824129
272,224,171106,5,0,0:0:0
312,224,171187,2,0,B|376:224|408:272|392:328,1,149.999995529652,2|0,0:0|0:0,0:0:0
320,304,171671,1,4,0:0:0
416,192,171832,5,0,0:0:0
440,160,171912,1,0,0:0:0
464,128,171993,1,0,0:0:0
504,64,172154,2,0,B|456:40|392:48,1,112.499996647239,0|0,0:0|0:0,0:0:0
368,64,172477,5,0,0:0:0
288,160,172638,1,0,0:0:0
280,168,172719,1,0,0:0:0
272,176,172799,1,0,0:0:0
208,64,172961,2,0,B|144:32|96:88,1,124.999998137355,0|2,0:0|0:0,0:0:0
160,192,173283,5,0,0:0:0
208,320,173445,2,0,B|144:352|96:296,1,124.999998137355,2|0,0:0|0:0,0:0:0
32,192,173767,1,2,0:0:0
136,128,173928,1,0,0:0:0
184,248,174090,1,2,0:0:0
216,128,174251,1,0,0:0:0
264,248,174412,6,0,B|304:304|376:288,1,124.999998137355,2|0,0:0|0:0,0:0:0
360,160,174735,1,0,0:0:0
448,72,174896,1,0,0:0:0
448,72,174977,1,0,0:0:0
448,72,175057,6,0,B|504:112|488:184,1,124.999998137355,2|0,0:0|0:0,0:0:0
408,280,175380,1,0,0:0:0
400,272,175461,1,0,0:0:0
392,264,175541,1,0,0:0:0
272,216,175702,5,2,0:0:0
304,96,175864,1,0,0:0:0
192,40,176025,2,0,B|112:48|104:136,1,124.999998137355,2|0,0:0|0:0,0:0:0
168,232,176348,1,8,0:0:0
152,240,176428,1,0,0:0:0
136,248,176509,1,0,0:0:0
216,344,176670,1,8,0:0:0
336,304,176831,5,2,0:0:0
296,184,176993,2,0,B|328:120|400:120,1,124.999998137355
408,248,177315,1,2,0:0:0
408,248,177476,1,0,0:0:0
264,40,177638,5,6,0:0:0
408,248,177799,1,0,0:0:0
264,40,177960,1,0,0:0:0
192,144,178122,2,0,B|152:200|80:176,1,124.999998137355,2|0,0:0|0:0,0:0:0
104,56,178444,5,0,0:0:0
280,232,178605,2,0,B|224:272|248:344,1,124.999998137355,2|0,0:0|0:0,0:0:0
368,312,178928,1,2,0:0:0
256,128,179089,1,0,0:0:0
144,312,179250,1,2,0:0:0
72,208,179412,5,0,0:0:0
72,208,179492,1,0,0:0:0
72,208,179573,2,0,B|72:144|136:104,1,124.999998137355,0|2,0:0|0:0,0:0:0
200,216,179896,1,0,0:0:0
272,320,180057,5,2,0:0:0
344,216,180218,1,2,0:0:0
352,200,180299,1,0,0:0:0
360,184,180379,1,0,0:0:0
416,72,180541,2,0,B|360:32|296:56,1,124.999998137355
176,40,180863,2,0,B|136:96|160:160,1,124.999998137355
280,120,181186,1,0,0:0:0
40,64,181347,5,2,0:0:0
40,192,181508,2,0,B|56:264,1,62.4999990686774
72,312,181670,1,2,0:0:0
192,336,181831,2,0,B|240:272,1,62.4999990686774,2|0,0:0|0:0,0:0:0
264,232,181992,1,0,0:0:0
360,152,182153,6,0,B|344:80|400:40,1,124.999998137355,2|2,0:0|0:0,0:0:0
480,136,182476,1,0,0:0:0
240,48,182637,1,0,0:0:0
240,48,182718,1,0,0:0:0
240,48,182798,6,0,B|168:32|136:96,1,124.999998137355,2|0,0:0|0:0,0:0:0
120,216,183121,1,0,0:0:0
112,240,183202,1,0,0:0:0
104,264,183282,1,0,0:0:0
208,328,183444,5,2,0:0:0
296,240,183605,2,0,B|344:192|412:214,1,124.999998137355,0|2,0:0|0:0,0:0:0
376,336,183927,1,0,0:0:0
312,96,184089,5,2,0:0:0
200,48,184250,1,0,0:0:0
216,168,184411,1,2,0:0:0
312,96,184572,1,0,0:0:0
200,48,184734,1,2,0:0:0
104,128,184895,2,0,B|64:184|104:248,1,124.999998137355,0|0,0:0|0:0,0:0:0
409,245,185218,5,0,0:0:0
409,245,185298,1,0,0:0:0
409,245,185379,2,0,B|448:184|408:128,1,124.999998137355,2|0,0:0|0:0,0:0:0
296,184,185701,2,0,B|256:240|294:301,1,124.999998137355
408,248,186024,5,2,0:0:0
153,130,186185,2,0,B|113:186|152:248,1,124.999998137355,2|0,0:0|0:0,0:0:0
296,304,186508,1,0,0:0:0
360,128,186669,1,8,0:0:0
384,136,186750,1,0,0:0:0
408,144,186830,1,0,0:0:0
480,248,186992,1,8,0:0:0
384,328,187153,5,0,0:0:0
312,224,187314,2,0,B|256:192|256:192|200:224,1,124.999998137355,2|0,0:0|0:0,0:0:0
256,336,187637,1,2,0:0:0
256,336,187798,1,0,0:0:0
256,80,187959,5,6,0:0:0
256,336,188120,1,0,0:0:0
256,80,188282,1,2,0:0:0
152,152,188443,2,0,B|152:80|88:56,1,124.999998137355
24,160,188766,5,0,0:0:0
96,264,188927,2,0,B|96:336|160:360,1,124.999998137355,2|0,0:0|0:0,0:0:0
208,240,189249,1,2,0:0:0
256,128,189411,1,2,0:0:0
304,240,189572,1,2,0:0:0
416,264,189733,5,0,0:0:0
416,264,189814,1,0,0:0:0
416,264,189894,2,0,B|416:336|352:360,1,124.999998137355,0|2,0:0|0:0,0:0:0
232,312,190217,1,0,0:0:0
112,344,190378,5,2,0:0:0
144,224,190540,1,2,0:0:0
136,200,190620,1,0,0:0:0
128,176,190701,2,0,B|104:96|144:32|208:16|272:32,1,249.99999627471
232,136,191185,5,2,0:0:0
344,136,191346,1,0,0:0:0
288,232,191507,1,8,0:0:0
232,136,191668,1,0,0:0:0
344,136,191830,5,0,0:0:0
392,136,191910,1,0,0:0:0
440,152,191991,1,0,0:0:0
472,192,192072,1,0,0:0:0
480,240,192152,5,0,0:0:0
472,288,192233,1,0,0:0:0
440,328,192314,1,0,0:0:0
392,344,192394,1,0,0:0:0
344,336,192475,5,0,0:0:0
296,320,192555,1,0,0:0:0
248,296,192636,1,0,0:0:0
200,288,192717,1,0,0:0:0
152,288,192797,5,0,0:0:0
104,304,192878,1,0,0:0:0
56,328,192959,6,0,B|-16:360,2,62.4999990686774,0|0|2,0:0|0:0|0:0,0:0:0
40,208,193281,2,0,B|104:80,1,124.999998137355
176,192,193604,1,0,0:0:0
232,80,193765,2,0,B|288:32|352:72,2,124.999998137355,2|2|2,0:0|0:0|0:0,0:0:0
320,312,194249,5,0,0:0:0
328,184,194410,2,0,B|400:184|432:256,1,124.999998137355,2|0,0:0|0:0,0:0:0
320,312,194733,1,2,0:0:0
448,96,194894,1,0,0:0:0
320,312,195055,1,2,0:0:0
216,240,195216,6,0,B|160:200|96:232,1,124.999998137355
104,104,195539,1,0,0:0:0
104,104,195620,1,0,0:0:0
104,104,195700,6,0,B|166:72|222:112,1,124.999998137355,2|0,0:0|0:0,0:0:0
304,208,196023,1,0,0:0:0
328,232,196103,1,0,0:0:0
352,256,196184,1,0,0:0:0
464,304,196345,5,2,0:0:0
448,176,196507,1,2,0:0:0
328,128,196668,1,0,0:0:0
328,128,196829,1,0,0:0:0
208,80,196990,1,8,0:0:0
176,72,197071,1,0,0:0:0
144,64,197152,1,0,0:0:0
64,160,197313,1,8,0:0:0
184,184,197474,5,0,0:0:0
288,256,197636,2,0,B|332:197|405:231,1,124.999998137355,2|0,0:0|0:0,0:0:0
360,344,197958,1,2,0:0:0
360,344,198119,1,0,0:0:0
312,104,198281,5,6,0:0:0
360,344,198442,1,0,0:0:0
312,104,198603,1,0,0:0:0
432,136,198764,2,0,B|456:208|400:248,1,124.999998137355,2|0,0:0|0:0,0:0:0
280,200,199087,5,0,0:0:0
280,328,199248,2,0,B|240:352|200:352|160:328,1,124.999998137355,2|0,0:0|0:0,0:0:0
160,200,199571,1,2,0:0:0
256,40,199732,1,2,0:0:0
352,200,199893,1,2,0:0:0
376,80,200055,5,0,0:0:0
376,80,200135,1,0,0:0:0
376,80,200216,2,0,B|432:120|440:184,1,124.999998137355,0|2,0:0|0:0,0:0:0
384,296,200538,1,0,0:0:0
272,248,200700,1,0,0:0:0
168,320,200861,5,2,0:0:0
152,296,200942,1,0,0:0:0
136,272,201022,1,0,0:0:0
40,192,201184,2,0,B|48:120|120:104,1,124.999998137355
240,128,201506,2,0,B|306:98|356:153,1,124.999998137355
272,248,201829,1,0,0:0:0
432,56,201990,5,2,0:0:0
472,176,202151,2,0,B|472:248,1,62.4999990686774,2|0,0:0|0:0,0:0:0
472,304,202312,1,2,0:0:0
384,216,202474,2,0,B|384:320,1,62.4999990686774,2|0,0:0|0:0,0:0:0
384,344,202635,1,2,0:0:0
256,344,202796,6,0,B|184:344|168:272,1,124.999998137355,0|2,0:0|0:0,0:0:0
128,152,203119,1,0,0:0:0
16,88,203280,1,0,0:0:0
16,88,203361,5,0,0:0:0
16,88,203441,2,0,B|40:24|112:24,1,124.999998137355,2|0,0:0|0:0,0:0:0
232,72,203764,1,0,0:0:0
264,88,203845,1,0,0:0:0
296,104,203925,1,0,0:0:0
296,232,204086,5,2,0:0:0
376,136,204248,2,0,B|440:184|416:264,1,124.999998137355,0|2,0:0|0:0,0:0:0
168,216,204570,1,2,0:0:0
80,304,204732,5,2,0:0:0
40,184,204893,1,0,0:0:0
168,216,205054,1,2,0:0:0
80,304,205215,1,0,0:0:0
40,184,205377,1,2,0:0:0
128,96,205538,2,0,B|160:32|232:40,1,124.999998137355
384,288,205860,5,0,0:0:0
384,288,205941,1,0,0:0:0
384,288,206022,2,0,B|352:352|280:344,1,124.999998137355,2|0,0:0|0:0,0:0:0
224,232,206344,2,0,B|256:168|328:176,1,124.999998137355,2|0,0:0|0:0,0:0:0
384,288,206667,5,0,0:0:0
264,72,206828,2,0,B|194:64|162:128,1,124.999998137355,2|0,0:0|0:0,0:0:0
88,232,207151,1,0,0:0:0
152,344,207312,1,8,0:0:0
168,312,207393,1,0,0:0:0
184,280,207473,1,0,0:0:0
304,240,207634,1,8,0:0:0
208,144,207796,5,0,0:0:0
208,240,207957,1,2,0:0:0
304,144,208118,1,0,0:0:0
424,192,208280,1,2,0:0:0
88,192,208441,1,0,0:0:0
424,192,208602,5,6,0:0:0
88,192,208763,1,0,0:0:0
424,192,208925,1,2,0:0:0
328,272,209086,2,0,B|256:272|232:344,1,124.999998137355,2|0,0:0|0:0,0:0:0
216,216,209408,5,0,0:0:0
206,84,209570,2,0,B|184:152|112:152,1,124.999998137355,2|0,0:0|0:0,0:0:0
96,32,209892,1,2,0:0:0
256,296,210054,1,2,0:0:0
416,32,210215,1,2,0:0:0
336,128,210376,5,0,0:0:0
336,128,210457,1,0,0:0:0
336,128,210537,2,0,B|312:200|368:240,1,124.999998137355,0|2,0:0|0:0,0:0:0
456,152,210860,1,0,0:0:0
216,232,211021,5,2,0:0:0
88,224,211183,1,0,0:0:0
58,203,211264,1,0,0:0:0
28,183,211344,2,0,B|-8:96|40:16|120:-16|204:25|248:96|208:192,1,374.999994412065
144,232,211989,6,0,B|128:312|176:360|248:360|296:288,1,249.99999627471
352,176,212473,5,0,0:0:0
368,144,212553,1,0,0:0:0
384,112,212634,1,0,0:0:0
448,216,212795,1,0,0:0:0
384,320,212956,5,0,0:0:0
352,304,213037,1,0,0:0:0
320,288,213118,2,0,B|184:200,1,149.999995529652,0|2,0:0|0:0,0:0:0
112,144,213602,1,8,0:0:0
72,56,213763,5,0,0:0:0
104,64,213843,1,0,0:0:0
136,56,213924,1,0,0:0:0
168,64,214005,1,0,0:0:0
200,56,214085,1,0,0:0:0
232,64,214166,1,0,0:0:0
264,56,214247,1,0,0:0:0
296,64,214327,1,0,0:0:0
328,56,214408,1,0,0:0:0
360,64,214489,1,0,0:0:0
392,56,214569,1,0,0:0:0
416,72,214650,1,0,0:0:0
440,56,214730,2,0,B|504:56,4,50
440,160,215214,5,0,0:0:0
344,200,215376,2,0,B|320:144|264:128|216:152|200:216,1,200,2|2,0:0|0:0,0:0:0
280,272,215859,2,0,B|280:328|224:344,1,100
128,312,216182,1,0,0:0:0
80,224,216343,5,0,0:0:0
80,192,216424,1,0,0:0:0
88,160,216504,1,0,0:0:0
104,136,216585,1,0,0:0:0
128,120,216666,1,0,0:0:0
152,112,216746,1,0,0:0:0
184,112,216827,1,0,0:0:0
216,120,216908,1,0,0:0:0
240,136,216988,1,0,0:0:0
272,144,217069,1,0,0:0:0
304,144,217150,1,0,0:0:0
328,136,217230,1,0,0:0:0
352,120,217311,2,0,B|416:72,4,50
400,208,217795,6,0,B|432:256|400:304,1,100
312,256,218117,1,2,0:0:0
232,312,218278,1,0,0:0:0
184,224,218440,2,0,B|138:193|90:225,1,100,2|0,0:0|0:0,0:0:0
136,312,218762,1,2,0:0:0
136,112,218924,5,2,0:0:0
144,104,219004,1,0,0:0:0
152,96,219085,1,0,0:0:0
160,88,219165,1,0,0:0:0
168,80,219246,2,0,B|200:40|256:40,1,100,2|0,0:0|0:0,0:0:0
288,136,219569,5,2,0:0:0
296,144,219649,1,0,0:0:0
304,152,219730,1,0,0:0:0
312,160,219811,1,0,0:0:0
320,168,219891,2,0,B|360:200|360:256,1,100,2|0,0:0|0:0,0:0:0
264,288,220214,5,0,0:0:0
216,272,220294,1,0,0:0:0
168,288,220375,1,0,0:0:0
120,272,220456,1,0,0:0:0
72,288,220536,1,2,0:0:0
40,192,220698,1,8,0:0:0
72,96,220859,5,2,0:0:0
120,112,220939,1,0,0:0:0
168,96,221020,1,0,0:0:0
216,112,221101,1,0,0:0:0
264,96,221181,1,2,0:0:0
360,64,221343,1,8,0:0:0
456,64,221504,5,2,0:0:0
464,96,221585,1,0,0:0:0
464,128,221665,1,0,0:0:0
456,160,221746,1,0,0:0:0
432,184,221826,5,2,0:0:0
400,192,221907,1,0,0:0:0
368,184,221988,1,0,0:0:0
336,176,222068,1,0,0:0:0
304,176,222149,1,0,0:0:0
272,176,222230,1,0,0:0:0
240,184,222310,1,0,0:0:0
208,192,222391,1,0,0:0:0
184,208,222472,5,2,0:0:0
168,232,222552,1,0,0:0:0
160,264,222633,1,0,0:0:0
168,296,222713,1,0,0:0:0
184,320,222794,1,0,0:0:0
208,336,222875,1,0,0:0:0
240,344,222955,1,0,0:0:0
272,336,223036,1,0,0:0:0
296,320,223117,1,0,0:0:0
312,296,223197,1,0,0:0:0
320,264,223278,5,2,0:0:0
320,232,223359,1,0,0:0:0
312,200,223439,1,0,0:0:0
296,176,223520,1,0,0:0:0
280,152,223600,1,0,0:0:0
256,128,223681,1,0,0:0:0
232,112,223762,1,0,0:0:0
208,96,223842,1,0,0:0:0
184,80,223923,6,0,B|120:40,2,50,2|0|2,0:0|0:0|0:0,0:0:0
128,192,224246,2,0,B|112:264|176:296,1,124.999998137355
384,192,224568,1,2,0:0:0
384,192,224729,6,0,B|400:264|336:296,1,124.999998137355
264,192,225052,2,0,B|248:120|312:88,1,124.999998137355,2|0,0:0|0:0,0:0:0
440,80,225374,5,2,0:0:0
256,288,225536,1,2,0:0:0
72,80,225697,1,2,0:0:0
256,120,225858,1,2,0:0:0
134,178,226020,6,0,B|99:237|136:298,1,124.999998137355,0|2,0:0|0:0,0:0:0
376,296,226342,2,0,B|412:237|377:178,1,124.999998137355,2|0,0:0|0:0,0:0:0
320,64,226665,1,2,0:0:0
192,64,226826,1,2,0:0:0
256,176,226987,1,2,0:0:0
320,64,227148,1,2,0:0:0
192,64,227310,5,0,0:0:0
120,168,227471,2,0,B|96:248,1,62.4999990686774
80,288,227632,1,2,0:0:0
208,296,227794,2,0,B|288:296,1,62.4999990686774
336,296,227955,1,0,0:0:0
448,240,228116,5,2,0:0:0
456,200,228197,1,0,0:0:0
456,160,228277,1,2,0:0:0
440,128,228358,1,0,0:0:0
416,104,228439,1,2,0:0:0
384,88,228519,1,0,0:0:0
344,88,228600,2,0,B|272:104|272:176,1,124.999998137355,2|0,0:0|0:0,0:0:0
392,192,228922,5,2,0:0:0
192,48,229084,1,0,0:0:0
96,128,229245,2,0,B|32:128,2,62.4999990686774
216,168,229568,2,0,B|240:232|208:288,1,124.999998137355,0|2,0:0|0:0,0:0:0
96,224,229890,5,0,0:0:0
352,240,230051,1,2,0:0:0
408,128,230213,1,0,0:0:0
280,144,230374,5,0,0:0:0
352,240,230535,1,0,0:0:0
408,128,230696,1,0,0:0:0
328,32,230858,1,2,0:0:0
328,32,230938,1,0,0:0:0
328,32,231019,2,0,B|256:16|224:80,1,124.999998137355,0|2,0:0|0:0,0:0:0
96,96,231342,6,0,B|46:150|85:210,1,124.999998137355,0|2,0:0|0:0,0:0:0
144,320,231664,1,0,0:0:0
216,216,231825,1,4,0:0:0
256,192,231987,12,0,232793,0:0:0
256,96,232954,6,0,B|304:16|368:8|432:32|472:80|488:144|464:208|416:248|376:216|376:272|320:160|320:336|288:248|256:352|256:352|224:248|192:336|192:160|136:272|136:216|96:248|48:208|24:144|40:80|80:32|136:8|208:16|240:80,1,1125.00004291535
256,152,235535,1,4,0:0:0
