osu file format v9

[General]
AudioFilename: Dark PHOENiX - Chiisa na Chiisa na Satoshi Shou.mp3
AudioLeadIn: 0
PreviewTime: 166117
Countdown: 0
SampleSet: Normal
StackLeniency: 1
Mode: 0
LetterboxInBreaks: 0

[Editor]
DistanceSpacing: 1
BeatDivisor: 1
GridSize: 8

[Metadata]
Title:Chiisa na Chiisa na Satoshi Shou
Artist:Dark PHOENiX
Creator:Amethyst Wolf
Version:Level 1
Source:touhou
Tags:Nazrin

[Difficulty]
HPDrainRate:2
CircleSize:3
OverallDifficulty:2
ApproachRate:1
SliderMultiplier:0.999999999999999
SliderTickRate:0.5

[Events]
//Background and Video events
0,0,"bg.jpg"
//Break Periods
2,84315,92435
//Storyboard Layer 0 (Background)
//Storyboard Layer 1 (Fail)
//Storyboard Layer 2 (Pass)
//Storyboard Layer 3 (Foreground)
//Storyboard Sound Samples
//Background Colour Transformations
3,100,163,162,255

[TimingPoints]
20515,400,4,1,1,65,1,0

[Colours]
Combo1 : 247,181,60
Combo2 : 243,80,231

[HitObjects]
72,112,22115,1,0
224,240,22915,1,0
312,192,23315,1,0
328,96,23715,1,0
432,272,24515,1,0
256,176,25315,1,0
80,272,26115,1,0
80,272,26515,1,0
80,272,26915,5,0
120,72,27715,2,0,B|208:112|280:200,2,200
320,64,30115,1,0
320,160,30515,2,0,B|376:144|432:96,2,99.9999999999999
408,208,31715,6,0,B|336:288|184:328,1,200
312,240,32915,2,0,B|216:290|60:276,1,200
200,224,34115,2,0,B|296:176|451:187,1,200
304,136,35315,2,0,B|96:96,1,200
256,192,36515,12,0,38515
208,336,38915,6,0,B|112:288|48:200,1,200
152,224,40115,2,0,B|152:160|128:96,2,99.9999999999999
248,248,41315,5,0
392,112,42115,1,0
376,208,42515,1,0
176,168,43315,1,0
160,264,43715,1,0
376,208,44515,1,0
392,112,44915,1,0
176,168,45715,1,0
176,168,46115,1,0
456,56,47315,5,0
320,320,48515,2,0,B|288:208|216:104,1,200
238,138,49715,1,0
104,280,50915,5,0
360,120,52115,1,0
64,88,53315,1,0
296,272,54515,1,0
96,288,55715,6,0,B|64:160,1,99.9999999999999
160,232,56515,2,0,B|173:100,1,99.9999999999999
344,224,57715,1,0
440,208,58115,6,0,B|368:288|216:328,1,200
344,240,59315,2,0,B|248:290|92:276,1,200
232,224,60515,2,0,B|328:176|483:187,1,200
336,136,61715,2,0,B|128:96,1,200
256,192,62915,12,0,64915
384,160,65315,5,0
88,224,66515,1,0
160,152,66915,1,0
176,248,67315,1,0
272,248,67715,5,0
128,112,68515,1,0
144,208,68915,1,0
344,168,69715,1,0
360,264,70115,1,0
144,208,70915,1,0
128,112,71315,1,0
344,168,72115,1,0
344,168,72515,1,0
64,56,73715,5,0
200,319,74915,2,0,B|231:207|281:137,1,200
282,138,76115,1,0
416,280,77315,5,0
160,120,78515,1,0
456,88,79715,1,0
224,272,80915,1,0
424,288,82115,6,0,B|448:190,1,99.9999999999999
360,232,82914,2,0,B|350:132,1,99.9999999999999
176,224,84115,1,0
96,80,94115,6,0,B|192:144|360:176,1,200
368,104,95315,2,0,B|448:208|352:296,1,200
280,240,96515,2,0,B|256:344|64:368|64:176|80:64|304:104|320:208|256:264,1,499.999999999999
200,224,98915,2,0,B|64:136,1,150
224,120,100115,2,0,B|376:232,1,150
424,80,101315,2,0,L|384:96|424:112|384:128|424:144|384:160|424:176|384:192|424:208|384:224|424:240|384:256|424:272,4,499.999999999999
24,136,110915,6,0,B|112:184|200:280,1,200
224,168,112115,2,0,B|256:168|256:168|328:136|392:168|392:168|424:168,1,200
440,72,113315,2,0,B|288:24|56:72,2,300
440,72,116915,2,0,B|400:168|208:216,1,200
192,216,118115,2,0,B|248:104|424:72,1,200
328,192,119315,2,0,B|432:232,3,99.9999999999999
144,336,121715,5,0
56,48,122915,1,0
352,56,124115,1,0
440,344,125315,1,0
440,344,126515,1,0
352,56,127715,1,0
56,48,128915,1,0
144,336,130115,1,0
336,288,130915,6,0,B|376:208|448:176,2,99.9999999999999
336,288,132515,1,0
136,264,133315,1,0
312,168,134115,2,0,B|408:96,2,99.9999999999999
136,264,135715,1,0
208,80,136515,1,0
328,240,137315,1,0
136,176,138115,2,0,B|88:144|64:88,1,99.9999999999999
168,88,138915,2,0,B|216:120|240:176,1,99.9999999999999
256,256,139715,5,0
320,192,140915,1,0
256,128,142115,1,0
192,192,143315,1,0
256,256,144515,5,0
256,128,145715,1,0
168,136,146915,6,0,B|256:64|352:136,2,200
256,184,148915,1,0
