osu file format v9

[General]
AudioFilename: LapFox Trax - ERGOSPHERE - 14 Event Horizon.mp3
AudioLeadIn: 3000
PreviewTime: 19961
Countdown: 1
SampleSet: Soft
StackLeniency: 0.7
Mode: 0
LetterboxInBreaks: 1

[Editor]
DistanceSpacing: 0.8
BeatDivisor: 8
GridSize: 8

[Metadata]
Title:Event Horizon
Artist:Darius
Creator:Alexstrasza
Version:Ridiculousness
Source:
Tags:Lapfox renard darius

[Difficulty]
HPDrainRate:7
CircleSize:5
OverallDifficulty:7
ApproachRate:6
SliderMultiplier:2.2
SliderTickRate:2

[Events]
//Background and Video events
0,0,"Darius Wallpaper 2.jpg"
//Break Periods
2,36618,40853
2,68846,70339
//Storyboard Layer 0 (Background)
//Storyboard Layer 1 (Fail)
//Storyboard Layer 2 (Pass)
//Storyboard Layer 3 (Foreground)
//Storyboard Sound Samples
//Background Colour Transformations
3,100,163,162,255

[TimingPoints]
761,685.714285714286,4,2,0,50,1,0
21319,-50,4,2,0,50,0,0
22703,-50,4,2,0,75,0,1
33675,-100,4,2,0,50,0,0
54761,-50,4,2,0,75,0,0
55618,-50,4,2,0,75,0,1
66589,-100,4,2,0,50,0,0
74443,-100,4,2,0,50,0,1
74989,-100,4,2,0,50,0,0
82361,-200,4,2,0,50,0,0
83046,-100,4,2,0,50,0,0
87161,-50,4,2,0,50,0,0
88532,-50,4,2,0,75,0,1
99503,-100,4,2,0,50,0,0
120075,-50,4,2,0,50,0,0
121446,-50,4,2,0,75,0,1
140646,-100,4,2,0,100,0,0

[HitObjects]
56,192,761,6,0,B|56:128,3,55
424,192,2132,6,0,B|424:256,3,55
208,280,3503,5,0
256,280,3675,1,0
296,280,3846,1,0
256,240,4018,1,0
200,40,4875,5,0
240,40,5046,1,0
288,40,5218,1,0
240,80,5389,1,0
48,264,6246,6,0,B|200:328|392:272,2,330
48,176,8646,1,8
48,88,8989,6,0,B|208:16|392:96,2,330
48,176,11389,1,8
64,264,11732,5,0
96,232,11903,1,0
128,264,12075,1,0
208,264,12418,2,0,B|264:304|320:256,1,110
368,200,13103,1,0
392,168,13275,1,0
368,128,13446,1,0
296,80,13789,2,0,B|240:32|176:88,1,110
136,136,14475,5,0
136,224,14818,1,0
224,224,15161,1,0
312,224,15503,1,0
312,312,15846,1,0
312,224,16189,1,0
312,176,16361,1,0
312,136,16532,1,0
256,72,16875,1,0
176,192,17218,6,0,B|144:160|120:208,2,55,8|0|8
256,192,17732,1,0
336,192,17903,2,0,B|368:160|392:208,2,55,8|0|8
256,192,18418,1,0
256,120,18589,2,0,B|224:88|272:64,2,55,8|0|8
256,192,19103,1,0
256,256,19275,2,0,B|288:280|256:304,2,55,8|0|8
256,192,19961,5,0
256,192,20132,1,0
256,192,20303,1,0
256,192,20475,1,0
256,192,20646,1,0
256,192,20818,1,0
256,192,20989,1,0
216,192,21161,1,0
128,192,21332,6,0,B|80:136,4,55
40,208,21846,2,0,B|80:256,4,55
176,192,22361,2,0,B|208:120|272:208,1,110
344,104,22703,6,0,B|472:104,1,110
456,192,23046,2,0,B|328:192,1,110
256,200,23389,6,0,B|256:328,1,110
168,296,23732,1,0
168,296,23903,1,0
80,296,24075,1,0
80,296,24246,1,0
80,208,24418,2,0,B|136:160|64:96,1,110
168,112,24761,5,0
256,112,24932,1,0
344,112,25103,1,0
432,112,25275,1,0
432,200,25446,6,0,B|336:280,1,110
296,200,25789,2,0,B|208:112,1,110
248,56,26132,6,0,B|184:-24|128:104,1,110
160,136,26475,2,0,B|200:200|256:128,1,110
336,136,26818,5,0
424,136,26989,5,0
336,136,27161,5,0
424,136,27332,5,0
424,224,27503,5,0
424,312,27675,1,0
336,312,27846,1,0
256,280,28018,1,0
256,192,28189,6,0,B|120:192,1,110
144,104,28532,2,0,B|272:104,1,110
344,104,28875,6,0,B|344:224,1,110
432,216,29218,2,0,B|432:88,1,110
432,16,29561,6,0,B|272:16,1,110
232,16,29903,2,0,B|64:16,1,110
120,120,30246,5,0
176,192,30418,5,0
224,120,30589,5,0
280,192,30761,5,0
368,192,30932,6,0,B|480:192|480:32|264:56,1,220
280,56,31446,5,0
192,56,31618,2,0,B|80:56|80:192|240:192,1,220
280,192,32132,1,0
280,280,32303,5,0
280,280,32475,1,0
280,280,32646,1,0
280,280,32818,1,0
368,280,32989,5,0
368,192,33161,2,0,B|432:192,4,55
256,192,33675,12,0,35732
256,192,36418,5,0
80,192,41903,5,0
128,120,42246,1,0
176,120,42418,1,0
224,192,42761,1,0
264,192,42932,1,0
312,120,43275,1,0
312,120,43446,1,0
312,120,43618,1,0
312,120,43789,1,0
24,192,44646,6,0,B|232:288|464:200,1,440
456,32,46703,5,0
456,120,47046,1,0
456,208,47389,5,0
368,208,47732,1,0
320,136,48075,1,0
264,72,48418,1,0
176,48,48761,1,0
104,96,49103,1,0
104,184,49446,1,0
72,264,49789,1,0
32,192,50132,6,0,B|32:64,1,110
80,80,50646,2,0,B|152:80,1,55
224,80,51161,6,0,B|304:16|384:88,2,165
224,168,52532,1,0
224,256,52875,2,0,B|264:296|328:192|384:272,2,165
256,176,54246,5,0
96,48,54932,6,0,B|240:192,1,110
232,192,55275,2,0,B|256:216|288:192,3,55
328,200,55618,6,0,B|464:200,1,110
440,112,55961,2,0,B|312:112,1,110
240,112,56303,5,0
240,112,56475,1,0
240,112,56646,1,0
240,112,56818,1,0
152,112,56989,5,0
152,112,57161,1,0
152,112,57332,1,0
152,112,57503,1,0
64,112,57675,6,0,B|64:240,1,110
64,312,58018,2,0,B|192:312,1,110
264,312,58361,2,0,B|264:24,1,220
352,96,58875,5,0
352,184,59046,1,0
352,272,59218,1,0
352,360,59389,1,0
176,360,59732,6,0,B|176:216,1,110
176,160,60075,2,0,B|176:272,1,110
88,272,60418,5,0
24,208,60589,1,0
24,120,60761,1,0
88,64,60932,1,0
176,64,61103,6,0,B|320:64,1,110
288,152,61446,2,0,B|176:152,1,110
176,240,61789,6,0,B|296:240,1,110
288,328,62132,2,0,B|160:328,1,110
88,328,62475,1,0
88,328,62646,1,0
88,328,62818,1,0
88,328,62989,1,0
88,240,63161,6,0,B|88:104,1,110
88,130,63503,1,0
88,130,63675,1,0
176,128,63846,5,0
240,192,64018,1,0
296,128,64189,1,0
352,192,64361,1,0
440,192,64532,1,0
440,368,64875,6,0,B|440:256,1,110
352,256,65218,2,0,B|232:256,1,110
152,256,65561,1,0
192,176,65732,1,0
288,176,65903,5,0
288,176,66075,1,0
288,176,66246,1,0
288,176,66418,1,0
256,192,66589,12,0,68646
256,192,71389,5,4
256,192,72075,6,0,B|160:128|32:208,1,220,4|0
48,288,73103,5,0
48,288,73275,1,0
48,288,73446,2,0,B|128:320|152:216|272:304,1,220
344,296,74475,5,0
344,216,74646,1,0
344,128,74818,2,0,B|296:128,11,27.5
168,136,76189,2,0,B|168:264,1,110
392,192,77561,5,0
392,104,77903,1,0
344,104,78075,1,0
216,104,78589,2,2,B|128:160|296:176|200:312,1,220
336,256,79618,1,0
424,256,79961,1,0
424,168,80303,6,0,B|320:32|240:176,1,220
336,160,81332,2,0,B|248:288|152:160,1,220
160,128,82361,2,4,B|288:128,1,110
136,192,85446,5,0
136,192,85618,1,0
136,192,85789,2,0,B|304:80|456:200,1,330
264,184,87161,6,0,B|264:264,4,55
352,184,87675,2,0,B|352:248,4,55
440,184,88189,2,0,B|480:112|384:112,1,110
312,112,88532,6,0,B|176:112,1,110
112,112,88875,2,0,B|112:248,1,110
112,312,89218,2,0,B|248:312,1,110
312,312,89561,2,0,B|312:192,1,110
224,200,89903,5,0
224,200,90075,5,0
224,200,90246,5,0
224,200,90418,5,0
312,200,90589,6,0,B|456:200,3,110
424,112,91275,6,0,B|288:112,1,110
224,112,91618,2,0,B|224:288,1,110
152,112,91961,2,0,B|152:240,1,110
152,312,92303,6,0,B|208:368|256:304,1,110
200,240,92646,2,0,B|256:184|312:248,1,110
248,312,92989,2,0,B|296:376|344:304,1,110
424,312,93332,5,0
424,224,93503,1,0
424,136,93675,1,0
424,48,93846,1,0
336,48,94018,6,0,B|248:136,1,110
336,168,94361,2,0,B|256:248,1,110
168,248,94703,5,0
80,248,94875,1,0
168,248,95046,1,0
168,160,95218,1,0
168,248,95389,1,0
168,336,95561,1,0
168,248,95732,1,0
256,248,95903,1,0
344,248,96075,6,0,B|432:144,1,110
328,160,96418,2,0,B|424:56,1,110
312,80,96761,6,0,B|184:80,1,110
200,168,97103,2,0,B|72:168,1,110
88,256,97446,2,0,B|208:256,1,110
288,256,97789,5,0
288,256,97961,1,0
376,256,98132,1,0
376,256,98303,1,0
464,256,98475,1,0
464,256,98646,1,0
456,168,98818,5,0
456,80,98989,6,0,B|400:80,3,55
360,80,99332,5,0
256,192,99503,5,0
96,96,100875,6,0,B|32:192,2,110
184,96,101903,1,0
320,96,102418,5,0
360,96,102589,2,0,B|432:192|368:320,1,220
256,192,103618,5,8
256,192,103961,1,8
16,192,104303,6,0,B|256:16|456:224,1,440
240,192,106361,5,0
240,192,106703,1,0
240,192,107046,1,0
240,192,107389,1,0
368,192,107903,1,0
416,192,108075,2,0,B|472:160|472:160|376:136|376:136|480:104|480:104|416:72,1,330
256,192,110475,6,0,B|160:48|80:192|160:328|352:48|424:192|344:336|248:192,1,440
256,112,112189,1,0
256,200,112532,1,0
256,112,112875,1,0
80,112,113561,6,0,B|24:200|96:336,1,220
176,320,114589,2,0,B|248:368|296:304,1,110
368,320,115275,1,0
368,232,115618,2,0,B|448:136|312:40,1,220
256,304,117332,5,0
256,216,117675,1,0
256,128,118018,2,0,B|200:88|144:136,1,110
152,264,118875,2,0,B|208:200,1,55
368,192,120075,6,0,B|368:96,4,55
280,192,120589,2,0,B|280:272,4,55
160,192,121103,2,0,B|80:152|192:96,1,110
248,112,121446,6,0,B|480:112,1,220
464,288,122132,2,0,B|464:168,2,110
400,232,122646,2,0,B|400:344,1,110
328,288,122989,2,0,B|56:288,1,220
112,112,123675,1,0
184,24,123846,1,0
256,112,124018,1,0
400,112,124189,5,0
336,272,124532,2,0,B|496:272,3,110
400,104,125389,1,0
400,104,125561,1,0
400,104,125732,1,0
400,192,125903,2,0,B|160:192,1,220
184,16,126589,5,0
184,192,126932,1,0
184,104,127103,2,0,B|256:48|288:128,1,110
312,192,127446,2,0,B|312:272|408:232,2,110
136,192,128132,6,0,B|136:264|64:240,2,110
224,192,128646,5,0
224,16,128989,2,0,B|176:72|240:144,2,110
424,16,129675,6,0,B|320:120,1,110
352,264,130189,2,0,B|448:176,2,110
264,264,130703,6,0,B|264:200,3,55
264,168,131046,5,0
88,168,131389,2,0,B|176:104|320:184,1,220
472,168,132075,2,0,B|328:168,1,110
184,168,132589,6,0,B|272:264,1,110
336,200,132932,2,0,B|248:112,1,110
168,120,133275,5,0
168,120,133446,1,0
344,120,133789,6,0,B|456:120|272:224,1,110
256,176,134132,1,0
168,176,134303,2,0,B|72:112|192:112,1,110
256,112,134646,5,0
256,112,134818,1,0
256,112,134989,1,0
256,192,135161,12,0,136189
256,192,136532,5,0
432,192,136875,1,0
344,192,137046,1,0
344,280,137218,6,0,B|160:280,1,110
144,280,137561,2,0,B|144:160,1,110
144,80,137903,2,0,B|440:80,1,220
456,80,138418,1,0
456,192,138589,5,0
456,192,138761,1,0
456,192,138932,1,0
456,192,139103,1,0
368,192,139275,5,0
368,192,139446,1,0
368,192,139618,1,0
368,192,139789,1,0
280,192,139961,5,0
280,192,140132,1,0
280,192,140303,1,0
192,192,140475,6,0,B|192:136,1,55
256,192,140646,12,0,148875
