osu file format v14

[General]
AudioFilename: Mp3.mp3
AudioLeadIn: 0
PreviewTime: 24712
Countdown: 0
SampleSet: Soft
StackLeniency: 0.7
Mode: 0
LetterboxInBreaks: 1
WidescreenStoryboard: 1

[Editor]
DistanceSpacing: 0.6
BeatDivisor: 4
GridSize: 8
TimelineZoom: 1

[Metadata]
Title:Ngay Xuan Long Phung Sum Vay
TitleUnicode:Ngay Xuan Long Phung Sum Vay
Artist:Dao Ba Loc
ArtistUnicode:Dao Ba Loc
Creator:Zejky
Version:Hard
Source:
Tags:
BeatmapID:626383
BeatmapSetID:276267

[Difficulty]
HPDrainRate:5
CircleSize:4
OverallDifficulty:5
ApproachRate:7
SliderMultiplier:1.6
SliderTickRate:2

[Events]
//Background and Video events
0,0,"1493628-2000x1250-happy-anime.jpg",0,0
//Break Periods
//Storyboard Layer 0 (Background)
//Storyboard Layer 1 (Fail)
//Storyboard Layer 2 (Pass)
//Storyboard Layer 3 (Foreground)
//Storyboard Sound Samples

[TimingPoints]
223,612.244897959184,4,2,1,60,1,0
5120,-83.3333333333333,4,2,1,80,0,1
13692,-100,4,2,1,70,0,0
14916,-83.3333333333333,4,2,1,80,0,1
23488,-100,4,2,1,70,0,0
49202,-83.3333333333333,4,2,1,80,0,1
57774,-100,4,2,1,70,0,0
58998,-83.3333333333333,4,2,1,80,0,1
67569,-100,4,2,1,70,0,0

[Colours]
Combo1 : 255,128,64
Combo2 : 255,128,128
Combo3 : 255,128,255
Combo4 : 240,0,240
Combo5 : 0,128,255

[HitObjects]
88,312,223,6,0,P|70:258|88:192,1,120,4|0,0:0|0:0,0:0:0:0:
112,168,835,2,0,P|138:196|152:240,1,80,8|0,0:0|0:0,0:0:0:0:
200,320,1447,2,0,P|256:344|328:336,1,120,4|0,0:0|0:0,0:0:0:0:
344,320,2059,2,0,P|384:304|432:304,1,80,8|0,0:0|0:0,0:0:0:0:
480,224,2671,6,0,P|448:184|448:112,1,120,4|0,0:0|0:0,0:0:0:0:
408,112,3284,2,0,P|400:64|376:24,1,80,8|0,0:0|0:0,0:0:0:0:
320,104,3896,1,4,0:0:0:0:
224,176,4202,1,4,0:0:0:0:
296,272,4508,1,4,0:0:0:0:
80,352,5120,6,0,P|52:311|56:248,1,95.9999970703126,4|0,0:0|0:0,0:0:0:0:
136,232,5733,2,0,P|163:272|160:336,1,95.9999970703126,8|0,0:0|0:0,0:0:0:0:
288,240,6345,1,2,0:0:0:0:
288,240,6651,1,0,0:0:0:0:
288,240,6957,2,0,P|336:208|384:208,1,95.9999970703126,8|0,0:0|0:0,0:0:0:0:
416,216,7416,2,0,P|442:222|472:224,1,47.9999985351563,0|2,0:0|0:0,0:0:0:0:
440,112,7876,6,0,P|414:106|384:104,1,47.9999985351563
352,120,8182,2,0,P|296:128|248:120,1,95.9999970703126,8|0,0:0|0:0,0:0:0:0:
336,208,8794,2,0,P|256:168|144:160,1,191.999994140625,2|8,0:0|0:0,0:0:0:0:
168,264,9712,1,0,0:0:0:0:
256,320,10018,6,0,P|320:336|352:336,2,95.9999970703126,2|0|8,0:0|0:0|0:0,0:0:0:0:
144,344,10937,1,0,0:0:0:0:
144,344,11090,1,0,0:0:0:0:
144,344,11243,2,0,P|104:296|112:240,1,95.9999970703126,2|0,0:0|0:0,0:0:0:0:
216,256,11855,2,0,P|272:208|408:192,1,191.999994140625,8|2,0:0|0:0,0:0:0:0:
336,296,12774,5,0,0:0:0:0:
232,344,13080,2,0,P|183:335|136:296,1,95.9999970703126,8|0,0:0|0:0,0:0:0:0:
104,224,13692,1,4,0:0:0:0:
200,120,13998,1,4,0:0:0:0:
336,168,14304,1,4,0:0:0:0:
336,168,14916,6,0,P|352:224|336:272,1,95.9999970703126,2|0,0:0|0:0,0:0:0:0:
248,192,15529,2,0,P|264:120|384:64,1,191.999994140625,8|2,0:0|0:0,0:0:0:0:
456,120,16447,2,0,L|464:240,1,95.9999970703126,0|8,0:0|0:0,0:0:0:0:
424,320,17059,2,0,L|480:320,2,47.9999985351563,0|0|2,0:0|0:0|0:0,0:0:0:0:
320,360,17671,6,0,L|256:360,2,47.9999985351563,0|0|8,0:0|0:0|0:0,0:0:0:0:
328,248,18284,1,0,0:0:0:0:
328,248,18590,2,0,P|368:192|336:64,1,191.999994140625,2|8,0:0|0:0,0:0:0:0:
256,152,19508,1,0,0:0:0:0:
144,184,19814,6,0,P|121:178|80:184,1,47.9999985351563,4|2,0:0|0:0,0:0:0:0:
56,288,20274,2,0,P|78:293|120:288,1,47.9999985351563,2|8,0:0|0:0,0:0:0:0:
200,352,20733,2,0,P|256:328|280:296,1,95.9999970703126,0|6,0:0|0:0,0:0:0:0:
384,352,21345,1,0,0:0:0:0:
384,352,21651,2,0,P|408:296|384:160,1,191.999994140625,4|4,0:0|0:0,0:0:0:0:
304,240,22569,6,0,P|264:192|208:176,2,95.9999970703126,0|4|0,0:0|0:0|0:0,0:0:0:0:
248,320,23488,1,4,0:0:0:0:
392,288,23794,1,4,0:0:0:0:
352,144,24100,1,4,0:0:0:0:
368,64,24712,6,0,P|296:40|240:48,1,120,2|0,0:0|0:0,0:0:0:0:
208,72,25325,2,0,L|256:152,1,80,0|0,1:0|0:0,0:0:0:0:
336,184,25937,2,0,P|392:144|472:144,1,120,2|0,0:0|0:0,0:0:0:0:
488,160,26549,2,0,L|464:256,1,80,0|0,1:0|0:0,0:0:0:0:
416,320,27161,6,0,B|368:368|296:288|256:336,1,160,2|0,0:0|1:0,0:0:0:0:
160,168,28386,2,0,B|208:216|280:136|320:184,1,160,2|0,0:0|1:0,0:0:0:0:
200,336,29610,6,0,P|128:312|96:256,1,120,2|0,0:0|0:0,0:0:0:0:
96,232,30223,2,0,L|16:272,1,80,0|0,1:0|0:0,0:0:0:0:
112,128,30835,2,0,P|160:104|248:112,1,120,2|0,0:0|0:0,0:0:0:0:
264,128,31447,2,0,P|312:136|352:128,1,80,0|0,1:0|0:0,0:0:0:0:
376,224,32059,6,0,P|328:216|288:224,2,80,2|0|0,0:0|0:0|1:0,0:0:0:0:
440,296,32978,1,0,0:0:0:0:
304,328,33284,1,2,0:0:0:0:
448,336,33590,1,0,1:0:0:0:
312,288,33896,1,0,1:0:0:0:
432,368,34202,1,0,0:0:0:0:
344,256,34508,6,0,P|392:240|480:256,1,120,2|0,0:0|0:0,0:0:0:0:
496,280,35120,2,0,P|448:312|408:312,1,80,0|0,1:0|0:0,0:0:0:0:
264,304,35733,2,0,P|248:256|288:176,1,120,2|0,0:0|0:0,0:0:0:0:
304,160,36345,2,0,P|320:192|328:240,1,80,0|0,1:0|0:0,0:0:0:0:
320,280,36804,1,0,0:0:0:0:
304,328,36957,6,0,P|240:336|144:272,1,160,2|0,0:0|1:0,0:0:0:0:
136,200,37876,1,0,0:0:0:0:
136,200,38182,2,0,P|128:256|48:328,1,160,2|0,0:0|1:0,0:0:0:0:
64,48,39406,6,0,L|184:80,1,120,4|0,0:0|0:0,0:0:0:0:
208,120,40018,1,0,1:0:0:0:
288,72,40325,1,0,0:0:0:0:
368,128,40631,2,0,L|328:264,1,120,4|0,0:0|0:0,0:0:0:0:
320,288,41243,1,4,0:0:0:0:
240,232,41549,1,0,0:0:0:0:
224,328,41855,6,0,P|176:304|144:256,1,80,4|0,0:0|0:0,0:0:0:0:
256,136,42467,2,0,P|304:160|336:208,1,80,4|0,0:0|0:0,0:0:0:0:
376,256,43080,1,4,0:0:0:0:
264,344,43386,1,4,0:0:0:0:
376,256,43692,1,4,0:0:0:0:
176,96,44304,5,2,0:0:0:0:
288,24,44610,1,2,0:0:0:0:
312,32,44763,1,2,0:0:0:0:
336,40,44916,2,0,L|384:40,2,40,2|2|0,0:0|0:0|0:0,0:0:0:0:
256,96,45529,5,2,0:0:0:0:
336,144,45835,1,2,0:0:0:0:
312,176,45988,1,2,0:0:0:0:
288,200,46141,2,0,L|232:200,2,40,2|2|2,0:0|0:0|0:0,0:0:0:0:
376,232,46753,5,2,0:0:0:0:
320,312,47059,1,2,0:0:0:0:
304,328,47212,1,2,0:0:0:0:
280,336,47365,1,2,0:0:0:0:
256,336,47518,1,2,0:0:0:0:
232,328,47671,1,2,0:0:0:0:
208,312,47825,1,2,0:0:0:0:
192,288,47978,2,0,P|176:232|184:184,2,80,4|4|4,0:0|0:0|0:0,0:0:0:0:
200,88,49202,6,0,P|248:72|320:80,1,95.9999970703126,4|0,0:0|0:0,0:0:0:0:
384,144,49814,2,0,P|432:144|496:120,1,95.9999970703126,8|0,0:0|0:0,0:0:0:0:
472,168,50274,1,0,0:0:0:0:
464,208,50427,2,0,L|344:256,1,95.9999970703126,2|0,0:0|0:0,0:0:0:0:
472,312,51039,2,0,L|352:360,1,95.9999970703126,8|0,0:0|0:0,0:0:0:0:
336,360,51498,1,0,0:0:0:0:
296,336,51651,1,2,0:0:0:0:
208,256,51957,5,0,0:0:0:0:
160,240,52110,1,0,0:0:0:0:
112,248,52263,2,0,P|80:288|72:344,1,95.9999970703126,8|0,0:0|0:0,0:0:0:0:
184,344,52876,2,0,P|208:288|160:160,1,191.999994140625,2|8,0:0|0:0,0:0:0:0:
240,80,53794,1,0,0:0:0:0:
344,136,54100,6,0,P|400:160|448:160,1,95.9999970703126,2|0,0:0|0:0,0:0:0:0:
472,56,54712,2,0,P|416:32|368:32,1,95.9999970703126,8|0,0:0|0:0,0:0:0:0:
336,48,55171,2,0,P|312:60|280:64,1,47.9999985351563,0|2,0:0|0:0,0:0:0:0:
208,144,55631,2,0,P|187:133|152:128,2,47.9999985351563,0|0|8,0:0|0:0|0:0,0:0:0:0:
312,200,56243,1,0,0:0:0:0:
312,200,56396,1,0,0:0:0:0:
312,200,56549,6,0,P|280:248|216:280,1,95.9999970703126,2|0,0:0|0:0,0:0:0:0:
224,176,57161,2,0,P|264:120|384:80,1,191.999994140625,8|4,0:0|0:0,0:0:0:0:
376,79,58080,1,4,0:0:0:0:
376,79,58386,1,4,0:0:0:0:
272,344,58998,6,0,P|237:318|176:312,1,95.9999970703126,2|0,0:0|0:0,0:0:0:0:
80,344,59610,1,8,0:0:0:0:
32,240,59916,2,0,L|32:192,2,47.9999985351563,0|0|2,0:0|0:0|0:0,0:0:0:0:
136,192,60529,2,0,P|192:160|240:160,1,95.9999970703126,0|8,0:0|0:0,0:0:0:0:
328,200,61141,2,0,P|360:208|384:208,2,47.9999985351563,0|0|2,0:0|0:0|0:0,0:0:0:0:
240,272,61753,6,0,P|216:264|176:256,2,47.9999985351563,0|0|8,0:0|0:0|0:0,0:0:0:0:
328,344,62365,1,0,0:0:0:0:
328,344,62671,2,0,P|384:304|432:160,1,191.999994140625,2|8,0:0|0:0,0:0:0:0:
352,112,63590,1,0,0:0:0:0:
256,176,63896,5,4,0:0:0:0:
256,176,64049,1,2,0:0:0:0:
200,72,64355,1,2,0:0:0:0:
200,72,64508,1,8,0:0:0:0:
104,136,64814,2,0,L|32:144,2,47.9999985351563,0|0|4,0:0|0:0|0:0,0:0:0:0:
168,232,65427,1,0,0:0:0:0:
168,232,65733,2,0,L|288:256,1,95.9999970703126,4|0,0:0|0:0,0:0:0:0:
240,360,66345,6,0,L|296:256,1,95.9999970703126,4|0,0:0|0:0,0:0:0:0:
368,352,66957,2,0,L|312:264,1,95.9999970703126,4|0,0:0|0:0,0:0:0:0:
408,240,67569,1,4,0:0:0:0:
360,104,67876,1,4,0:0:0:0:
296,232,68182,1,4,0:0:0:0:
