osu file format v8

[General]
AudioFilename: Error 001.mp3
AudioLeadIn: 0
PreviewTime: 39108
Countdown: 1
SampleSet: Soft
StackLeniency: 0.7
Mode: 0
LetterboxInBreaks: 1

[Editor]
DistanceSpacing: 1
BeatDivisor: 4
GridSize: 8

[Metadata]
Title:Error 001
Artist:Danzai
Creator:jericho2442
Version:Normal
Source:
Tags:

[Difficulty]
HPDrainRate:3
CircleSize:3
OverallDifficulty:4
ApproachRate:4
SliderMultiplier:1.6
SliderTickRate:1

[Events]
//Background and Video events
0,0,"ERROR 001.jpg"
//Break Periods
2,51509,59743
//Storyboard Layer 0 (Background)
//Storyboard Layer 1 (Fail)
//Storyboard Layer 2 (Pass)
//Storyboard Layer 3 (Foreground)
//Storyboard Sound Samples
//Background Colour Transformations
3,100,163,162,255

[TimingPoints]
100,609.632188579557,4,2,0,80,1,0
38956,-100,4,1,0,80,0,0
75686,-100,4,1,0,80,0,1
87879,-100,4,1,0,40,0,1
89707,-100,4,1,0,15,0,1
90317,-100,4,1,0,15,0,0

[Colours]
Combo1 : 255,255,0
Combo2 : 5,240,5
Combo3 : 5,5,240
Combo4 : 240,5,5

[HitObjects]
256,192,19608,2,0,B|368:192|368:96|368:96,1,160,0|2
368,264,20827,1,0
208,264,21437,1,2
48,264,22046,6,0,B|8:152|104:192|40:96|40:96,1,160,0|2
208,112,23266,1,0
352,40,23875,1,2
360,200,24485,5,0
360,360,25094,2,0,B|304:360|280:304|280:304,2,80,2|0|0
488,264,26314,1,2
256,192,26923,12,2,29362
256,248,29971,5,0
376,136,30581,1,2
256,32,31191,1,0
128,136,31800,5,2
8,248,32410,1,0
128,352,33020,1,2
256,248,33629,1,0
336,248,33934,5,0
392,192,34239,1,2
392,352,34849,2,0,B|216:352|216:352,1,160,0|2
48,192,36373,5,0
48,112,36677,2,0,B|160:120|124:234|124:234,1,160,2|0
288,224,37897,1,2
448,224,38506,1,0
368,224,38811,1,0
368,304,39116,6,0,B|200:304|200:304,1,160,0|8
128,304,40030,1,0
168,232,40335,1,0
488,232,41554,6,0,B|488:128|384:120|384:120,1,160,0|8
312,120,42469,1,0
352,192,42774,1,0
352,352,43383,1,8
216,272,43993,6,0,B|136:224|128:328|48:264|48:264,1,160,0|8
64,192,44907,1,0
64,112,45212,1,0
216,152,45822,1,8
376,152,46432,6,0,B|491:161|456:272|456:272,1,160,0|8
384,232,47346,1,0
320,280,47651,1,0
160,280,48260,1,8
256,192,48870,12,4,51309
368,120,61063,5,0
368,40,61368,2,0,B|473:51|445:155|445:155,1,160,0|8
368,120,62282,1,0
112,264,63501,5,0
112,344,63806,2,0,B|7:333|35:229|35:229,1,160,0|8
112,264,64720,1,0
40,40,65940,5,0
104,88,66245,2,0,B|208:128|104:176|240:192|240:192,1,160,0|8
219,268,67159,1,0
472,40,68378,5,0
408,88,68683,2,0,B|304:128|408:176|272:192|272:192,1,160,0|8
293,268,69597,1,0
32,320,70817,5,0
32,240,71122,2,0,B|144:248|112:360|112:360,1,160,0|8
192,352,72036,1,0
352,352,72646,1,0
472,248,73255,5,0
392,248,73560,2,0,B|392:184|448:169|448:169|448:112|448:112,1,160,0|8
448,32,74475,1,0
288,32,75084,1,0
128,32,75694,6,0,B|24:32|24:144|24:144,1,160,0|8
24,216,76608,1,0
24,296,76913,2,0,B|128:288|104:184|104:184,1,160,0|8
184,184,77828,1,0
264,184,78132,6,0,B|360:152|336:256|432:176|432:176,1,160,0|8
416,104,79047,1,0
416,24,79352,2,0,B|320:-8|344:96|248:16|248:16,1,160,0|8
183,29,80266,1,0
104,32,80571,6,0,B|104:88|160:104|160:104,3,80,0|0|8|0
144,176,81790,2,0,B|144:256|144:256,3,80,0|0|8|0
144,336,83009,6,0,B|208:344|224:272|224:272,3,80,0|0|8|0
288,304,84229,2,0,B|376:304|376:304,3,80,0|0|8|0
256,192,85448,12,4,90325
