osu file format v8

[General]
AudioFilename: Error 001.mp3
AudioLeadIn: 0
PreviewTime: 39108
Countdown: 1
SampleSet: Normal
StackLeniency: 0.7
Mode: 0
LetterboxInBreaks: 1

[Editor]
DistanceSpacing: 1.5
BeatDivisor: 4
GridSize: 8

[Metadata]
Title:Error 001
Artist:Danzai
Creator:jericho2442
Version:Insane
Source:
Tags:

[Difficulty]
HPDrainRate:6
CircleSize:4
OverallDifficulty:8
ApproachRate:8
SliderMultiplier:1.8
SliderTickRate:1

[Events]
//Background and Video events
0,0,"ERROR 001.jpg"
//Break Periods
2,51509,60313
//Storyboard Layer 0 (Background)
//Storyboard Layer 1 (Fail)
//Storyboard Layer 2 (Pass)
//Storyboard Layer 3 (Foreground)
//Storyboard Sound Samples
//Background Colour Transformations
3,100,163,162,255

[TimingPoints]
100,609.632188579557,4,2,0,80,1,0
38956,-100,4,1,0,80,0,0
75686,-100,4,1,0,80,0,1
87879,-100,4,1,0,40,0,1
89707,-100,4,1,0,15,0,1
90317,-100,4,1,0,15,0,0

[Colours]
Combo1 : 255,255,0
Combo2 : 5,240,5
Combo3 : 5,5,240
Combo4 : 240,5,5

[HitObjects]
256,192,19608,1,0
352,176,19913,1,0
448,192,20217,1,2
416,96,20522,1,0
320,88,20827,2,0,B|216:104|240:8|136:40|136:40,1,180,0|2
56,40,21741,1,0
112,120,22046,5,0
112,216,22351,1,0
56,296,22656,1,2
112,216,22961,1,0
176,296,23266,2,0,B|264:360|352:296|352:296,1,180,0|2
448,304,24180,1,0
392,224,24485,6,0,B|392:128|392:128,1,90
488,136,25094,2,0,B|488:80|440:56|440:56,1,90,2|0
347,61,25704,2,0,B|275:101|251:13|155:77|155:77,1,180,0|2
72,69,26619,1,0
120,152,26923,5,0
464,344,28143,1,0
464,144,28752,1,2
264,144,29362,6,0,B|208:144|200:208|200:208,1,90
296,224,29971,2,0,B|272:296|328:320|328:320,1,90,2|0
392,256,30581,2,0,B|480:168|368:88|368:88,1,180,0|2
184,96,31800,6,0,B|128:96|112:160|112:160,1,90
208,184,32410,2,0,B|272:248|272:248,1,90,2|0
328,328,33020,2,0,B|376:288|368:240|368:240|440:208|440:208,1,180,0|2
440,112,33934,1,0
440,16,34239,5,0
352,64,34544,1,0
352,160,34849,1,2
152,160,35458,1,0
496,352,36677,5,0
408,312,36982,1,0
488,256,37287,1,2
288,256,37897,1,0
392,88,38506,1,2
192,88,39116,5,0
104,128,39421,2,0,B|64:104|64:104,2,45,0|0|8
184,184,40030,2,0,B|216:216|192:272|192:272,1,90
376,184,40945,1,0
472,184,41250,1,0
424,272,41554,5,0
328,272,41859,2,0,B|288:328|288:328,2,45,0|0|8
256,200,42469,2,0,B|192:200|192:144|192:144,1,90
280,104,43079,1,8
376,104,43383,2,0,B|432:104|432:160|432:160,1,90
336,192,43993,5,0
240,192,44298,2,0,B|176:192|176:192,2,45,0|0|8
240,288,44907,2,0,B|144:288|144:288,1,90
152,88,45822,1,8
352,88,46432,5,0
352,184,46736,2,0,B|400:184|400:184,2,45,0|0|8
352,280,47346,1,0
264,224,47651,2,0,B|208:224|208:280|208:280,1,90
112,280,48260,2,0,B|112:184|112:184,1,90,8|0
256,192,48870,12,4,51309
368,120,61063,6,0,B|296:120|296:120,2,45
368,216,61672,2,0,B|328:256|328:256,2,45,8|0|0
464,240,62282,6,0,B|464:304|464:304,2,45
464,144,62892,2,0,B|464:96|464:96,2,45,8|0|0
408,56,63501,5,0
312,32,63806,1,0
216,56,64111,1,8
216,56,64263,1,0
216,56,64416,1,0
120,56,64721,5,0
80,144,65025,1,0
120,232,65330,1,8
120,232,65483,1,0
120,232,65635,1,0
88,328,65940,5,0
136,328,66092,1,0
184,328,66245,1,0
224,240,66549,1,8
264,272,66702,1,0
272,320,66854,1,0
368,320,67159,5,0
376,272,67311,1,0
416,240,67464,1,0
320,216,67769,1,8
320,168,67921,1,0
320,120,68073,1,0
320,24,68378,6,0,B|264:24|248:72|248:72,1,90
152,72,68988,1,8
152,72,69140,1,0
152,72,69293,1,0
56,72,69598,6,0,B|56:136|112:160|112:160,1,90
96,248,70207,1,8
96,248,70360,1,0
96,248,70512,1,0
192,248,70817,6,0,B|192:296|192:296,2,45
280,208,71426,1,8
280,112,71731,2,0,B|328:112|328:112,2,45
192,152,72341,5,0
96,152,72646,1,8
104,104,72798,1,0
136,72,72951,1,0
232,72,73255,6,0,B|296:80|304:16|304:16,1,90
400,32,73865,2,0,B|400:80|400:80,2,45,8|0|0
496,32,74475,6,0,B|496:128|496:128,1,90
496,224,75084,1,8
448,216,75237,1,0
416,176,75389,1,0
320,176,75694,5,2
184,176,75999,1,0
248,296,76304,1,8
112,296,76608,1,0
40,176,76913,1,2
104,56,77218,1,0
248,56,77523,1,8
184,176,77828,1,0
320,176,78132,6,0,B|376:176|384:240|384:240,1,90,2|0
384,368,78742,1,8
496,288,79047,1,0
496,152,79352,2,0,B|496:88|432:80|432:80,1,90,2|0
312,80,79961,2,0,B|240:88|240:16|240:16,1,90,8|0
104,32,80571,6,0,B|104:128|104:128,1,90,2|0
104,256,81181,1,8
104,122,81485,1,0
216,192,81790,2,0,B|312:192|312:192,1,90,2|0
440,192,82400,1,8
306,193,82705,1,0
256,320,83009,5,2
256,320,83162,1,0
256,320,83314,1,0
120,320,83619,2,0,B|64:320|56:264|56:264,1,90,8|0
56,128,84229,2,0,B|64:64|128:64|128:64,1,90,2|0
160,192,84838,1,8
296,192,85143,1,0
256,192,85448,12,4,90325
