osu file format v8

[General]
AudioFilename: Error 001.mp3
AudioLeadIn: 0
PreviewTime: 39108
Countdown: 1
SampleSet: Soft
StackLeniency: 0.7
Mode: 0
LetterboxInBreaks: 1

[Editor]
DistanceSpacing: 0.899999976158142
BeatDivisor: 4
GridSize: 8

[Metadata]
Title:Error 001
Artist:Danzai
Creator:jericho2442
Version:Hard
Source:
Tags:

[Difficulty]
HPDrainRate:5
CircleSize:4
OverallDifficulty:6
ApproachRate:6
SliderMultiplier:1.6
SliderTickRate:1

[Events]
//Background and Video events
0,0,"ERROR 001.jpg"
//Break Periods
2,51509,60013
//Storyboard Layer 0 (Background)
//Storyboard Layer 1 (Fail)
//Storyboard Layer 2 (Pass)
//Storyboard Layer 3 (Foreground)
//Storyboard Sound Samples
//Background Colour Transformations
3,100,163,162,255

[TimingPoints]
100,609.632188579557,4,2,0,80,1,0
38956,-100,4,1,0,80,0,0
75686,-100,4,1,0,80,0,1
87879,-100,4,1,0,40,0,1
89707,-100,4,1,0,15,0,1
90317,-100,4,1,0,15,0,0

[Colours]
Combo1 : 255,255,0
Combo2 : 5,240,5
Combo3 : 5,5,240
Combo4 : 240,5,5

[HitObjects]
32,192,19608,1,0
32,32,20217,1,2
152,112,20827,2,0,B|240:160|216:56|336:136|336:136,1,160,0|2
448,120,22046,6,0,B|496:208|384:184|464:288|464:288,1,160,0|2
312,272,23266,1,0
192,352,23875,1,2
72,272,24485,6,0,B|0:184|88:112|88:112,1,160,0|2
217,125,25704,2,0,B|289:213|201:285|201:285,1,160,0|2
360,272,26923,5,0
440,152,27533,1,2
304,200,28143,1,0
440,152,28752,1,2
304,104,29362,6,0,B|248:104|232:56|232:56,1,80
168,64,29971,1,2
168,208,30581,2,0,B|208:304|120:288|176:368|176:368,1,160,0|2
320,360,31800,6,0,B|376:360|376:296|376:296,1,80
304,288,32410,1,2
304,144,33020,2,0,B|200:144|184:240|184:240,1,160,0|2
112,232,33934,5,0
40,232,34239,2,0,B|40:176|104:160|104:160,1,80
152,168,34849,1,2
296,168,35458,2,0,B|408:184|400:56|400:56,1,160,0|2
471,78,36373,1,0
472,152,36677,6,0,B|472:232|472:232,1,80
472,304,37287,1,2
336,256,37897,2,0,B|232:304|264:200|176:264|176:264,1,160,0|2
111,258,38811,1,0
64,200,39116,5,0
112,104,39573,1,0
216,104,40030,1,8
280,72,40335,1,0
456,192,41250,5,0
456,264,41554,1,0
392,352,42012,1,0
288,352,42469,1,8
336,296,42774,1,0
336,152,43383,1,8
208,224,43993,5,0
104,184,44450,1,0
120,288,44907,1,8
192,296,45212,1,0
336,296,45822,1,8
480,296,46432,5,0
480,192,46889,1,0
480,88,47346,1,8
424,136,47651,1,0
280,136,48260,1,8
256,192,48870,12,4,51309
368,120,61063,6,0,B|304:120|304:64|304:64,1,80
232,80,61672,1,8
160,80,61977,2,0,B|160:160|160:160,1,80
88,160,62587,2,0,B|88:224|147:231|147:231,1,80,0|8
160,288,63196,1,0
232,288,63501,6,0,B|312:288|312:288,1,80
312,360,64111,1,8
384,360,64416,2,0,B|464:360|464:360,1,80
464,288,65025,2,0,B|408:288|384:224|384:224,1,80,0|8
464,216,65635,1,0
464,144,65940,6,0,B|464:64|464:64,1,80
392,64,66549,1,8
320,64,66854,2,0,B|320:128|384:136|384:136,1,80
360,200,67464,2,0,B|360:256|304:264|304:264,1,80,0|8
288,192,68073,1,0
216,192,68378,5,0
144,176,68683,1,0
128,104,68988,1,8
128,32,69293,2,0,B|64:32|56:88|56:88,1,80
64,144,69902,2,0,B|64:232|64:232,1,80,0|8
64,296,70512,1,0
120,344,70817,5,0
184,312,71122,1,0
248,344,71426,1,8
312,312,71731,1,0
376,344,72036,2,0,B|432:352|448:304|448:304,1,80
384,272,72646,2,0,B|408:232|456:240|456:240,1,80,8|0
456,168,73255,6,0,B|456:80|456:80,1,80
384,88,73865,2,0,B|384:40|320:16|320:16,1,80,8|0
312,96,74475,2,0,B|272:72|232:96|232:96,1,80
272,160,75084,2,0,B|224:160|208:216|208:216,1,80,8|0
208,280,75694,6,0,B|104:272|144:160|144:160,1,160,2|0
144,88,76608,1,0
144,16,76913,2,0,B|208:16|216:72|216:72,1,80,8|0
280,56,77523,2,0,B|360:56|360:56,1,80,0|0
432,56,78132,6,0,B|464:144|392:120|440:224|440:224,1,160,2|0
437,284,79047,1,0
436,356,79352,2,0,B|384:360|368:312|368:312,1,80,8|0
296,320,79961,2,0,B|208:320|208:320,1,80
144,320,80571,6,0,B|144:272|192:252|192:252|192:176|192:176,1,160,2|0
192,112,81485,1,0
120,112,81790,2,0,B|120:64|172:41|172:41,1,80,8|0
232,48,82400,2,0,B|320:48|320:48,1,80
384,48,83009,6,0,B|384:96|336:120|336:120,3,80,2|0|0|0
344,184,84229,2,0,B|344:264|344:264,3,80,8|0|0|0
256,192,85448,12,4,90325
