osu file format v9

[General]
AudioFilename: Chipstream.mp3
AudioLeadIn: 1004
PreviewTime: 51282
Countdown: 0
SampleSet: Soft
StackLeniency: 0.3
Mode: 0
LetterboxInBreaks: 0

[Editor]
DistanceSpacing: 0.9
BeatDivisor: 4
GridSize: 8

[Metadata]
Title:Chipstream
Artist:Danzai
Creator:aevv
Version:Insane
Source:
Tags:

[Difficulty]
HPDrainRate:8
CircleSize:4
OverallDifficulty:8
ApproachRate:8
SliderMultiplier:1.4
SliderTickRate:0.5

[Events]
//Background and Video events
0,0,"bg.png"
//Break Periods
//Storyboard Layer 0 (Background)
//Storyboard Layer 1 (Fail)
//Storyboard Layer 2 (Pass)
//Storyboard Layer 3 (Foreground)
//Storyboard Sound Samples
//Background Colour Transformations
3,100,163,162,255

[TimingPoints]
2062,396.301188903567,4,2,0,100,1,0
63864,349.854227405248,4,2,0,100,1,0
108668,283.018867924528,4,2,0,100,1,0
126781,237.795238095238,4,2,0,100,1,0
141979,396.170353251898,4,2,0,100,1,0

[Colours]
Combo1 : 28,227,222
Combo2 : 242,129,2
Combo3 : 5,5,240
Combo4 : 244,0,0

[HitObjects]
256,192,2062,1,0
256,224,2161,1,0
256,256,2260,1,0
256,288,2359,1,0
224,288,2458,2,0,L|168:288|168:288|160:288,3,35,2|0|2|0
152,288,2854,1,0
120,288,2953,1,0
88,288,3052,1,0
88,256,3151,1,0
88,224,3250,2,0,L|88:176|88:176,3,35,2|0|2|0
88,152,3647,5,0
88,120,3746,1,0
88,88,3845,1,0
88,56,3944,1,0
120,56,4043,2,0,L|176:56|176:56|184:56,3,35,2|0|2|0
192,56,4439,1,0
224,56,4538,1,0
256,56,4637,1,0
256,88,4737,1,0
256,120,4836,2,0,L|256:168|256:168,3,35,2|0|2|0
288,152,5232,5,0
320,152,5331,1,0
352,152,5430,1,0
352,184,5529,1,0
352,216,5628,2,0,L|352:264|352:264,3,35,2|0|2|0
320,248,6025,1,0
288,248,6124,1,0
256,248,6223,1,0
224,248,6322,1,0
192,248,6421,2,0,L|144:248|144:248,3,35,2|4|2|4
88,80,6817,5,2
88,112,6916,1,0
88,144,7015,1,0
192,112,7213,1,2
192,144,7312,1,0
192,176,7412,1,0
296,144,7610,5,2
296,176,7709,1,0
296,208,7808,1,0
400,176,8006,1,2
400,208,8105,1,0
400,240,8204,1,0
416,80,8402,5,2
416,112,8501,1,0
416,144,8600,1,0
312,112,8799,1,2
312,144,8898,1,0
312,176,8997,1,0
208,144,9195,5,2
208,176,9294,1,0
208,208,9393,1,0
104,176,9591,1,2
104,208,9690,1,0
104,240,9789,1,0
104,104,9988,5,2
128,80,10087,1,0
152,104,10186,1,0
352,104,10384,1,2
376,128,10483,1,0
400,104,10582,1,0
392,216,10780,5,2
368,192,10879,1,0
344,216,10978,1,0
152,216,11176,1,2
128,192,11276,1,0
104,216,11375,1,0
368,192,11573,5,2
368,192,11672,1,0
368,192,11771,1,0
256,192,11969,1,2
256,192,12068,1,0
256,192,12167,1,0
128,192,12365,1,2
128,192,12464,1,0
128,192,12563,1,0
256,192,12762,1,2
256,192,12861,1,0
256,192,12960,1,0
256,192,13158,5,4
224,168,13257,1,0
192,144,13356,1,0
160,120,13455,1,0
128,96,13554,1,0
96,72,13653,1,0
64,72,13752,1,0
40,96,13851,1,0
40,128,13951,5,0
40,160,14050,1,0
48,192,14149,1,0
72,216,14248,1,0
104,232,14347,1,0
136,240,14446,1,0
168,240,14545,1,0
200,232,14644,1,0
232,224,14743,6,0,L|272:208|272:208,3,35,2|0|2|0
296,192,15139,2,0,L|336:152|336:152,3,35,2|0|2|0
344,136,15536,5,0
360,104,15635,1,0
384,80,15734,1,0
416,64,15833,1,0
448,64,15932,1,0
480,72,16031,1,0
496,104,16130,1,0
496,136,16229,1,0
472,160,16328,5,0
440,168,16427,1,0
416,144,16526,1,0
400,112,16626,1,0
384,80,16725,1,0
352,64,16824,1,0
320,56,16923,1,0
288,56,17022,1,0
256,56,17121,6,0,L|200:56|200:56,3,35,2|0|2|0
192,72,17517,2,0,L|160:112|160:112,3,35,2|0|2|0
144,120,17914,5,0
120,144,18013,1,0
88,152,18112,1,0
56,160,18211,1,0
32,184,18310,2,0,L|16:224|16:224,3,35,2|0|2|0
32,248,18706,5,0
56,272,18805,1,0
88,296,18904,1,0
120,296,19003,1,0
152,288,19102,2,0,L|200:248|200:248,3,35,2|4|2|4
208,240,19499,5,2
232,216,19598,1,0
256,192,19697,1,0
368,168,19895,1,2
392,144,19994,1,0
416,120,20093,1,0
232,56,20291,5,2
208,80,20390,1,0
184,104,20490,1,0
64,120,20688,1,2
40,144,20787,1,0
16,176,20886,1,0
272,56,21084,5,2
296,80,21183,1,0
320,104,21282,1,0
272,208,21480,1,2
296,232,21579,1,0
320,256,21678,1,0
160,256,21877,5,2
136,224,21976,1,0
112,192,22075,1,0
176,88,22273,1,2
152,64,22372,1,0
128,40,22471,1,0
256,192,22669,5,2
256,192,22768,1,0
256,192,22867,1,0
368,192,23065,1,2
368,192,23165,1,0
368,192,23264,1,0
144,192,23462,1,2
144,192,23561,1,0
144,192,23660,1,0
256,192,23858,1,2
256,192,23957,1,0
256,192,24056,1,0
208,48,24254,5,2
240,48,24353,1,0
272,48,24453,1,0
456,104,24651,1,2
456,136,24750,1,0
456,168,24849,1,0
360,296,25047,5,2
328,296,25146,1,0
296,296,25245,1,0
200,224,25443,1,2
200,192,25542,1,0
200,160,25641,1,0
328,160,25840,5,4
296,160,25939,1,0
264,160,26038,1,0
232,160,26137,1,0
200,160,26236,2,0,L|152:160|152:160,3,35,2|0|2|0
128,160,26632,5,0
96,160,26731,1,0
64,160,26830,1,0
32,160,26929,1,0
32,128,27028,2,8,L|72:96|72:96,3,35,2|0|2|0
88,80,27425,5,0
120,72,27524,1,0
152,56,27623,1,0
184,64,27722,1,0
208,88,27821,2,0,L|264:64|264:64,3,35,2|0|2|0
272,72,28217,5,0
296,96,28316,1,0
312,128,28416,1,0
344,136,28515,1,0
376,136,28614,2,0,L|424:104|424:104,3,35,2|0|2|0
424,144,29010,5,0
416,176,29109,1,0
392,200,29208,1,0
360,200,29307,1,0
328,192,29406,2,0,L|272:160|272:160,3,35,2|0|2|0
264,192,29803,5,0
248,224,29902,1,0
248,256,30001,1,0
216,272,30100,1,0
184,272,30199,2,0,L|136:272|136:272,3,35,2|0|2|0
128,248,30595,2,0,L|104:192|104:192,3,35,0|0|0|0
112,184,30991,5,0
128,152,31091,1,0
160,136,31190,1,0
152,104,31289,1,0
176,72,31388,1,0
208,72,31487,1,0
232,48,31586,1,0
264,56,31685,1,0
296,72,31784,5,0
312,104,31883,1,0
312,136,31982,1,0
312,168,32081,1,0
312,200,32180,6,0,L|312:248|312:248,2,35,2|0|2
224,232,32577,2,0,L|224:280|224:280,2,35,2|0|2
384,288,32973,2,0,L|384:336|384:336,2,35,2|0|2
264,320,33369,2,0,L|264:368|264:368,2,35,2|0|2
64,248,33766,6,0,L|64:200,2,35,2|0|2
152,200,34162,2,0,L|152:152,2,35,2|0|2
48,104,34558,2,0,L|48:56,2,35,0|0|0
128,56,34954,2,0,L|128:8,2,35,2|0|2
256,104,35351,5,2
288,120,35450,1,0
320,136,35549,1,0
320,208,35747,1,2
288,224,35846,1,0
256,240,35945,1,0
208,192,36143,5,2
184,168,36242,1,0
160,144,36342,1,0
216,96,36540,1,2
248,80,36639,1,0
280,64,36738,1,0
416,88,36936,5,2
432,120,37035,1,0
448,152,37134,1,0
368,288,37332,1,2
336,304,37431,1,0
304,320,37530,1,0
104,248,37729,1,2
80,224,37828,1,0
56,200,37927,1,0
144,56,38125,1,2
168,32,38224,1,0
192,8,38323,1,0
256,192,38521,5,4
384,88,39116,5,0
384,176,39314,1,0
384,224,39413,1,0
384,272,39512,1,0
304,320,39710,1,8
216,320,39908,1,0
168,320,40007,1,0
120,320,40106,1,0
64,248,40305,5,0
64,160,40503,1,8
104,80,40701,1,0
192,56,40899,1,0
240,48,40998,1,0
232,96,41097,1,0
288,168,41295,1,8
360,120,41493,1,0
392,152,41593,1,0
384,200,41692,1,0
384,288,41890,5,0
296,288,42088,1,8
208,288,42286,1,0
240,256,42385,1,8
304,192,42583,1,8
216,192,42781,1,0
184,224,42881,1,8
144,144,43079,5,8
176,112,43178,1,8
208,80,43277,1,0
280,136,43475,1,0
368,128,43673,1,8
456,112,43871,1,0
456,160,43970,1,8
384,208,44169,1,8
464,240,44367,5,0
472,280,44466,1,8
408,328,44664,1,8
368,320,44763,1,8
336,296,44862,1,0
312,264,44961,1,4
280,184,45159,5,0
232,200,45258,1,4
192,280,45456,1,8
104,256,45655,1,8
72,176,45853,1,8
120,96,46051,1,0
168,88,46150,1,0
208,80,46249,1,8
296,72,46447,5,0
328,104,46546,1,8
392,40,46744,1,0
424,72,46844,1,8
376,144,47042,1,4
304,200,47240,1,4
344,280,47438,1,4
256,280,47636,1,4
208,280,47735,1,4
192,240,47834,1,12
128,168,48032,5,0
144,128,48132,1,0
184,104,48231,1,0
208,64,48330,1,8
256,56,48429,1,12
392,80,48726,5,8
408,216,49023,1,0
448,192,49122,1,0
448,144,49221,1,4
360,160,49419,1,4
280,200,49618,1,0
232,208,49717,1,0
192,224,49816,1,0
160,256,49915,1,8
128,288,50014,1,12
80,160,50311,5,8
184,72,50608,1,0
232,72,50707,1,0
208,112,50807,1,4
208,200,51005,1,4
288,248,51203,5,4
328,232,51302,1,0
360,200,51401,1,0
384,160,51500,1,0
384,112,51599,2,0,L|384:72,3,35
336,72,51995,5,0
304,104,52095,1,0
280,144,52194,1,0
248,176,52293,1,0
208,192,52392,2,0,L|152:184,3,35
160,144,52788,2,0,L|128:112,3,35
96,136,53184,2,0,L|56:184,3,35
80,208,53581,5,0
112,240,53680,1,0
152,256,53779,1,0
184,288,53878,1,0
224,312,53977,1,8
264,296,54076,1,0
280,256,54175,1,0
320,232,54274,1,0
352,200,54373,2,0,L|336:160,3,35
360,128,54770,5,8
408,136,54869,1,0
416,184,54968,1,0
408,232,55067,1,8
368,256,55166,2,0,L|328:232,3,35,0|8|0|8
304,208,55562,2,0,L|248:224,3,35,8|0|8|0
224,208,55958,5,0
232,160,56058,1,0
192,136,56157,1,0
152,152,56256,1,0
112,176,56355,1,8
120,224,56454,1,0
136,264,56553,1,0
96,288,56652,1,8
64,256,56751,2,0,L|32:216,3,35,0|8|0|8
48,184,57147,5,8
72,144,57246,1,0
96,104,57346,1,8
136,88,57445,1,0
176,88,57544,1,0
216,96,57643,1,4
256,112,57742,1,0
184,216,57940,5,4
224,232,58039,1,0
264,248,58138,1,8
352,56,58336,5,8
392,64,58435,1,0
432,72,58534,1,8
440,240,58733,5,0
440,280,58832,1,0
440,320,58931,1,8
336,192,59129,5,0
336,192,59228,1,4
336,192,59327,1,0
192,192,59525,1,4
192,192,59624,1,0
192,192,59723,1,8
56,192,59921,1,8
56,192,60021,1,0
56,192,60120,1,8
192,192,60318,1,0
192,192,60417,1,0
192,192,60516,1,8
256,112,60714,6,0,L|296:112,2,35
392,248,61110,6,0,L|352:208,2,35,2|0|2
96,288,61507,6,0,L|128:264,2,35,2|0|2
96,64,61903,6,0,L|136:96,2,35,2|0|2
376,80,62299,6,0,L|352:104,2,35,2|0|2
256,192,62696,6,0,L|296:192,2,35,2|0|2
256,192,63092,6,2,L|200:192,2,35
256,192,63488,6,0,L|256:152,2,35,2|0|2
160,112,63864,5,4
136,136,63951,1,0
112,168,64038,1,0
104,200,64126,1,0
96,232,64213,2,0,L|112:272,3,35,2|0|2|0
136,280,64563,5,0
168,272,64651,1,0
200,256,64738,1,0
232,248,64826,1,0
264,232,64913,2,0,L|304:216,3,35,2|0|2|0
312,184,65263,5,0
344,168,65350,1,0
376,176,65438,1,0
408,192,65525,1,0
432,216,65613,2,0,L|448:256,3,35,2|0|2|0
432,280,65963,5,0
400,296,66050,1,0
368,288,66138,1,0
344,264,66225,1,0
328,232,66312,2,0,L|304:200,3,35,2|0|2|0
296,168,66662,5,0
296,136,66750,1,0
304,104,66837,1,0
280,80,66925,1,0
248,72,67012,2,0,L|200:64,3,35,2|0|2|0
176,72,67362,5,0
152,96,67450,1,0
136,128,67537,1,0
104,144,67624,1,0
72,160,67712,2,0,L|48:216,3,35,2|0|2|0
72,224,68062,5,0
96,248,68149,1,0
128,264,68237,1,0
160,264,68324,1,0
192,264,68412,2,0,L|248:240,3,35,2|0|2|0
248,224,68761,5,0
280,232,68849,1,0
304,256,68936,1,0
312,288,69024,1,0
344,304,69111,2,0,L|384:336,3,35,2|4|2|4
440,288,69461,5,2
448,256,69549,1,0
448,224,69636,1,0
416,112,69811,1,2
384,96,69898,1,0
352,104,69986,1,0
288,152,70161,5,2
272,184,70248,1,0
240,192,70336,1,0
128,168,70511,1,2
104,144,70598,1,0
112,112,70686,1,0
200,40,70861,5,2
224,64,70948,1,0
200,88,71036,1,0
192,184,71210,1,2
216,208,71298,1,0
224,240,71385,1,0
344,312,71560,5,2
312,328,71648,1,0
280,344,71735,1,0
144,304,71910,1,2
168,328,71998,1,0
200,344,72085,1,0
296,208,72260,2,0,L|312:168,2,35,2|0|2
400,176,72610,2,2,L|376:128,2,35
328,104,72960,2,0,L|344:64,2,35,2|0|2
408,56,73310,2,0,L|376:0,2,35,2|0|2
64,192,73659,6,0,L|112:192,2,35,2|0|2
104,224,74009,2,0,L|104:184,2,35,2|0|2
136,192,74359,2,0,L|72:184,2,35,2|0|2
104,152,74709,2,0,L|104:192,2,35,2|0|2
360,80,75059,6,0,L|336:112,3,35,2|0|2|0
312,128,75409,1,0
296,160,75496,1,0
328,176,75584,1,0
336,208,75671,1,0
304,224,75759,1,0
296,256,75846,1,0
264,272,75933,1,0
232,264,76021,1,0
200,272,76108,5,0
184,304,76196,1,0
152,312,76283,1,0
120,296,76371,1,0
104,264,76458,1,0
88,240,76546,1,0
64,216,76633,1,0
72,184,76721,1,0
72,152,76808,6,0,L|96:96,3,35,2|0|2|0
120,112,77158,2,0,L|176:112,3,35,2|0|2|0
176,136,77508,6,0,L|208:168,3,35,2|0|2|0
232,168,77858,1,0
248,192,77945,1,0
280,192,78033,1,0
296,216,78120,1,0
328,208,78208,1,0
344,232,78295,1,0
376,224,78382,1,0
392,248,78470,1,0
424,256,78557,6,0,L|464:208,3,35,2|0|2|0
432,200,78907,1,0
448,168,78995,1,0
440,136,79082,1,0
432,104,79170,1,0
400,96,79257,6,0,L|352:72,3,35,2|0|2|0
336,88,79607,2,0,L|304:64,3,35,2|0|2|0
280,80,79957,1,0
248,88,80044,1,0
224,104,80132,1,0
200,128,80219,1,0
184,152,80307,1,4
168,184,80394,1,0
160,216,80482,1,4
160,248,80569,1,0
184,264,80657,5,2
208,280,80744,1,0
232,296,80831,1,0
352,272,81006,1,2
368,248,81094,1,0
384,224,81181,1,0
400,104,81356,5,2
376,88,81444,1,0
352,72,81531,1,0
216,72,81706,1,2
184,72,81794,1,0
160,72,81881,1,0
72,144,82056,6,0,L|72:192,2,35,2|0|2
72,264,82406,5,2
72,264,82493,1,0
72,264,82581,1,0
192,264,82756,6,0,L|192:200,2,35,2|0|2
192,136,83105,5,2
192,136,83193,1,0
192,136,83280,1,0
352,136,83455,5,2
352,136,83543,1,0
352,168,83630,1,0
352,256,83805,1,2
352,256,83893,1,0
352,232,83980,1,0
304,200,84155,5,2
280,200,84243,1,0
248,200,84330,1,0
160,200,84505,1,2
136,200,84592,1,0
112,200,84680,1,0
352,256,84855,6,0,L|352:192,2,35,2|0|2
352,120,85205,6,0,L|352:168,2,35,2|0|2
112,192,85554,6,0,L|176:192,2,35,2|0|2
280,192,85904,6,0,L|232:192,2,35,2|0|2
440,48,86254,6,0,B|208:48|208:280|416:272,1,420
320,168,88353,2,0,L|176:208,1,140
184,208,89053,2,0,L|80:104,1,140
72,96,89578,1,2
72,96,90103,6,0,B|72:328|304:328|368:112,1,490
376,96,91502,1,2
376,232,91852,5,0
240,232,92202,2,0,L|320:232,1,70
448,232,92726,1,0
280,104,93251,5,0
72,104,93776,1,0
72,312,94301,2,0,B|232:312|152:232,1,140
464,48,95525,5,0
392,48,95700,1,0
296,144,96050,1,0
240,192,96225,5,0
216,216,96312,1,0
192,240,96400,1,8
120,240,96575,1,0
56,208,96750,1,0
72,144,96925,1,8
96,120,97012,1,0
128,104,97100,1,8
200,104,97275,1,4
264,96,97450,6,0,B|464:192|464:368|264:368,1,420
96,216,99549,2,0,B|248:184|184:256,1,140
72,304,100248,1,0
40,152,100598,2,0,B|96:112,1,70
128,40,101298,6,0,B|320:112|192:232|512:352,1,490
494,345,102697,1,2
352,344,103047,1,0
216,344,103397,1,0
144,344,103572,1,0
8,344,103922,1,0
8,136,104447,5,0
200,48,104971,1,0
400,104,105496,1,0
464,232,105846,1,0
256,192,106721,5,0
184,192,106896,1,0
184,56,107245,5,0
256,56,107420,1,0
288,56,107508,1,0
320,56,107595,1,8
392,56,107770,1,0
392,128,107945,1,0
392,200,108120,1,8
392,232,108208,1,0
392,264,108295,1,8
392,336,108470,1,4
256,192,108668,5,0
224,192,108738,1,0
192,192,108809,1,0
160,192,108880,1,0
128,192,108951,2,0,B|88:192,3,35,2|0|2|0
80,160,109234,5,0
80,128,109304,1,0
96,96,109375,1,0
120,72,109446,1,0
152,56,109517,2,0,B|208:56,3,35,2|0|2|0
224,64,109800,5,0
256,80,109870,1,0
288,96,109941,1,0
320,112,110012,1,0
344,136,110083,2,0,B|360:176,3,35,2|0|2|0
368,200,110366,5,0
384,232,110436,1,0
408,256,110507,1,0
440,256,110578,1,0
464,232,110649,2,0,B|488:200,3,35,2|0|2|0
480,168,110932,5,0
472,136,111002,1,0
448,112,111073,1,0
424,88,111144,1,0
392,72,111215,2,0,B|352:80,3,35,2|0|2|0
320,80,111498,5,0
296,104,111568,1,0
272,128,111639,1,0
240,144,111710,1,0
208,144,111781,2,0,B|152:144,3,35,2|0|2|0
144,160,112064,5,0
128,192,112134,1,0
136,224,112205,1,0
160,248,112276,1,0
192,272,112347,2,0,B|240:296,3,35,2|0|2|0
232,320,112630,5,0
216,352,112701,1,0
184,368,112771,1,0
152,368,112842,1,0
112,352,112913,2,0,B|80:320,3,35,2|4|2|4
40,240,113196,6,0,B|40:192,2,35,2|0|2
40,128,113479,1,2
40,128,113550,1,0
40,128,113620,1,0
152,120,113762,6,0,B|152:72,2,35,2|0|2
256,128,114045,1,2
256,128,114116,1,0
256,128,114186,1,0
376,192,114328,5,2
384,224,114399,1,0
392,256,114469,1,0
304,288,114611,1,2
272,288,114682,1,0
240,288,114752,1,0
184,232,114894,1,2
184,200,114965,1,0
184,168,115035,1,0
256,128,115177,1,2
288,112,115248,1,0
320,104,115318,1,0
432,96,115460,6,0,B|376:96,2,35,2|0|2
432,144,115743,6,0,B|384:144,2,35,2|0|2
432,192,116026,6,0,B|384:192,2,35,2|0|2
432,240,116309,6,0,B|384:240,2,35,2|0|2
336,240,116592,5,2
336,240,116663,1,0
336,240,116734,1,0
288,240,116875,1,2
288,240,116946,1,0
288,240,117017,1,0
248,240,117158,1,2
248,240,117229,1,0
248,240,117300,1,0
200,240,117441,1,2
200,240,117512,1,0
200,240,117583,1,0
144,200,117724,6,0,B|112:168,3,35,2|0|2|0
104,144,118007,1,0
112,112,118078,1,0
144,96,118149,1,0
168,72,118219,1,0
200,64,118290,1,0
232,64,118361,1,0
264,56,118432,1,0
296,48,118502,1,0
328,40,118573,1,0
360,48,118644,1,0
384,72,118715,1,0
408,96,118785,1,0
424,128,118856,6,0,B|424:192,3,35,2|0|2|0
400,192,119139,1,0
368,208,119210,1,0
336,224,119281,1,0
304,240,119351,1,0
272,248,119422,6,0,B|208:248,3,35,2|0|2|0
200,248,119705,1,0
168,232,119776,1,0
136,248,119847,1,0
112,272,119917,1,0
96,304,119988,1,0
64,320,120059,1,0
32,312,120130,1,0
16,280,120201,1,0
24,248,120271,1,0
40,216,120342,1,0
56,184,120413,1,0
72,152,120484,1,0
96,128,120554,6,0,B|144:88,3,35,2|0|2|0
160,104,120837,2,0,B|144:48,3,35,2|0|2|0
184,40,121120,2,0,B|240:24,3,35,2|0|2|0
248,48,121403,1,0
272,72,121474,1,0
296,96,121545,1,0
328,120,121616,1,0
328,152,121686,1,0
336,184,121757,6,0,B|352:224,3,35,2|0|2|0
336,248,122040,1,4
352,280,122111,1,0
384,296,122182,1,4
408,272,122252,5,2
424,240,122323,1,0
440,208,122394,1,0
456,120,122535,1,2
456,120,122606,1,0
456,120,122677,1,0
328,120,122818,1,2
296,120,122889,1,0
264,120,122960,1,0
160,120,123101,1,2
160,120,123172,1,0
160,120,123243,1,0
72,304,123384,6,0,B|104:280,2,35,2|0|2
176,312,123667,1,2
176,312,123738,1,0
176,312,123809,1,0
304,312,123951,6,0,B|272:288,2,35,2|0|2
176,312,124234,1,2
176,312,124304,1,0
176,312,124375,1,0
256,192,124517,6,0,B|216:192,2,35,2|0|2
256,192,124800,6,0,B|256:152,2,35,2|0|2
256,192,125083,6,0,B|312:192,2,35,2|2|2
256,192,125366,6,0,B|256:240,2,35,2|2|2
112,192,125649,6,0,B|160:192,2,35,2|0|2
256,64,125932,6,0,B|256:104,2,35,2|0|2
416,192,126215,6,0,B|376:192,2,35,2|0|2
256,328,126498,6,0,B|256:288,2,35,2|0|2
256,192,126710,6,0,B|256:144,3,35,0|0|0|0
280,128,126959,2,0,B|304:88,3,35,0|0|0|0
336,96,127197,2,0,B|392:88,3,35,0|0|0|0
392,120,127434,2,0,B|440:160,3,35,0|0|0|0
432,176,127672,2,0,B|432:224,3,35,0|0|0|0
432,248,127910,2,0,B|392:296,3,35,0|0|0|0
376,288,128148,6,0,B|336:296,3,35,0|0|0|0
304,296,128386,2,0,B|240:296,3,35,0|0|0|0
232,288,128623,2,0,B|176:256,3,35,0|0|0|0
200,232,128861,2,0,B|176:192,3,35,0|0|0|0
152,184,129099,2,0,B|104:160,3,35,0|0|0|0
96,144,129337,2,0,B|88:104,3,35,0|0|0|0
104,80,129575,6,0,B|144:48,3,35,0|0|0|0
168,48,129812,2,0,B|216:48,3,35,0|0|0|0
240,56,130050,2,0,B|272:72,3,35,0|0|0|0
296,96,130288,2,0,B|328:128,3,35,0|0|0|0
368,192,130526,6,0,B|400:216,2,35
304,256,130764,6,0,B|336:280,2,35
424,112,131001,6,0,B|456:136,2,35
288,128,131239,6,0,B|240:88,2,35
104,208,131477,6,0,B|104:248,2,35
104,136,131715,6,0,B|104:88,2,35
200,168,131953,6,0,B|240:168,2,35
24,176,132190,6,0,B|-32:176,2,35
256,320,132488,6,0,B|200:320,2,35
256,192,132725,6,0,B|312:192,2,35
256,64,132963,6,0,B|200:64,2,35
256,320,133201,6,0,B|256:368,2,35
88,48,133439,6,0,B|88:104,2,35
80,312,133677,6,0,B|80:264,2,35
432,312,133914,6,0,B|432:264,2,35
432,48,134152,6,0,B|432:104,2,35
256,192,134390,6,0,B|296:160,3,35,0|0|0|0
240,120,134628,2,0,B|200:80,3,35,0|0|0|0
144,112,134866,2,0,B|88:120,3,35,0|0|0|0
112,184,135103,2,0,B|104:248,3,35,0|0|0|0
144,280,135341,2,0,B|176:328,3,35,0|0|0|0
232,304,135579,2,0,B|280:296,3,35,0|0|0|0
336,296,135817,6,0,B|368:344,3,35,0|0|0|0
424,328,136055,2,0,B|480:304,3,35,0|0|0|0
464,248,136292,2,0,B|480:184,3,35,0|0|0|0
448,144,136530,2,0,B|408:96,3,35,0|0|0|0
360,88,136768,2,0,B|312:72,3,35,0|0|0|0
256,88,137006,2,0,B|216:104,3,35,0|0|0|0
160,128,137243,6,0,B|112:168,3,35,0|0|0|0
88,96,137481,2,0,B|48:80,3,35,0|0|0|0
104,32,137719,2,0,B|168:24,3,35,0|0|0|0
208,24,137957,2,0,B|264:24,3,35,0|0|0|0
312,24,138195,6,0,B|352:24,2,35
312,192,138432,6,0,B|352:192,2,35
304,360,138670,6,0,B|344:360,2,35
176,192,138908,6,0,B|120:192,2,35
448,56,139146,6,0,B|448:16,2,35
448,336,139384,6,0,B|448:376,2,35
448,120,139621,6,0,B|448:176,2,35
448,272,139859,6,0,B|448:216,2,35
104,192,140097,6,0,B|144:192,2,35
176,192,140335,6,0,B|176:248,2,35
232,192,140573,6,0,B|272:192,2,35
328,192,140810,6,0,B|368:192,2,35
32,192,141048,6,0,B|32:256,2,35
104,192,141286,6,0,B|104:136,2,35
168,192,141524,6,0,B|168:248,2,35
400,192,141762,6,0,B|440:192,2,35
256,184,141979,5,0
232,152,142078,1,0
216,120,142177,1,0
216,88,142276,1,0
240,64,142375,1,0
272,48,142474,1,0
304,48,142573,1,0
336,56,142672,1,0
368,72,142771,1,0
384,104,142870,1,0
392,136,142969,1,0
376,168,143068,1,0
352,192,143167,6,0,B|320:224,3,35,2|0|2|0
296,224,143563,1,0
264,224,143662,1,0
232,224,143761,1,0
200,224,143860,1,0
168,208,143959,6,0,B|128:176,3,35,2|0|2|0
112,144,144356,2,0,B|96:88,3,35,2|0|2|0
120,80,144752,1,0
152,64,144851,1,0
128,32,144950,1,0
96,24,145049,1,0
64,32,145148,1,0
40,64,145247,1,0
32,96,145346,1,0
24,128,145445,1,0
24,160,145544,6,0,B|40:208,3,35,2|0|2|0
64,216,145940,1,0
56,248,146039,1,0
56,280,146138,1,0
72,312,146237,1,0
104,328,146336,6,0,B|160:344,3,35,2|0|2|0
168,320,146733,1,0
200,320,146832,1,0
232,296,146931,1,0
264,280,147030,1,0
296,280,147129,6,0,B|360:288,3,35,2|0|2|0
360,272,147525,2,0,B|416:264,3,35,2|2|2|2
392,232,147921,2,0,B|392:168,3,35,4|0|4|0
296,88,148317,5,2
280,120,148416,1,0
264,152,148515,1,0
184,136,148713,1,2
168,168,148812,1,0
152,200,148911,1,0
80,176,149110,1,2
64,208,149209,1,0
40,240,149308,1,0
16,304,149506,1,2
16,304,149605,1,0
16,304,149704,1,4
152,304,149902,5,2
184,304,150001,1,0
216,304,150100,1,0
352,304,150298,1,2
384,304,150397,1,0
416,304,150496,1,0
432,176,150694,1,2
432,144,150793,1,0
432,112,150892,1,0
312,104,151090,1,2
312,136,151189,1,0
312,168,151289,1,4
176,56,151487,6,0,B|152:88,2,35,2|0|2
80,128,151883,1,2
80,128,151982,1,0
80,128,152081,1,0
168,184,152279,6,0,B|200:216,2,35,2|0|2
208,304,152675,1,2
208,304,152774,1,0
208,304,152873,1,0
464,56,153071,6,0,B|432:32,2,35,2|0|2
384,144,153467,1,2
384,144,153566,1,0
384,144,153666,1,0
464,240,153864,6,0,B|440:272,2,35,2|0|2
344,264,154260,1,2
344,264,154359,1,0
344,264,154458,1,0
256,192,154656,5,4
