osu file format v5

[General]
AudioFilename: Danny Elfman - Mike Teavee.mp3
AudioLeadIn: 0
PreviewTime: 39684
Countdown: 1
SampleSet: Normal
StackLeniency: 0.7
Mode: 0
EditorBookmarks: 9973,64411,74324,88368

[Metadata]
Title:Mike Teavee
Artist:Danny Elfman
Creator:Sinistro
Version:I HAVE FURY!
Source:
Tags:

[Difficulty]
HPDrainRate:8
CircleSize:6
OverallDifficulty:8
SliderMultiplier:1.4
SliderTickRate:2

[Events]
//Background and Video events
0,0,"Mike Teavee.jpg"
//Break Periods
//Storyboard Layer 0 (Background)
//Storyboard Layer 1 (Failing)
//Storyboard Layer 2 (Passing)
//Storyboard Layer 3 (Foreground)
//Storyboard Sound Samples
//Background Colour Transformations
3,100,163,162,255

[TimingPoints]
3565,413.793103448276,4,1,0,51
64400,275.229357798165,3,2,0,51
74310,413.793103448276,4,1,0,51

[Colours]
Combo1 : 128,128,128
Combo2 : 255,0,0
Combo3 : 0,0,0
Combo4 : 255,255,0

[HitObjects]
112,224,9978,1,0
170,224,10185,1,0
228,224,10392,1,0
228,282,10599,1,0
228,340,10806,1,0
286,340,11013,2,2,L|426:340,1,140
430,224,11840,5,0
430,165,12047,1,0
429,106,12254,1,0
429,47,12461,1,0
373,64,12668,2,2,L|373:209,1,140
314,206,13289,5,0
255,206,13496,2,0,L|185:206,1,70
126,206,13909,1,0
67,205,14116,1,0
67,263,14323,2,2,L|67:334,1,70
125,332,14737,1,2
181,332,14944,1,0
237,332,15151,1,0
293,332,15358,2,0,L|293:248,1,70
236,262,15771,1,0
236,205,15978,1,2
292,205,16185,2,2,L|363:205,1,70
362,205,16599,5,0
362,148,16806,5,0
362,148,16909,1,0
362,148,17013,1,0
362,148,17116,1,0
362,148,17220,1,0
418,148,17427,1,0
418,203,17633,2,2,L|418:282,1,70
420,329,18047,1,2
420,329,18254,1,4
368,328,18461,5,0
320,328,18668,1,0
320,328,18771,1,0
320,328,18875,1,0
272,328,19082,1,0
224,328,19289,1,0
176,328,19496,1,0
176,328,19599,1,0
176,328,19702,1,0
128,295,19909,5,2
166,253,20116,2,0,L|216:198|161:140,1,140
114,151,20737,1,2
57,149,20944,2,0,L|9:95|70:39,1,140
115,49,21564,1,2
153,89,21771,2,0,L|207:137|266:84,1,140
300,55,22392,1,2
340,93,22599,2,0,L|394:141|457:86,1,140
471,205,23427,6,0,L|471:276,3,70
432,315,24254,1,0
432,315,24358,1,0
432,315,24461,1,0
432,315,24564,1,0
432,315,24668,1,2
432,315,24875,1,6
391,276,25082,6,0,L|391:205,3,70
430,166,25909,1,0
430,166,26013,1,0
430,166,26116,1,0
430,166,26220,1,0
430,166,26323,1,2
430,166,26530,1,6
430,109,26737,6,0,L|373:52,1,70
324,62,27151,2,0,L|269:117,1,70
218,111,27564,2,0,L|158:51,1,70
112,62,27978,2,0,L|52:122,1,70
28,156,28392,2,0,L|81:209,1,70
133,204,28806,2,0,L|190:261,1,70
238,254,29220,2,0,L|295:311,1,70
343,301,29633,2,0,L|400:358,1,70
448,350,30047,6,0,L|448:195,1,140
335,207,30875,2,0,L|335:53,1,140
222,65,31702,1,2
109,65,32116,1,2
110,121,32323,1,0
110,121,32427,1,0
110,121,32530,1,0
111,177,32737,1,0
111,233,32944,1,6
187,314,33358,5,2
298,315,33564,2,0,L|376:315,2,70
297,258,34185,1,2
297,201,34392,2,0,L|219:201,2,70
297,144,35013,1,2
353,145,35220,2,0,L|431:145,2,70
353,201,35840,1,2
353,257,36047,2,0,L|431:257,2,70
352,313,36668,5,0
352,313,36771,1,0
352,313,36875,1,0
352,313,36978,1,0
298,313,37082,1,2
241,313,37289,1,2
184,313,37496,5,0
118,222,37909,1,4
51,131,38323,5,0
51,131,38427,1,0
51,131,38530,1,0
51,131,38633,1,0
102,130,38737,1,2
103,73,38944,1,2
159,73,39151,1,0
270,73,39565,1,4
271,129,39771,5,0
306,172,39978,2,2,L|380:172,1,70
376,115,40392,1,0
376,58,40599,1,0
432,58,40806,2,2,L|432:128,1,70
434,184,41220,1,6
435,239,41427,6,0,L|384:290,1,70
357,239,41840,2,0,L|306:290,1,70
279,239,42254,2,0,L|228:290,1,70
203,238,42668,2,0,L|152:289,1,70
97,290,43082,5,0
56,251,43289,1,0
95,211,43496,1,0
137,174,43702,1,0
99,132,43909,1,0
63,89,44116,1,2
103,49,44323,1,2
145,12,44530,1,6
201,12,44737,5,0
257,12,44944,2,0,L|328:12,1,70
379,13,45358,1,0
435,13,45565,1,0
473,53,45771,1,0
418,67,45978,2,2,L|348:75,1,70
349,131,46392,5,0
349,187,46599,1,0
292,188,46806,6,2,L|219:188,1,70
165,189,47220,5,0
108,189,47427,1,0
102,244,47633,6,2,L|174:244,1,70
174,300,48047,5,0
211,342,48254,1,0
249,301,48461,1,0
305,301,48668,1,0
361,302,48875,1,0
401,262,49082,1,0
437,304,49289,1,0
493,304,49496,1,0
493,248,49702,5,0
455,205,49909,2,0,B|397:132|335:208,1,140
282,203,50530,1,0
225,202,50737,2,0,B|167:129|105:205,1,140
52,203,51358,5,0
51,259,51565,1,0
87,334,51875,1,0
87,334,51978,1,0
126,294,52185,1,0
126,237,52392,1,0
91,160,52702,1,0
91,160,52806,1,0
147,159,53013,5,0
170,108,53220,1,0
226,107,53427,2,0,B|303:107,1,70
342,76,53840,2,0,B|420:76,2,70
379,24,54461,1,4
435,23,54668,6,0,L|486:74|422:130|463:175|410:227|454:272|405:323,1,420
409,318,56116,1,4
353,315,56323,5,0
296,315,56530,2,0,L|220:315,1,70
169,315,56944,1,0
120,343,57151,1,0
119,286,57358,2,0,L|119:206,1,70
256,192,57771,12,4,58599
16,176,59220,5,0
64,176,59427,2,0,B|64:31,1,140
120,37,60047,1,0
176,37,60254,2,0,B|176:182,1,140
288,176,61082,5,0
320,176,61185,1,0
352,176,61392,1,0
384,176,61496,1,0
416,176,61599,1,0
448,176,61806,1,0
480,176,61909,5,4
480,144,62013,1,0
480,112,62220,1,0
480,80,62323,1,0
480,48,62427,1,0
480,16,62633,1,0
448,16,62737,5,4
416,16,62840,1,0
384,16,63047,1,0
352,16,63151,1,0
320,16,63254,1,0
288,16,63461,1,0
256,16,63565,5,4
256,48,63668,1,0
256,80,63875,1,0
256,112,63978,1,0
256,144,64082,1,0
256,176,64289,1,0
314,176,64400,6,0,B|319:215|341:227|364:228|386:220|402:210|405:185|407:165,2,140
369,273,65225,2,2,B|374:312|396:324|419:325|441:317|457:307|460:282|462:262,2,140
256,271,66051,2,0,B|251:310|229:322|206:323|184:315|168:305|165:280|163:260,2,140
329,185,66877,1,2
217,185,67152,1,2
273,88,67427,1,4
161,85,67702,6,0,B|156:46|134:34|111:33|89:41|73:51|70:76|68:96,1,140
117,185,68253,1,0
69,286,68528,2,2,B|74:325|96:337|119:338|141:330|157:320|160:295|162:275,1,140
272,287,69078,1,2
229,183,69354,2,0,B|234:144|256:132|279:131|301:139|317:149|320:174|322:194,1,140
432,182,69904,1,0
388,285,70179,2,4,B|393:324|415:336|438:337|460:329|476:319|479:294|481:274,2,140
340,183,71005,6,0,B|335:144|313:132|290:131|268:139|252:149|249:174|247:194,2,140
248,248,71831,2,2,B|253:287|275:299|298:300|320:292|336:282|339:257|341:237,1,140
293,351,72381,1,4
181,351,72656,5,2
68,352,72932,1,2
126,256,73207,1,2
126,144,73482,1,2
71,46,73757,1,2
183,46,74033,1,4
252,46,74310,5,0
252,46,74516,1,0
322,48,74723,2,0,B|364:88|342:101|315:110|291:136|352:170,1,140
271,166,75344,1,0
309,224,75551,1,4
379,224,75758,5,2
379,224,75965,1,2
449,223,76172,2,0,B|449:295,3,70
450,363,76999,2,0,B|379:363,1,70
309,362,77413,1,2
309,362,77620,1,2
238,362,77827,2,0,B|179:303,1,70
118,314,78241,1,2
154,254,78447,1,2
116,194,78654,1,0
116,194,78861,1,0
117,123,79068,2,2,B|43:123,1,70
49,52,79482,5,0
119,52,79689,1,0
189,52,79896,1,0
259,52,80103,1,0
329,53,80310,1,0
398,54,80516,1,0
468,54,80723,1,2
468,54,80930,1,2
470,123,81137,5,0
399,123,81344,1,0
328,123,81551,1,0
257,124,81758,1,0
186,124,81965,1,0
116,120,82172,2,2,L|43:120|43:201,1,140
44,257,82792,5,0
114,257,82999,1,2
151,198,83206,1,2
187,257,83413,1,2
225,315,83620,1,0
295,314,83827,2,0,L|257:253,1,70
256,184,84241,1,4
256,192,85068,12,2,87551
512,384,88378,1,4
