osu file format v5

[General]
AudioFilename: Danny Elfman - Mike Teavee.mp3
AudioLeadIn: 0
PreviewTime: 39684
Countdown: 1
SampleSet: Normal
StackLeniency: 0.7
Mode: 0
EditorBookmarks: 10204,32549,39584,60273,64411,87565

[Metadata]
Title:Mike Teavee
Artist:Danny Elfman
Creator:Sinistro
Version:Annoyed
Source:
Tags:wonka chocolate factory

[Difficulty]
HPDrainRate:4
CircleSize:4
OverallDifficulty:3
SliderMultiplier:1.4
SliderTickRate:1

[Events]
//Background and Video events
0,0,"Mike Teavee.jpg"
//Break Periods
2,32749,38557
2,60473,62971
//Storyboard Layer 0 (Background)
//Storyboard Layer 1 (Failing)
//Storyboard Layer 2 (Passing)
//Storyboard Layer 3 (Foreground)
//Storyboard Sound Samples
//Background Colour Transformations
3,100,163,162,255

[TimingPoints]
3565,413.793103448276,4,1,0,51
64400,550.45871559633,3,2,0,51
74310,413.793103448276,4,1,0,51

[Colours]
Combo1 : 128,128,128
Combo2 : 255,0,0
Combo3 : 0,0,0
Combo4 : 255,255,0

[HitObjects]
48,80,10185,1,0
160,80,10599,1,0
272,80,11013,1,2
384,256,11840,5,0
272,256,12254,1,0
160,256,12668,1,2
48,64,13496,5,0
160,64,13909,1,0
272,64,14323,2,2,B|416:64,1,140
416,176,15151,5,0
304,176,15564,1,0
192,176,15978,2,2,B|48:176,1,140
48,288,16806,5,0
160,288,17220,1,0
272,288,17633,1,4
480,352,18461,6,0,B|480:64,1,280
272,48,20116,6,0,B|128:48,1,140
32,48,20944,1,2
32,160,21358,1,2
144,160,21771,6,0,B|288:160,2,140
144,272,23013,1,4
464,272,24254,5,2
464,160,24668,1,4
144,160,25909,5,2
144,272,26323,1,4
384,48,27564,6,0,B|384:192,1,140
272,192,28392,2,0,B|272:336,1,140
384,336,29220,1,0
496,336,29633,1,4
440,245,30047,5,0
439,20,30875,1,0
215,17,31702,1,2
102,17,32116,1,2
158,113,32530,1,2
48,320,39978,5,0
272,320,40806,1,2
272,320,41220,1,4
384,320,41633,5,0
176,240,42461,1,2
176,240,42875,1,4
176,128,43289,5,0
400,128,44116,1,2
400,128,44530,1,4
304,64,44944,5,0
80,64,45771,1,2
80,64,46185,1,4
192,64,46599,5,4
416,64,47427,5,4
464,288,48254,6,0,B|32:288,1,420
48,176,49909,2,0,B|480:176,1,420
256,80,51978,5,4
256,304,52806,1,4
464,32,54047,5,0
464,32,54461,1,4
464,368,55702,5,0
464,368,56116,1,4
256,96,57358,5,0
192,192,57771,2,0,B|224:249|229:317|188:344|149:370|97:381|37:368|6:325|-10:280|0:224|16:192|48:160|97:146|151:165,1,560
352,80,60254,5,0
16,32,64400,5,2
368,32,66051,5,2
368,368,67702,5,2
32,368,69354,5,4
144,112,70730,5,0
144,112,71005,1,2
256,112,71555,5,0
256,112,71831,1,4
64,48,72656,6,2,B|496:48,1,420
480,272,75137,1,0
480,272,75551,1,4
256,272,76378,6,0,B|112:272,1,140
117,159,77206,5,0
117,159,77620,1,2
224,160,78034,6,0,B|368:160,1,140
364,272,78861,5,0
365,271,79275,1,4
368,48,80103,5,0
256,48,80516,1,2
144,48,80930,1,2
144,272,81758,5,0
256,272,82172,1,0
368,272,82585,1,2
464,64,83413,5,0
464,176,83827,1,0
464,288,84241,1,4
256,192,85068,12,4,87551
