osu file format v5

[General]
AudioFilename: Danny Elfman - Mike Teavee.mp3
AudioLeadIn: 0
PreviewTime: 39684
Countdown: 1
SampleSet: Normal
StackLeniency: 0.7
Mode: 0
EditorBookmarks: 10204,32549,36687,60687,64411,87565

[Metadata]
Title:Mike Teavee
Artist:Danny Elfman
Creator:Sinistro
Version:Angry
Source:
Tags:wonka chocolate factory

[Difficulty]
HPDrainRate:5
CircleSize:5
OverallDifficulty:5
SliderMultiplier:1.4
SliderTickRate:1

[Events]
//Background and Video events
0,0,"Mike Teavee.jpg"
//Break Periods
2,33163,35487
2,60887,63211
//Storyboard Layer 0 (Background)
//Storyboard Layer 1 (Failing)
//Storyboard Layer 2 (Passing)
//Storyboard Layer 3 (Foreground)
//Storyboard Sound Samples
//Background Colour Transformations
3,100,163,162,255

[TimingPoints]
3565,413.793103448276,4,1,0,51
64400,550.45871559633,3,2,0,51
74310,413.793103448276,4,1,0,51

[Colours]
Combo1 : 128,128,128
Combo2 : 255,0,0
Combo3 : 0,0,0
Combo4 : 255,255,0

[HitObjects]
408,64,10185,1,0
408,176,10599,1,0
408,288,11013,1,0
352,288,11220,1,2
352,288,11427,1,2
240,288,11840,5,0
128,288,12254,1,0
16,288,12668,1,0
16,232,12875,1,2
16,232,13082,1,2
16,120,13496,5,0
16,120,13702,1,0
184,120,14323,1,2
184,120,14530,1,2
352,120,15151,2,0,B|352:192,2,70
352,248,15978,1,2
352,304,16185,1,2
192,352,16806,5,0
136,352,17013,2,0,B|56:352,1,70
136,264,17633,1,4
136,40,18461,5,0
192,40,18668,2,0,B|192:112,1,70
192,224,19289,1,4
408,280,20116,6,0,B|336:280,1,70
280,280,20530,1,0
280,280,20737,1,0
280,224,20944,2,0,B|360:224,1,70
408,224,21358,1,2
408,112,21771,6,0,B|328:112,1,70
280,112,22185,1,0
280,112,22392,1,0
280,56,22599,2,0,B|360:56,1,70
408,56,23013,1,2
408,168,23427,5,0
408,168,23633,1,0
408,168,23840,1,0
408,280,24254,1,2
312,224,24668,1,2
200,224,25082,5,0
200,224,25289,1,0
200,224,25496,1,0
104,280,25909,1,2
104,168,26323,1,2
200,112,26737,6,0,B|280:112,3,70
272,168,27564,1,2
328,168,27771,1,2
384,168,27978,1,2
328,264,28392,2,0,B|328:344,3,70
272,336,29220,1,2
216,336,29427,1,2
160,336,29633,1,2
160,224,30047,5,0
80,144,30461,1,0
160,64,30875,1,0
240,144,31289,1,4
320,64,31702,5,0
400,144,32116,1,0
320,224,32530,1,0
240,144,32944,1,4
320,64,36668,6,0,B|320:152,1,70
376,136,37082,1,0
376,136,37289,1,0
376,136,37496,1,4
376,232,38323,6,0,B|376:312,1,70
320,304,38737,1,0
320,304,38944,1,0
320,304,39151,1,4
112,216,39978,6,0,B|112:72,1,140
224,72,40806,2,0,B|224:224,1,140
280,208,41427,5,0
336,208,41633,2,0,B|336:48,1,140
448,72,42461,2,0,B|448:240,1,140
392,208,43082,5,2
392,152,43289,2,0,B|392:8,1,140
336,16,43909,1,2
280,16,44116,2,0,B|280:176,1,140
224,160,44737,5,2
224,160,44944,1,2
224,104,45151,2,0,B|144:104,1,70
96,104,45565,1,2
96,104,45771,1,2
96,160,45978,2,0,B|168:160,1,70
168,216,46392,6,4,B|168:288,1,70
336,288,47220,2,4,B|336:208,1,70
336,48,48047,5,0
280,48,48254,2,0,B|176:152,1,140
184,256,49082,1,2
184,256,49289,1,2
184,256,49496,1,4
184,312,49702,5,0
240,312,49909,2,0,B|360:184,1,140
336,96,50737,1,2
336,96,50944,1,2
336,96,51151,1,4
432,32,51565,6,4,B|432:176,1,140
320,176,52392,2,4,B|320:320,1,140
208,312,53220,5,0
208,312,53427,1,0
208,312,53633,1,0
96,312,54047,2,2,B|8:312,2,70
152,216,54875,5,0
152,216,55082,1,0
152,216,55289,1,0
120,104,55702,2,2,B|200:104,2,70
192,16,56530,5,0
248,16,56737,1,0
304,16,56944,1,0
256,192,57771,12,0,60668
0,48,64400,5,0
0,104,64675,1,0
0,160,64950,1,0
0,216,65225,1,2
168,216,66051,5,0
168,160,66326,1,0
168,104,66601,1,0
168,48,66877,1,4
336,48,67702,5,0
336,104,67977,1,0
336,160,68253,1,0
336,216,68528,1,2
504,216,69354,5,0
504,160,69629,1,0
504,104,69904,1,0
504,48,70179,1,4
424,128,70730,5,0
368,128,71005,2,2,B|296:128,1,70
240,128,71555,1,0
184,128,71831,2,2,B|96:128,1,70
40,48,72656,5,2
0,88,72932,1,0
40,128,73207,1,0
0,168,73482,1,2
40,208,73757,1,0
0,248,74033,1,0
40,312,74310,6,0,B|136:312,2,70
168,312,75137,1,0
280,312,75551,1,4
280,256,75758,5,0
280,256,75965,1,2
448,256,76585,5,0
448,256,76792,1,2
504,96,77413,5,0
504,96,77620,1,2
360,8,78241,5,0
360,8,78447,1,2
216,88,79068,5,0
216,88,79275,1,2
216,200,79689,5,0
104,200,80103,1,0
160,296,80516,2,2,B|304:296,1,140
408,296,81344,5,0
352,192,81758,1,0
464,192,82172,2,2,B|464:48,1,140
352,48,82999,5,0
296,48,83206,1,0
240,48,83413,2,0,B|168:48,1,70
112,48,83827,1,0
56,48,84034,1,0
0,48,84241,1,4
256,192,85068,12,2,87551
