osu file format v13

[General]
AudioFilename: Betus Blues.mp3
AudioLeadIn: 1000
PreviewTime: 14789
Countdown: 1
SampleSet: None
StackLeniency: 0.7
Mode: 0
LetterboxInBreaks: 1
WidescreenStoryboard: 1

[Editor]
Bookmarks: 7404,14789,29558,44327,59096,73866,88635
DistanceSpacing: 1.5
BeatDivisor: 4
GridSize: 8
TimelineZoom: 2.5

[Metadata]
Title:Betus Blues
TitleUnicode:Betus Blues
Artist:Danny Baronowsky
ArtistUnicode:Danny Baronowsky
Creator:Chupalika
Version:Needle Boy
Source:Super Meat Boy
Tags:team meat chapter 2 light world hospital dr. fetus
BeatmapID:553311
BeatmapSetID:223691

[Difficulty]
HPDrainRate:5.6
CircleSize:4
OverallDifficulty:6.4
ApproachRate:8.4
SliderMultiplier:3.59999990463257
SliderTickRate:2

[Events]
//Background and Video events
0,0,"The Hospital.jpg",0,0
//Break Periods
//Storyboard Layer 0 (Background)
//Storyboard Layer 1 (Fail)
//Storyboard Layer 2 (Pass)
//Storyboard Layer 3 (Foreground)
//Storyboard Sound Samples
//Background Colour Transformations
3,100,163,162,255

[TimingPoints]
20,461.538461538462,4,1,1,40,1,0
18481,-133.333333333333,4,1,1,40,0,0
20327,-100,4,1,1,40,0,0
24020,-133.333333333333,4,1,1,40,0,0
25404,-200,4,1,1,40,0,0
25866,-100,4,1,1,40,0,0
29096,-500,4,1,1,40,0,0
29500,-500,4,1,1,5,0,0
29558,-133.333333333333,4,1,1,50,0,0
44327,-200,4,1,1,50,0,0
44558,-200,4,1,1,30,0,0
50789,-200,4,1,1,20,0,0
51481,-200,4,1,1,25,0,0
51712,-200,4,1,1,30,0,0
58173,-200,4,1,1,20,0,0
58866,-200,4,1,1,40,0,0
59096,-100,4,1,1,50,0,0
70173,-133.333333333333,4,1,1,50,0,0
72020,-200,4,1,1,50,0,0
72481,-133.333333333333,4,1,1,50,0,0
72943,-100,4,1,1,50,0,0
73866,-133.333333333333,4,1,1,50,0,1
84943,-133.333333333333,4,1,1,55,0,1
86789,-133.333333333333,4,1,1,60,0,1
88404,-133.333333333333,4,1,1,65,0,1
88635,-100,4,1,1,70,0,0

[Colours]
Combo1 : 255,128,192
Combo2 : 128,128,255
Combo3 : 192,64,64
Combo4 : 192,192,192

[HitObjects]
96,192,7404,5,0,0:0:0:0:
416,192,7866,1,8,0:2:0:0:
96,192,8096,1,0,0:0:0:0:
96,192,8327,2,0,P|96:352|224:288,1,359.999990463257,0|8,0:0|0:2,0:0:0:0:
256,96,9250,6,0,P|368:48|384:168,1,269.999992847443
368,192,9712,1,8,0:2:0:0:
80,224,10173,1,0,0:0:0:0:
336,288,10404,1,0,0:0:0:0:
112,352,10635,2,0,P|192:312|216:224,1,179.999995231629,8|0,0:2|0:0,0:0:0:0:
160,48,11096,5,0,0:0:0:0:
352,336,11558,1,8,0:2:0:0:
80,288,11789,1,0,0:0:0:0:
80,288,12020,2,0,P|224:288|304:104,1,359.999990463257,0|8,0:0|0:2,0:0:0:0:
168,192,12943,6,0,P|256:288|392:288,1,269.999992847443
424,272,13404,1,8,0:2:0:0:
64,192,13866,1,0,0:0:0:0:
192,64,14096,1,0,0:0:0:0:
64,192,14327,2,0,P|64:256|152:336,1,179.999995231629,8|0,0:2|0:0,0:0:0:0:
288,224,14789,5,4,0:2:0:0:
288,224,15250,2,0,P|288:160|376:80,1,179.999995231629,10|0,0:2|0:0,0:0:0:0:
256,320,15712,1,2,0:2:0:0:
384,192,15943,1,0,0:0:0:0:
336,368,16173,1,8,0:2:0:0:
208,240,16404,1,2,0:2:0:0:
208,240,16635,6,0,P|288:288|376:288,1,179.999995231629,2|0,0:2|0:0,0:0:0:0:
224,384,17096,1,8,0:2:0:0:
304,224,17327,1,2,0:2:0:0:
64,336,17558,2,0,P|160:304|208:240,1,179.999995231629,2|0,0:2|0:0,0:0:0:0:
288,384,18020,1,8,0:2:0:0:
80,208,18250,1,0,0:0:0:0:
256,304,18481,5,2,0:2:0:0:
304,304,18596,1,0,0:0:0:0:
344,288,18712,1,0,0:0:0:0:
376,256,18827,1,0,0:0:0:0:
392,216,18943,2,0,P|400:192|400:144,1,67.5000007867814,10|0,0:2|0:0,0:0:0:0:
488,48,19173,2,0,P|488:80|496:120,1,67.5000007867814,2|0,0:2|0:0,0:0:0:0:
304,192,19404,1,2,0:2:0:0:
256,192,19520,1,0,0:0:0:0:
216,176,19635,1,0,0:0:0:0:
184,144,19750,1,0,0:0:0:0:
168,104,19866,2,0,P|160:80|160:32,1,67.5000007867814,10|0,0:2|0:0,0:0:0:0:
72,144,20096,2,0,P|72:184|88:216,1,67.5000007867814,2|0,0:2|0:0,0:0:0:0:
32,64,20327,5,2,0:2:0:0:
160,304,20558,1,0,0:0:0:0:
160,304,21020,1,0,0:0:0:0:
416,224,21250,2,0,P|368:288|256:304,1,179.999995231629,0|2,0:0|0:2,0:0:0:0:
352,144,21712,2,0,P|400:80|512:64,1,179.999995231629,8|0,0:2|0:0,0:0:0:0:
288,224,22173,5,0,0:0:0:0:
288,224,22635,2,0,L|120:288,1,179.999995231629,10|0,0:2|0:0,0:0:0:0:
176,160,23096,2,0,B|288:120|288:120|384:120|432:288|320:304,1,359.999990463257,2|8,0:2|0:2,0:0:0:0:
176,352,23789,1,0,0:0:0:0:
32,192,24020,6,0,P|40:224|64:256,1,67.5000007867814,2|0,0:2|0:0,0:0:0:0:
224,280,24250,2,0,P|216:248|192:216,1,67.5000007867814,2|0,0:2|0:0,0:0:0:0:
304,352,24481,1,10,0:2:0:0:
352,344,24596,1,0,0:0:0:0:
392,320,24712,1,0,0:0:0:0:
416,280,24827,1,0,0:0:0:0:
424,232,24943,2,0,P|424:168|408:96,1,135.000001573563,2|0,0:2|0:0,0:0:0:0:
288,160,25404,2,0,P|304:200|304:248,1,89.9999976158143,8|0,0:2|0:0,0:0:0:0:
224,352,25866,5,2,0:2:0:0:
128,208,26096,1,0,0:0:0:0:
224,96,26327,1,8,0:2:0:0:
256,296,26558,1,0,0:0:0:0:
416,160,26789,1,2,0:2:0:0:
224,240,27020,1,0,0:0:0:0:
464,352,27250,1,8,0:2:0:0:
400,320,27481,1,0,0:0:0:0:
464,288,27712,5,0,0:0:0:0:
464,288,27943,1,0,0:0:0:0:
464,288,28404,1,0,0:0:0:0:
464,288,28866,1,0,0:0:0:0:
464,288,29096,2,0,L|464:224,1,62.99999833107,10|0,0:2|0:0,0:0:0:0:
464,192,29558,6,0,L|464:56,1,135.000001573563,4|2,0:2|0:2,0:0:0:0:
368,224,30020,2,0,L|400:88,1,135.000001573563,8|2,0:2|0:2,0:0:0:0:
272,256,30481,2,0,L|336:120,1,135.000001573563,0|2,0:0|0:2,0:0:0:0:
176,288,30943,2,0,L|272:152,1,135.000001573563,8|2,0:2|0:2,0:0:0:0:
80,320,31404,5,0,0:0:0:0:
96,192,31635,1,2,0:2:0:0:
96,192,31750,2,0,P|128:128|192:104,1,135.000001573563
224,104,32096,1,2,0:2:0:0:
488,192,32327,2,0,L|472:120,1,67.5000007867814
384,192,32558,2,0,L|400:264,1,67.5000007867814,2|0,0:2|0:0,0:0:0:0:
288,192,32789,1,8,0:2:0:0:
288,192,32904,2,0,P|256:128|200:96,1,135.000001573563
176,96,33250,5,0,0:0:0:0:
80,272,33481,1,2,0:2:0:0:
80,272,33596,2,0,P|152:256|192:208,1,135.000001573563
192,176,33943,1,2,0:2:0:0:
256,352,34173,1,0,0:0:0:0:
480,192,34404,1,2,0:2:0:0:
480,192,34520,2,0,P|408:208|368:256,1,135.000001573563
368,288,34866,1,2,0:2:0:0:
224,192,35096,6,0,L|128:56,1,135.000001573563,0|2,0:0|0:2,0:0:0:0:
288,192,35558,2,0,L|384:56,1,135.000001573563,8|2,0:2|0:2,0:0:0:0:
256,320,36020,1,0,0:0:0:0:
160,224,36250,2,0,L|112:152,1,67.5000007867814,2|0,0:2|0:0,0:0:0:0:
240,176,36481,2,0,L|216:104,1,67.5000007867814,8|0,0:2|0:0,0:0:0:0:
336,160,36712,2,0,L|336:88,1,67.5000007867814,2|0,0:2|0:0,0:0:0:0:
432,192,36943,5,0,0:0:0:0:
320,352,37173,2,0,L|456:352,1,135.000001573563,2|8,0:2|0:2,0:0:0:0:
256,288,37635,2,0,L|120:288,1,135.000001573563,2|0,0:2|0:0,0:0:0:0:
320,224,38096,2,0,L|456:224,1,135.000001573563,2|8,0:2|0:2,0:0:0:0:
256,160,38558,1,2,0:2:0:0:
128,320,38789,6,0,P|80:256|80:200,1,135.000001573563,0|2,0:0|0:2,0:0:0:0:
192,32,39250,2,0,P|192:96|232:152,1,135.000001573563,8|2,0:2|0:2,0:0:0:0:
432,336,39712,1,0,0:0:0:0:
432,336,39827,2,0,P|432:272|392:336,1,135.000001573563
360,304,40173,2,0,P|304:304|304:232,1,135.000001573563,8|2,0:2|0:2,0:0:0:0:
192,304,40635,6,0,B|160:336|160:336|64:336,1,135.000001573563,0|2,0:0|0:2,0:0:0:0:
112,208,41096,1,8,0:2:0:0:
256,352,41327,2,0,B|288:320|288:320|288:224,1,135.000001573563,2|0,0:2|0:0,0:0:0:0:
288,32,41789,1,2,0:2:0:0:
224,176,42020,2,0,B|288:144|288:144|344:176,1,135.000001573563,8|2,0:2|0:2,0:0:0:0:
352,312,42481,6,0,L|456:224,1,135.000001573563,0|2,0:0|0:2,0:0:0:0:
208,328,42943,1,8,0:2:0:0:
304,248,43173,1,2,0:2:0:0:
31,223,43404,2,0,P|46:254|72:280,3,67.5000007867814,2|0|0|0,0:2|0:0|0:0|0:0,0:0:0:0:
104,304,43866,1,10,0:2:0:0:
136,328,43981,1,0,0:0:0:0:
176,344,44096,1,2,0:2:0:0:
216,352,44212,1,2,0:2:0:0:
256,352,44327,6,0,L|352:352,1,89.9999976158143
480,224,44789,2,0,L|384:224,1,89.9999976158143
368,224,45135,1,0,0:0:0:0:
128,112,45481,2,0,P|96:152|96:192,1,89.9999976158143,0|0,0:0|0:0,0:0:0:0:
128,272,45943,1,0,0:0:0:0:
256,320,46173,6,0,P|296:296|296:256,3,89.9999976158143,0|0|0|0,0:0|0:0|0:0|0:0,0:0:0:0:
320,80,47096,2,0,P|320:120|360:144,3,89.9999976158143,0|0|0|0,0:0|0:0|0:0|0:0,0:0:0:0:
240,208,48020,6,0,L|144:240,1,89.9999976158143
88,176,48481,2,0,L|184:144,1,89.9999976158143
192,104,48827,2,0,L|56:152,1,134.999996423721
32,280,49404,2,0,L|128:248,1,89.9999976158143
256,328,49866,5,0,0:0:0:0:
256,328,50096,1,0,0:0:0:0:
328,280,50327,1,0,0:0:0:0:
328,280,50558,1,0,0:0:0:0:
376,208,50789,2,0,L|408:208,2,29.9999992052714,0|0|0,0:0|0:0|0:0,0:0:0:0:
288,176,51020,2,0,L|256:192,2,29.9999992052714,0|0|0,0:0|0:0|0:0,0:0:0:0:
352,72,51250,2,0,L|384:56,2,29.9999992052714,0|0|0,0:0|0:0|0:0,0:0:0:0:
256,32,51481,2,0,L|216:64,2,29.9999992052714,0|0|0,0:0|0:0|0:0,0:0:0:0:
192,144,51712,6,0,P|152:128|136:80,1,89.9999976158143
136,240,52173,2,0,P|176:256|192:297,1,89.9999976158143
224,280,52520,2,0,P|200:224|128:208,1,134.999996423721
240,352,53096,1,0,0:0:0:0:
352,288,53327,1,0,0:0:0:0:
240,224,53558,6,0,L|152:176,1,89.9999976158143,0|0,0:0|0:0,0:0:0:0:
272,104,54020,2,0,L|360:152,1,89.9999976158143
224,240,54481,2,0,L|136:192,1,89.9999976158143,0|0,0:0|0:0,0:0:0:0:
288,88,54943,2,0,L|376:136,1,89.9999976158143,0|0,0:0|0:0,0:0:0:0:
288,320,55404,6,0,P|336:304|352:264,1,89.9999976158143
256,288,55866,2,0,P|304:272|320:232,1,89.9999976158143
320,208,56212,1,0,0:0:0:0:
48,240,56558,2,0,L|48:144,2,89.9999976158143,0|0|0,0:0|0:0|0:0,0:0:0:0:
96,320,57250,5,0,0:0:0:0:
96,320,57481,1,0,0:0:0:0:
176,352,57712,1,0,0:0:0:0:
176,352,57943,1,0,0:0:0:0:
256,320,58173,2,0,L|280:352,2,29.9999992052714,0|0|0,0:0|0:0|0:0,0:0:0:0:
360,288,58404,2,0,L|320:288,2,29.9999992052714,0|0|0,0:0|0:0|0:0,0:0:0:0:
272,224,58635,2,0,L|304:208,2,29.9999992052714,0|0|0,0:0|0:0|0:0,0:0:0:0:
360,144,58866,1,8,0:2:0:0:
360,144,58981,1,8,0:2:0:0:
360,144,59096,6,0,P|280:96|192:96,1,179.999995231629
352,320,59558,1,8,0:2:0:0:
96,224,59789,1,0,0:0:0:0:
96,224,60020,2,0,P|96:40|256:40,1,359.999990463257,0|8,0:0|0:2,0:0:0:0:
208,296,60712,1,0,0:0:0:0:
288,136,60943,6,0,P|320:224|392:272,1,179.999995231629
464,224,61289,1,0,0:0:0:0:
464,224,61404,2,0,P|391:172|363:88,1,179.999995231629,8|0,0:2|0:0,0:0:0:0:
192,304,61866,1,0,0:0:0:0:
256,40,62096,1,0,0:0:0:0:
192,304,62327,2,0,P|224:224|312:192,1,179.999995231629,8|0,0:2|0:0,0:0:0:0:
112,304,62789,6,0,P|192:144|360:128,1,359.999990463257,0|8,0:0|0:2,0:0:0:0:
112,304,63481,1,0,0:0:0:0:
400,304,63712,2,0,P|320:144|152:128,1,359.999990463257,0|8,0:0|0:2,0:0:0:0:
256,272,64404,1,0,0:0:0:0:
256,48,64635,6,0,P|304:128|384:168,1,179.999995231629
424,240,64981,1,0,0:0:0:0:
424,240,65096,2,0,P|344:288|304:368,1,179.999995231629,8|0,0:2|0:0,0:0:0:0:
408,112,65558,1,0,0:0:0:0:
224,312,65789,1,0,0:0:0:0:
168,48,66020,2,0,P|192:128|272:176,1,179.999995231629,8|0,0:2|0:0,0:0:0:0:
32,304,66481,6,0,P|176:232|256:376,1,359.999990463257,0|8,0:0|0:2,0:0:0:0:
96,160,67173,1,0,0:0:0:0:
480,344,67404,2,0,P|384:344|312:296,1,179.999995231629
208,144,67866,1,8,0:2:0:0:
256,320,68096,1,0,0:0:0:0:
376,192,68327,6,0,P|424:120|392:24,1,179.999995231629
344,104,68673,1,0,0:0:0:0:
344,104,68789,2,0,P|280:168|200:136,1,179.999995231629,8|0,0:2|0:0,0:0:0:0:
128,304,69250,1,0,0:0:0:0:
264,72,69481,1,0,0:0:0:0:
400,304,69712,2,0,B|344:232|344:232|312:272|264:256,1,179.999995231629,8|0,0:2|0:0,0:0:0:0:
128,304,70173,6,0,P|32:224|32:88,1,270.000003147125,0|8,0:0|0:2,0:0:0:0:
304,128,70866,1,0,0:0:0:0:
304,128,71096,2,0,P|240:224|112:176,1,270.000003147125,0|8,0:0|0:2,0:0:0:0:
224,352,71789,1,0,0:0:0:0:
224,352,72020,6,0,L|312:384,1,89.9999976158143,2|0,0:2|0:0,0:0:0:0:
480,240,72481,2,0,L|353:287,1,135.000001573563,10|0,0:2|0:0,0:0:0:0:
128,96,72943,1,2,0:2:0:0:
448,352,73173,1,0,0:0:0:0:
376,112,73404,1,10,0:2:0:0:
376,112,73520,1,8,0:2:0:0:
376,112,73635,1,8,0:2:0:0:
376,112,73750,1,8,0:2:0:0:
376,112,73866,6,0,L|408:40,3,67.5000007867814,6|0|0|0,0:2|0:0|0:0|0:0,0:0:0:0:
352,152,74327,1,10,0:2:0:0:
320,188,74443,1,0,0:0:0:0:
276,204,74558,1,2,0:2:0:0:
228,208,74673,1,0,0:0:0:0:
180,208,74789,1,2,0:2:0:0:
136,196,74904,1,0,0:0:0:0:
100,164,75020,1,0,0:0:0:0:
100,116,75135,1,0,0:0:0:0:
132,84,75250,2,0,P|164:64|196:64,3,67.5000007867814,10|0|0|0,0:2|0:0|0:0|0:0,0:0:0:0:
180,132,75712,5,2,0:2:0:0:
196,176,75827,1,0,0:0:0:0:
228,212,75943,1,0,0:0:0:0:
272,232,76058,1,2,0:2:0:0:
316,244,76173,2,0,P|352:252|384:252,1,67.5000007867814,10|0,0:2|0:0,0:0:0:0:
480,348,76404,2,0,P|444:340|412:340,1,67.5000007867814
280,352,76635,1,2,0:2:0:0:
232,344,76750,1,0,0:0:0:0:
188,324,76866,2,0,P|160:308|136:280,1,67.5000007867814,2|0,0:2|0:0,0:0:0:0:
80,160,77096,2,0,P|80:192|67:227,1,67.5000007867814,10|0,0:2|0:0,0:0:0:0:
204,236,77327,2,0,P|203:203|216:168,1,67.5000007867814
240,132,77558,5,2,0:2:0:0:
272,100,77673,1,0,0:0:0:0:
316,84,77789,2,0,P|352:72|384:76,1,67.5000007867814
340,204,78020,1,10,0:2:0:0:
344,249,78135,1,0,0:0:0:0:
384,271,78250,1,2,0:2:0:0:
425,252,78366,1,0,0:0:0:0:
433,208,78481,1,2,0:2:0:0:
402,175,78596,1,0,0:0:0:0:
356,180,78712,1,0,0:0:0:0:
320,212,78827,1,0,0:0:0:0:
288,248,78943,2,0,P|256:276|228:276,3,67.5000007867814,10|0|0|0,0:2|0:0|0:0|0:0,0:0:0:0:
184,276,79404,5,2,0:2:0:0:
140,260,79520,1,0,0:0:0:0:
104,228,79635,2,0,P|84:208|76:168,1,67.5000007867814,0|2,0:0|0:2,0:0:0:0:
156,60,79866,2,0,P|176:80|184:120,1,67.5000007867814,10|0,0:2|0:0,0:0:0:0:
256,232,80096,2,0,P|261:199|284:174,1,67.5000007867814
396,96,80327,1,2,0:2:0:0:
428,129,80442,1,0,0:0:0:0:
449,172,80557,1,2,0:2:0:0:
454,218,80673,1,0,0:0:0:0:
444,264,80788,1,10,0:2:0:0:
420,304,80903,1,0,0:0:0:0:
384,335,81019,1,0,0:0:0:0:
340,352,81134,1,0,0:0:0:0:
292,352,81250,5,2,0:2:0:0:
244,348,81366,1,0,0:0:0:0:
204,324,81481,2,0,P|176:300|164:272,1,67.5000007867814
184,72,81712,2,0,P|212:96|224:124,1,67.5000007867814,10|0,0:2|0:0,0:0:0:0:
272,252,81943,1,2,0:2:0:0:
304,216,82058,1,0,0:0:0:0:
320,172,82173,2,0,P|328:140|328:104,1,67.5000007867814,2|0,0:2|0:0,0:0:0:0:
181,144,82404,2,0,P|209:161|224:192,1,67.5000007867814
240,300,82635,2,0,P|204:297|176:314,1,67.5000007867814,10|0,0:2|0:0,0:0:0:0:
320,320,82866,2,0,P|321:287|340:260,1,67.5000007867814
416,192,83096,5,2,0:2:0:0:
448,160,83212,1,0,0:0:0:0:
464,116,83327,2,0,P|476:84|476:48,1,67.5000007867814,0|2,0:0|0:2,0:0:0:0:
348,96,83558,2,0,P|336:128|336:164,1,67.5000007867814,10|0,0:2|0:0,0:0:0:0:
368,360,83789,1,0,0:0:0:0:
320,352,83904,1,0,0:0:0:0:
276,336,84020,2,0,P|248:328|220:304,1,67.5000007867814,2|0,0:2|0:0,0:0:0:0:
164,344,84250,2,0,P|149:318|147:281,1,67.5000007867814,2|0,0:2|0:0,0:0:0:0:
80,276,84481,2,0,P|87:247|112:220,1,67.5000007867814,10|0,0:2|0:0,0:0:0:0:
68,168,84712,2,0,P|93:153|130:151,1,67.5000007867814
136,84,84943,6,0,P|164:91|192:116,1,67.5000007867814,2|0,0:2|0:0,0:0:0:0:
304,192,85173,2,0,P|324:171|359:159,1,67.5000007867814,2|0,0:2|0:0,0:0:0:0:
200,224,85404,2,0,P|192:256|199:289,1,67.5000007867814,10|0,0:2|0:0,0:0:0:0:
356,352,85635,2,0,P|363:319|355:286,1,67.5000007867814,2|0,0:2|0:0,0:0:0:0:
164,352,85866,2,0,P|196:359|229:351,1,67.5000007867814,2|0,0:2|0:0,0:0:0:0:
112,232,86096,2,0,P|80:242|55:264,1,67.5000007867814,2|0,0:2|0:0,0:0:0:0:
288,312,86327,2,0,P|277:280|255:255,1,67.5000007867814,10|0,0:2|0:0,0:0:0:0:
152,120,86558,2,0,P|183:109|208:87,1,67.5000007867814,2|0,0:2|0:0,0:0:0:0:
360,160,86789,6,0,L|392:220,1,67.5000007867814,10|0,0:2|0:0,0:0:0:0:
152,224,87020,2,0,L|120:164,1,67.5000007867814,2|0,0:2|0:0,0:0:0:0:
392,220,87250,2,0,L|360:280,1,67.5000007867814,10|0,0:2|0:0,0:0:0:0:
120,164,87481,2,0,L|152:104,1,67.5000007867814,2|0,0:2|0:0,0:0:0:0:
280,328,87712,1,10,0:2:0:0:
280,328,87827,1,8,0:2:0:0:
280,328,87943,2,0,P|256:336|208:336,1,67.5000007867814,2|0,0:2|0:0,0:0:0:0:
232,56,88173,2,0,P|256:48|304:48,1,67.5000007867814,10|8,0:2|0:2,0:0:0:0:
400,48,88404,1,10,0:2:0:0:
400,48,88462,1,8,0:2:0:0:
400,48,88520,1,8,0:2:0:0:
400,48,88577,1,8,0:2:0:0:
400,48,88635,1,14,0:2:0:0:
