osu file format v13

[General]
AudioFilename: necrodancer_zone_1-1.mp3
AudioLeadIn: 0
PreviewTime: -1
Countdown: 1
SampleSet: None
StackLeniency: 0.7
Mode: 0
LetterboxInBreaks: 1
WidescreenStoryboard: 1

[Editor]
DistanceSpacing: 1
BeatDivisor: 2
GridSize: 4
TimelineZoom: 1

[Metadata]
Title:Necrodancer Zone 1-1
TitleUnicode:Necrodancer Zone 1-1
Artist:Danny Baranowsky
ArtistUnicode:Danny Baranowsky
Creator:Frogel
Version:Normal
Source:Crypt of the Necrodancer
Tags:Crypt of the Necrodancer Danny Baranowsky Zone
BeatmapID:493301
BeatmapSetID:209598

[Difficulty]
HPDrainRate:2
CircleSize:3
OverallDifficulty:2
ApproachRate:2
SliderMultiplier:1.3
SliderTickRate:1

[Events]
//Background and Video events
0,0,"Necrodancer.jpg",0,0
//Break Periods
2,108546,115812
2,141731,148998
//Storyboard Layer 0 (Background)
//Storyboard Layer 1 (Fail)
//Storyboard Layer 2 (Pass)
//Storyboard Layer 3 (Foreground)
//Storyboard Sound Samples
//Background Colour Transformations
3,100,163,162,255

[TimingPoints]
27.6829406840471,530.973451327434,4,1,0,100,1,0

[HitObjects]
72,200,27,6,0,P|136:76|232:72,3,130,0|0|0|0,0:0|0:0|0:0|0:0,0:0:0:0:
432,220,2151,2,0,L|432:80,3,130,0|0|0|0,0:0|0:0|0:0|0:0,0:0:0:0:
456,296,4275,2,0,L|312:296,3,130,0|0|0|0,0:0|0:0|0:0|0:0,0:0:0:0:
216,200,6399,2,0,L|112:304,2,130,0|0|0,0:0|0:0|0:0,0:0:0:0:
116,100,8523,5,0,0:0:0:0:
280,132,9054,1,0,0:0:0:0:
408,124,9585,1,0,0:0:0:0:
376,228,10116,1,0,0:0:0:0:
192,268,10647,5,0,0:0:0:0:
124,168,11178,1,0,0:0:0:0:
220,108,11709,1,0,0:0:0:0:
368,112,12240,1,0,0:0:0:0:
408,248,12771,5,0,0:0:0:0:
264,276,13302,1,0,0:0:0:0:
132,216,13832,1,0,0:0:0:0:
120,56,14363,1,0,0:0:0:0:
292,92,14894,5,0,0:0:0:0:
420,144,15425,1,0,0:0:0:0:
360,244,15956,1,0,0:0:0:0:
200,272,16487,1,0,0:0:0:0:
100,156,17018,5,0,0:0:0:0:
224,104,17549,1,0,0:0:0:0:
352,96,18080,1,0,0:0:0:0:
416,172,18611,1,0,0:0:0:0:
312,272,19142,5,0,0:0:0:0:
168,276,19673,1,0,0:0:0:0:
160,188,20204,1,0,0:0:0:0:
244,136,20735,1,0,0:0:0:0:
356,232,21266,5,0,0:0:0:0:
192,296,21797,1,0,0:0:0:0:
96,212,22328,1,0,0:0:0:0:
248,124,22859,1,0,0:0:0:0:
256,192,23390,12,0,24983,0:0:0:0:
100,244,25514,6,0,L|164:124,1,130
256,136,26576,2,0,L|316:256,1,130
436,260,27107,2,0,L|436:-8,1,260
436,0,28700,5,0,0:0:0:0:
256,0,29231,1,0,0:0:0:0:
40,4,29762,1,0,0:0:0:0:
113,111,30293,1,0,0:0:0:0:
195,211,30824,1,0,0:0:0:0:
256,192,31355,12,0,33479,0:0:0:0:
412,132,34009,6,0,P|256:168|272:184,1,260,0|0,0:0|0:0,0:0:0:0:
148,168,35602,1,0,0:0:0:0:
244,256,36133,1,0,0:0:0:0:
332,160,36664,1,0,0:0:0:0:
244,64,37195,2,0,L|52:248,1,260
184,264,38788,5,0,0:0:0:0:
304,212,39319,1,0,0:0:0:0:
364,96,39850,2,0,L|480:168,3,130,0|0|0|0,0:0|0:0|0:0|0:0,0:0:0:0:
408,164,41709,6,0,L|412:232,2,65,0|0|0,0:0|0:0|0:0,0:0:0:0:
372,112,42505,1,0,0:0:0:0:
252,88,43036,1,0,0:0:0:0:
159,176,43567,5,0,0:0:0:0:
213,279,44098,1,0,0:0:0:0:
315,270,44629,1,0,0:0:0:0:
417,266,45160,1,0,0:0:0:0:
412,157,45956,6,0,P|89:67|88:63,1,390,0|0,0:0|0:0,0:0:0:0:
62,227,48080,2,0,L|152:328,2,130,0|0|0,0:0|0:0|0:0,0:0:0:0:
70,82,49673,1,0,0:0:0:0:
174,89,50204,6,0,L|298:165,1,130,0|0,0:0|0:0,0:0:0:0:
369,175,51266,2,0,B|462:55|444:73,1,130,0|0,0:0|0:0,0:0:0:0:
456,200,52328,1,0,0:0:0:0:
384,304,52859,1,0,0:0:0:0:
272,316,53390,1,0,0:0:0:0:
152,304,53921,1,0,0:0:0:0:
60,260,54452,1,0,0:0:0:0:
75,156,54717,6,0,L|172:60,7,130,0|0|0|0|0|0|0|0,0:0|0:0|0:0|0:0|0:0|0:0|0:0|0:0,0:0:0:0:
252,64,58700,5,0,0:0:0:0:
344,88,59231,1,0,0:0:0:0:
416,164,59762,1,0,0:0:0:0:
456,240,60293,1,0,0:0:0:0:
383,290,60824,5,0,0:0:0:0:
321,333,61355,1,0,0:0:0:0:
244,346,61886,1,0,0:0:0:0:
165,345,62417,1,0,0:0:0:0:
101,294,62948,5,0,0:0:0:0:
93,211,63479,1,0,0:0:0:0:
126,134,64009,1,0,0:0:0:0:
256,192,64540,12,0,66664,0:0:0:0:
123,248,67461,6,0,L|212:132,1,130
289,173,68788,1,0,0:0:0:0:
366,141,69319,1,0,0:0:0:0:
453,124,69850,2,0,L|454:256,2,130,0|0|0,0:0|0:0|0:0,0:0:0:0:
306,283,71443,5,0,0:0:0:0:
201,296,71974,2,0,L|74:240,1,130,0|0,0:0|0:0,0:0:0:0:
101,139,73036,2,0,L|161:100,8,65,0|0|0|0|0|0|0|0|0,0:0|0:0|0:0|0:0|0:0|0:0|0:0|0:0|0:0,0:0:0:0:
73,233,75691,5,0,0:0:0:0:
131,298,76222,1,0,0:0:0:0:
215,312,76753,1,0,0:0:0:0:
306,317,77284,2,0,P|349:247|322:192,1,130
246,191,78346,5,0,0:0:0:0:
155,165,78877,1,0,0:0:0:0:
88,84,79408,2,0,L|166:65,1,65
248,66,79673,1,0,0:0:0:0:
344,112,80735,6,0,L|393:165,2,65,0|0|0,0:0|0:0|0:0,0:0:0:0:
256,192,81532,12,0,83125,0:0:0:0:
68,319,83656,5,0,0:0:0:0:
145,251,83921,1,0,0:0:0:0:
213,185,84452,1,0,0:0:0:0:
301,143,84717,1,0,0:0:0:0:
380,107,84983,2,0,L|448:84,1,65,0|0,0:0|0:0,0:0:0:0:
424,192,85514,5,0,0:0:0:0:
347,246,86045,1,0,0:0:0:0:
257,285,86576,1,0,0:0:0:0:
160,300,87107,1,0,0:0:0:0:
51,273,87638,2,0,L|104:154,1,130,0|0,0:0|0:0,0:0:0:0:
181,154,88700,5,0,0:0:0:0:
269,133,89231,1,0,0:0:0:0:
367,108,89762,1,0,0:0:0:0:
457,141,90293,1,0,0:0:0:0:
450,245,90824,5,0,0:0:0:0:
357,247,91355,1,0,0:0:0:0:
223,290,91886,2,0,P|117:185|116:185,1,130,0|0,0:0|0:0,0:0:0:0:
71,120,92682,1,0,0:0:0:0:
166,114,93213,5,0,0:0:0:0:
268,93,93744,1,0,0:0:0:0:
366,69,94275,1,0,0:0:0:0:
433,134,94806,1,0,0:0:0:0:
374,239,95337,5,0,0:0:0:0:
285,281,95868,1,0,0:0:0:0:
170,291,96399,1,0,0:0:0:0:
81,248,96930,2,0,L|247:70,2,195,0|0|0,0:0|0:0|0:0,0:0:0:0:
177,312,99054,6,0,L|314:314,3,130,0|0|0|0,0:0|0:0|0:0|0:0,0:0:0:0:
398,316,101178,1,0,0:0:0:0:
373,213,101709,1,0,0:0:0:0:
306,132,102240,2,0,L|148:114,1,130,0|0,0:0|0:0,0:0:0:0:
87,127,103302,5,0,0:0:0:0:
84,252,103832,1,0,0:0:0:0:
178,311,104363,1,0,0:0:0:0:
306,315,104894,1,0,0:0:0:0:
256,192,105160,12,0,108346,0:0:0:0:
109,212,117372,6,0,L|364:279,1,260,0|0,0:0|0:0,0:0:0:0:
407,218,118965,1,0,0:0:0:0:
380,110,119496,1,0,0:0:0:0:
271,98,120027,1,0,0:0:0:0:
182,157,120558,6,0,L|127:200,2,65,0|0|0,0:0|0:0|0:0,0:0:0:0:
257,105,122151,1,0,0:0:0:0:
356,69,122682,1,0,0:0:0:0:
456,127,123213,2,0,L|349:300,2,195,0|0|0,0:0|0:0|0:0,0:0:0:0:
361,84,125337,5,0,0:0:0:0:
237,84,125868,1,0,0:0:0:0:
127,87,126399,2,0,L|125:288,1,195,0|0,0:0|0:0,0:0:0:0:
238,297,127726,1,0,0:0:0:0:
376,299,128257,6,0,L|376:86,1,195,0|0,0:0|0:0,0:0:0:0:
278,95,129585,1,0,0:0:0:0:
147,97,130116,1,0,0:0:0:0:
58,96,130647,2,0,L|56:303,1,195
141,294,131709,2,0,L|342:293,1,195,0|0,0:0|0:0,0:0:0:0:
406,296,132771,2,0,L|404:227,2,65,0|0|0,0:0|0:0|0:0,0:0:0:0:
305,298,133567,5,0,0:0:0:0:
209,298,134098,1,0,0:0:0:0:
113,294,134629,1,0,0:0:0:0:
117,180,135160,2,0,L|205:181,3,65,0|0|0|0,0:0|0:0|0:0|0:0,0:0:0:0:
218,183,136222,6,0,L|291:183,1,65
303,184,136753,1,0,0:0:0:0:
399,189,137284,1,0,0:0:0:0:
393,77,137815,5,0,0:0:0:0:
289,79,138346,1,0,0:0:0:0:
183,79,138877,1,0,0:0:0:0:
79,85,139408,1,0,0:0:0:0:
80,211,139939,6,0,P|215:209|245:210,1,130
308,211,141001,2,0,L|450:209,1,130
132,183,150558,5,0,0:0:0:0:
326,180,151089,1,0,0:0:0:0:
455,183,151620,1,0,0:0:0:0:
452,312,152151,1,0,0:0:0:0:
322,318,152682,5,0,0:0:0:0:
320,187,153213,1,0,0:0:0:0:
190,189,153744,1,0,0:0:0:0:
188,318,154275,1,0,0:0:0:0:
58,326,154806,5,0,0:0:0:0:
162,248,155337,1,0,0:0:0:0:
273,181,155868,1,0,0:0:0:0:
384,114,156399,1,0,0:0:0:0:
458,220,156930,5,0,0:0:0:0:
390,331,157461,1,0,0:0:0:0:
260,338,157992,1,0,0:0:0:0:
129,338,158523,1,0,0:0:0:0:
58,228,159054,5,0,0:0:0:0:
68,98,159585,1,0,0:0:0:0:
194,66,160116,1,0,0:0:0:0:
323,63,160647,1,0,0:0:0:0:
445,107,161178,5,0,0:0:0:0:
349,195,161709,1,0,0:0:0:0:
221,221,162240,1,0,0:0:0:0:
91,234,162771,1,0,0:0:0:0:
172,132,163302,5,0,0:0:0:0:
284,66,163832,1,0,0:0:0:0:
412,82,164363,1,0,0:0:0:0:
422,211,164894,1,0,0:0:0:0:
323,296,165425,5,0,0:0:0:0:
237,197,165956,1,0,0:0:0:0:
131,272,166487,1,0,0:0:0:0:
90,148,167018,1,0,0:0:0:0:
218,125,167549,5,0,0:0:0:0:
347,121,168080,1,0,0:0:0:0:
313,246,168611,1,0,0:0:0:0:
200,311,169142,1,0,0:0:0:0:
56,178,169673,5,0,0:0:0:0:
156,95,170204,1,0,0:0:0:0:
193,219,170735,1,0,0:0:0:0:
302,289,171266,1,0,0:0:0:0:
180,334,171797,5,0,0:0:0:0:
94,236,172328,1,0,0:0:0:0:
220,204,172859,1,0,0:0:0:0:
349,191,173390,1,0,0:0:0:0:
256,192,173921,12,0,174983,0:0:0:0:
