osu file format v13

[General]
AudioFilename: necrodancer_zone_1-1.mp3
AudioLeadIn: 0
PreviewTime: -1
Countdown: 1
SampleSet: None
StackLeniency: 0.7
Mode: 0
LetterboxInBreaks: 1
WidescreenStoryboard: 0

[Editor]
DistanceSpacing: 1
BeatDivisor: 2
GridSize: 4
TimelineZoom: 1

[Metadata]
Title:Necrodancer Zone 1-1
TitleUnicode:Necrodancer Zone 1-1
Artist:Danny Baranowsky
ArtistUnicode:Danny Baranowsky
Creator:Frogel
Version:Hard
Source:Crypt of the Necrodancer
Tags:Crypt of the Necrodancer Danny Baranowsky Zone
BeatmapID:493300
BeatmapSetID:209598

[Difficulty]
HPDrainRate:4
CircleSize:7
OverallDifficulty:6
ApproachRate:7
SliderMultiplier:1.3
SliderTickRate:1

[Events]
//Background and Video events
0,0,"Necrodancer.jpg",0,0
//Break Periods
2,108811,116472
2,141996,149393
//Storyboard Layer 0 (Background)
//Storyboard Layer 1 (Fail)
//Storyboard Layer 2 (Pass)
//Storyboard Layer 3 (Foreground)
//Storyboard Sound Samples
//Background Colour Transformations
3,100,163,162,255

[TimingPoints]
27.6829406840471,530.973451327434,4,1,0,100,1,0

[HitObjects]
56,108,27,6,0,P|132:220|136:224,1,130
200,200,824,1,0,0:0:0:0:
292,136,1620,1,0,0:0:0:0:
432,88,2151,2,0,P|432:224|424:228,1,130
344,256,2948,1,0,0:0:0:0:
232,292,3744,1,0,0:0:0:0:
88,308,4275,6,0,L|88:172|88:176,1,130
88,180,5071,2,0,L|88:48,1,130
187,31,5868,1,0,0:0:0:0:
188,116,6399,1,0,0:0:0:0:
256,192,6930,12,0,7992,0:0:0:0:
104,104,8523,6,0,P|100:244|100:248,1,130
180,248,9319,1,0,0:0:0:0:
256,249,9585,2,0,P|377:190|379:191,1,130
328,252,10381,5,0,0:0:0:0:
406,250,10647,2,0,B|477:137|476:138|476:139,1,130
420,120,11443,1,0,0:0:0:0:
378,103,11709,2,0,L|245:54,1,130
208,60,12505,1,0,0:0:0:0:
169,94,12771,6,0,P|68:186|67:188,1,130
64,232,13567,1,0,0:0:0:0:
122,237,13832,2,0,L|233:309,1,130
292,324,14629,1,0,0:0:0:0:
277,256,14894,2,0,P|356:141|358:140,1,130
244,94,15691,5,0,0:0:0:0:
162,74,15956,1,0,0:0:0:0:
91,52,16222,1,0,0:0:0:0:
80,140,16487,1,0,0:0:0:0:
61,248,17018,6,0,P|187:277|196:281,1,130
260,269,18080,2,0,L|206:146,1,130
316,84,19142,2,0,L|406:182,1,130
410,277,20204,2,0,L|257:315,1,130
257,237,21266,6,0,L|103:226,1,130
121,142,22328,2,0,L|256:151,1,130
256,192,23125,12,0,25248,0:0:0:0:
131,157,25514,5,0,0:0:0:0:
226,126,26045,1,0,0:0:0:0:
342,103,26576,1,0,0:0:0:0:
422,153,27107,5,0,0:0:0:0:
413,253,27638,1,0,0:0:0:0:
330,308,28169,1,0,0:0:0:0:
231,318,28700,1,0,0:0:0:0:
128,319,29231,6,0,L|129:184,1,130
203,189,30293,2,0,L|338:191,1,130
420,189,31355,2,0,L|421:333,1,130
256,192,32151,12,0,32948,0:0:0:0:
60,235,33479,6,0,B|109:41|350:135|332:127,1,325
297,241,35071,2,0,L|231:243,9,65,0|0|0|0|0|0|0|0|0|0,0:0|0:0|0:0|0:0|0:0|0:0|0:0|0:0|0:0|0:0,0:0:0:0:
56,336,37726,2,0,L|385:91,1,390
310,33,39585,2,0,B|106:34|109:35,1,195
95,125,40647,2,0,L|93:267,1,130
205,281,41709,5,0,0:0:0:0:
284,280,41974,1,0,0:0:0:0:
362,253,42240,2,0,L|164:49,1,260
79,158,43832,5,0,0:0:0:0:
69,245,44098,1,0,0:0:0:0:
108,318,44363,1,0,0:0:0:0:
190,261,44629,2,0,L|410:110,1,260
461,37,45956,2,0,L|70:38,1,390,0|0,0:0|0:0,0:0:0:0:
58,113,47815,6,0,L|53:333,1,195
127,334,48877,2,0,L|263:333,1,130
343,333,49673,1,0,0:0:0:0:
402,242,50204,2,0,L|402:47,1,195
300,41,51266,2,0,L|90:47,1,195,0|0,0:0|0:0,0:0:0:0:
73,207,52328,5,0,0:0:0:0:
98,316,52859,1,0,0:0:0:0:
193,322,53390,1,0,0:0:0:0:
266,223,53921,1,0,0:0:0:0:
278,113,54186,6,0,P|158:115|145:115,8,130,0|0|0|0|0|0|0|0|0,0:0|0:0|0:0|0:0|0:0|0:0|0:0|0:0|0:0,0:0:0:0:
332,125,58700,5,0,0:0:0:0:
421,90,59231,1,0,0:0:0:0:
446,182,59762,1,0,0:0:0:0:
419,249,60293,2,0,L|379:303,1,65
291,317,60824,5,0,0:0:0:0:
191,320,61355,1,0,0:0:0:0:
198,240,61886,1,0,0:0:0:0:
109,233,62417,2,0,L|141:171,1,65
187,125,62948,5,0,0:0:0:0:
257,83,63479,1,0,0:0:0:0:
381,87,64009,1,0,0:0:0:0:
411,167,64540,2,0,L|376:231,1,65
302,292,65071,5,0,0:0:0:0:
170,298,65602,1,0,0:0:0:0:
78,239,66133,1,0,0:0:0:0:
91,151,66664,2,0,L|160:146,1,65
200,158,67195,5,0,0:0:0:0:
283,133,67461,1,0,0:0:0:0:
393,90,67726,1,0,0:0:0:0:
382,180,67992,6,0,P|314:300|306:311,1,130
221,321,68788,2,0,L|81:301,1,130
92,233,69850,2,0,L|94:95,1,130
162,95,70647,1,0,0:0:0:0:
252,96,70912,6,0,L|394:93,1,130
419,171,71974,2,0,L|418:303,1,130
315,312,72771,5,0,0:0:0:0:
221,311,73036,1,0,0:0:0:0:
124,264,73302,1,0,0:0:0:0:
85,166,73567,1,0,0:0:0:0:
85,93,73832,2,0,L|155:94,5,65,0|0|0|0|0|0,0:0|0:0|0:0|0:0|0:0|0:0,0:0:0:0:
211,63,75691,5,0,0:0:0:0:
293,71,75956,1,0,0:0:0:0:
361,66,76222,1,0,0:0:0:0:
431,62,76487,1,0,0:0:0:0:
453,129,76753,1,0,0:0:0:0:
471,194,77018,2,0,L|217:269,1,260
101,239,78346,5,0,0:0:0:0:
122,127,78611,1,0,0:0:0:0:
202,128,78877,2,0,L|274:128,1,65
280,128,79408,2,0,L|475:315,1,260,0|0,0:0|0:0,0:0:0:0:
343,332,80735,5,0,0:0:0:0:
241,324,81001,1,0,0:0:0:0:
159,304,81266,2,0,L|87:185,4,130,0|0|0|0|0,0:0|0:0|0:0|0:0|0:0,0:0:0:0:
238,282,83656,5,0,0:0:0:0:
256,199,83921,1,0,0:0:0:0:
275,129,84186,1,0,0:0:0:0:
326,70,84452,1,0,0:0:0:0:
418,46,84717,1,0,0:0:0:0:
419,121,84983,2,0,L|421:193,2,65,0|0|0,0:0|0:0|0:0,0:0:0:0:
436,233,85779,5,0,0:0:0:0:
384,299,86045,1,0,0:0:0:0:
321,242,86310,1,0,0:0:0:0:
277,314,86576,2,0,L|138:315,2,130,0|0|0,0:0|0:0|0:0,0:0:0:0:
282,208,87903,5,0,0:0:0:0:
240,141,88169,1,0,0:0:0:0:
217,55,88434,1,0,0:0:0:0:
149,95,88700,1,0,0:0:0:0:
76,107,89231,2,0,L|75:176,2,65,0|0|0,0:0|0:0|0:0,0:0:0:0:
162,50,90027,6,0,L|295:49,1,130
378,57,90824,1,0,0:0:0:0:
460,67,91089,2,0,P|460:138|464:150,1,65
378,184,91886,5,0,0:0:0:0:
282,224,92417,1,0,0:0:0:0:
207,252,92948,1,0,0:0:0:0:
146,332,93479,1,0,0:0:0:0:
84,264,94009,2,0,L|85:132,3,130,0|0|0|0,0:0|0:0|0:0|0:0,0:0:0:0:
167,110,96133,5,0,0:0:0:0:
266,99,96664,1,0,0:0:0:0:
366,149,97195,1,0,0:0:0:0:
431,229,97726,2,0,L|108:325,1,325
93,237,99585,5,0,0:0:0:0:
102,149,100116,2,0,L|293:91,1,195
371,87,101178,2,0,L|383:253,1,130
333,282,101974,1,0,0:0:0:0:
233,302,102240,5,0,0:0:0:0:
184,248,102505,1,0,0:0:0:0:
140,309,102771,1,0,0:0:0:0:
59,318,103036,1,0,0:0:0:0:
72,229,103302,2,0,L|243:77,1,195
293,109,104363,2,0,L|383:219,1,130
321,276,105425,6,0,L|200:337,1,130
256,192,106487,12,0,108611,0:0:0:0:
426,96,117372,6,0,L|160:318,1,325
88,272,118965,2,0,L|162:197,7,65,0|0|0|0|0|0|0|0,0:0|0:0|0:0|0:0|0:0|0:0|0:0|0:0,0:0:0:0:
162,161,121089,2,0,L|368:106,1,195,0|0,0:0|0:0,0:0:0:0:
422,181,122151,5,0,0:0:0:0:
394,253,122417,1,0,0:0:0:0:
334,308,122682,1,0,0:0:0:0:
264,327,122948,1,0,0:0:0:0:
184,338,123213,2,0,L|78:231,1,130
134,178,124009,6,0,L|248:106,1,130
312,110,124806,1,0,0:0:0:0:
407,100,125071,1,0,0:0:0:0:
397,183,125337,5,0,0:0:0:0:
358,241,125602,2,0,L|46:359,1,325
81,258,127195,5,0,0:0:0:0:
139,178,127726,1,0,0:0:0:0:
207,109,128257,1,0,0:0:0:0:
283,94,128788,2,0,L|350:118,3,65,0|0|0|0,0:0|0:0|0:0|0:0,0:0:0:0:
397,154,130381,6,0,L|250:295,1,195,0|0,0:0|0:0,0:0:0:0:
205,238,131443,2,0,L|293:135,1,130
218,96,132240,2,0,L|168:151,5,65,0|0|0|0|0|0,0:0|0:0|0:0|0:0|0:0|0:0,0:0:0:0:
285,91,133832,6,0,L|416:119,1,130
409,213,134629,1,0,0:0:0:0:
342,258,134894,1,0,0:0:0:0:
275,293,135160,1,0,0:0:0:0:
199,318,135425,2,0,L|41:88,1,260,0|0,0:0|0:0,0:0:0:0:
173,78,136753,6,0,L|249:83,1,65
312,83,137284,2,0,L|391:71,2,65,0|0|0,0:0|0:0|0:0,0:0:0:0:
321,168,138346,1,0,0:0:0:0:
337,250,138877,1,0,0:0:0:0:
244,295,139408,1,0,0:0:0:0:
115,298,139939,6,0,L|112:160,1,130
201,133,140735,2,0,L|332:133,2,130,0|0|0,0:0|0:0|0:0,0:0:0:0:
401,131,150293,5,0,0:0:0:0:
380,208,150824,1,0,0:0:0:0:
303,273,151355,1,0,0:0:0:0:
225,295,151886,2,0,L|145:301,2,65,0|0|0,0:0|0:0|0:0,0:0:0:0:
196,218,152682,5,0,0:0:0:0:
170,150,153213,1,0,0:0:0:0:
237,128,153744,2,0,L|304:106,2,65,0|0|0,0:0|0:0|0:0,0:0:0:0:
243,210,154540,5,0,0:0:0:0:
301,292,155071,1,0,0:0:0:0:
376,313,155602,2,0,L|388:248,2,65,0|0|0,0:0|0:0|0:0,0:0:0:0:
300,329,156664,5,0,0:0:0:0:
208,331,157195,1,0,0:0:0:0:
94,313,157726,2,0,L|92:246,2,65,0|0|0,0:0|0:0|0:0,0:0:0:0:
158,255,158788,5,0,0:0:0:0:
219,182,159319,1,0,0:0:0:0:
292,139,159850,2,0,L|348:195,2,65,0|0|0,0:0|0:0|0:0,0:0:0:0:
248,217,160912,5,0,0:0:0:0:
166,277,161443,1,0,0:0:0:0:
61,276,161974,2,0,L|69:210,2,65,0|0|0,0:0|0:0|0:0,0:0:0:0:
146,208,163036,5,0,0:0:0:0:
206,160,163567,1,0,0:0:0:0:
216,88,164098,2,0,L|231:15,2,65,0|0|0,0:0|0:0|0:0,0:0:0:0:
303,94,165160,5,0,0:0:0:0:
371,103,165691,1,0,0:0:0:0:
452,110,166222,2,0,L|454:177,2,65,0|0|0,0:0|0:0|0:0,0:0:0:0:
361,143,167284,5,0,0:0:0:0:
297,183,167815,1,0,0:0:0:0:
221,205,168346,2,0,L|286:282,2,65,0|0|0,0:0|0:0|0:0,0:0:0:0:
158,263,169408,5,0,0:0:0:0:
108,193,169939,1,0,0:0:0:0:
124,115,170470,2,0,L|25:115|27:115,2,65,0|0|0,0:0|0:0|0:0,0:0:0:0:
209,113,171532,5,0,0:0:0:0:
287,113,172063,1,0,0:0:0:0:
377,115,172594,2,0,L|381:49,2,65,0|0|0,0:0|0:0|0:0,0:0:0:0:
388,195,173656,5,0,0:0:0:0:
367,275,174186,1,0,0:0:0:0:
304,307,174717,2,0,L|224:326,2,65,0|0|0,0:0|0:0|0:0,0:0:0:0:
