osu file format v9

[General]
AudioFilename: Divine Battle.mp3
AudioLeadIn: 154
PreviewTime: -1
Countdown: 1
SampleSet: Normal
StackLeniency: 0.5
Mode: 0
LetterboxInBreaks: 1

[Editor]
DistanceSpacing: 1
BeatDivisor: 4
GridSize: 8

[Metadata]
Title:Divine Battle
Artist:Danny Baranowsky
Creator:qwertykool
Version:Insane
Source:The Binding of Isaac
Tags:Combat Boss Fight Bible Mom Death Devil Deal God Blood Card Zelda Adventure

[Difficulty]
HPDrainRate:5
CircleSize:4
OverallDifficulty:7
ApproachRate:7
SliderMultiplier:1.40000000596046
SliderTickRate:2

[Events]
//Background and Video events
0,0,"the-binding-of-isaac[1].png"
//Break Periods
2,13198,19132
2,46712,52233
2,59539,65473
//Storyboard Layer 0 (Background)
//Storyboard Layer 1 (Fail)
//Storyboard Layer 2 (Pass)
//Storyboard Layer 3 (Foreground)
//Storyboard Sound Samples
//Background Colour Transformations
3,100,163,162,255

[TimingPoints]
171.376001804342,413.76456796083,4,1,0,50,1,0
172,-100,4,2,0,100,0,0
32449,-133.333333333333,4,1,0,49,0,1
46106,-133.333333333333,4,1,0,49,0,0
52010,-100,4,2,0,100,0,0
79096,-100,4,1,0,49,0,1
79314,-133.333333333333,4,1,0,49,0,1
92328,-133.333333333333,4,1,0,49,0,0

[HitObjects]
376,296,6791,1,0
312,296,6998,1,2
264,248,7205,1,0
216,296,7412,1,2
136,296,7619,2,0,B|80:280|96:232,2,70.000000298023,0|0|0
136,272,8239,1,2
112,208,8446,5,0
112,160,8653,2,0,B|216:160|176:176,4,70.000000298023
288,168,9687,1,6
256,192,11343,12,4,12998
88,72,20032,6,0,B|168:80|192:128|120:168,1,140.000000596046
72,152,20652,1,0
392,152,21066,1,2
464,152,21273,1,2
280,288,21687,6,0,B|352:272|320:216,1,70.000000298023,0|2
280,200,22100,2,0,B|224:142|240:118,1,70.000000298023
240,72,22514,2,0,B|213:45|165:77,1,70.000000298023,2|0
128,120,22928,2,0,B|76:186|92:202,1,70.000000298023,0|2
104,224,23342,5,0
128,288,23549,1,2
200,288,23755,1,0
240,232,23962,1,8
464,192,24376,1,0
464,264,24583,1,2
256,336,24997,6,0,B|192:312,1,70.000000298023
192,272,25411,2,0,B|264:240,1,70.000000298023
256,200,25824,2,0,B|176:168,1,70.000000298023
192,128,26238,2,0,B|256:88,1,70.000000298023,2|6
256,160,26652,6,0,B|440:160|448:160|456:160|464:160,1,210.000000894069
440,280,27686,1,0
352,280,27893,1,2
264,280,28100,1,0
176,280,28307,2,0,B|176:232|160:208|128:184|88:176|24:176,1,210.000000894069
24,32,29341,1,0
176,32,29548,1,2
96,104,29755,1,0
96,176,29962,2,0,B|16:248|104:272|160:232,2,140.000000596046
192,280,31203,5,0
336,280,31410,1,0
264,208,31617,2,0,B|360:208|408:208|408:96|264:96,2,280.000001192092,8|8|2
264,160,33479,5,0
312,152,33685,1,2
312,208,33892,1,0
352,176,34099,1,2
408,192,34306,1,0
408,208,34410,1,2
456,184,34616,1,0
456,160,34720,1,2
480,192,34927,5,2
480,264,35134,1,0
408,192,35340,1,2
408,264,35547,1,0
336,192,35754,1,2
336,264,35961,1,0
336,264,36065,1,2
264,192,36271,1,0
264,192,36375,1,2
264,136,36583,5,2
264,64,36790,1,0
192,136,36996,1,2
192,64,37203,1,0
120,136,37410,1,2
120,64,37617,1,0
120,64,37721,1,2
48,136,37927,1,0
48,136,38031,1,2
48,192,38237,6,0,B|48:256|80:288|96:216|120:216|144:216|160:288|192:256|192:192,2,209.999994635581,0|8|6
192,168,40099,1,0
136,232,40306,1,2
136,288,40513,1,0
192,288,40719,1,2
248,288,40926,1,0
248,264,41030,1,2
304,264,41237,1,0
304,240,41340,1,2
368,240,41547,5,2
416,216,41754,1,8
368,192,41961,1,0
416,168,42168,1,2
368,144,42375,1,0
416,120,42582,1,2
368,104,42789,1,8
416,80,42995,1,2
368,64,43202,1,0
264,80,43616,5,4
80,144,44030,1,4
232,192,44340,1,4
136,328,44651,1,0
176,232,44857,5,2
136,264,45064,1,0
104,224,45271,1,2
72,184,45478,1,0
40,144,45685,1,2
80,112,45892,1,0
64,88,45995,1,2
104,56,46202,1,0
120,80,46306,1,2
152,40,46512,1,4
32,32,53133,5,0
72,88,53340,1,0
112,144,53547,1,0
400,232,53960,1,0
440,288,54167,1,0
480,344,54374,1,0
312,112,54994,5,0
336,112,55098,1,2
200,112,55305,1,0
176,112,55409,1,2
72,112,55822,2,0,B|16:112|0:112|40:160,1,70.000000298023,0|4
256,192,57684,12,4,59339
72,32,66373,6,0,B|184:32|184:120,1,140.000000596046
184,168,66994,1,0
368,256,67408,1,2
440,256,67615,1,2
368,120,68028,2,0,B|328:96|288:64,1,70.000000298023
240,72,68442,2,0,B|240:160,1,70.000000298023
240,216,68856,2,0,B|176:288,1,70.000000298023
64,272,69270,1,6
256,240,69683,6,0,B|344:216|256:176|256:160|336:128,1,140.000000596046
256,88,70304,1,0
112,88,70718,1,0
80,112,70821,1,8
48,88,70925,1,8
168,160,71338,2,0,B|144:200|88:208,1,70.000000298023
64,256,71752,2,0,B|40:320|96:328,1,70.000000298023
128,368,72166,2,0,B|176:384|224:352,1,70.000000298023
336,280,72580,1,6
160,232,72993,6,0,B|72:232,2,70.000000298023
208,184,73614,1,0
256,232,73821,2,0,B|336:232,1,70.000000298023
400,232,74235,1,2
288,152,74648,6,0,B|376:152,2,70.000000298023
240,200,75269,1,0
192,152,75476,2,0,B|112:152,1,70.000000298023
48,152,75890,1,2
32,288,76304,5,0
104,200,76510,1,0
184,200,76717,1,0
256,272,76924,1,0
424,272,77131,1,0
256,192,77338,1,0
424,192,77545,1,2
472,344,77959,5,2
368,248,78372,1,0
288,136,78786,1,0
176,56,79200,1,12
248,136,79614,5,2
248,208,79821,1,0
176,136,80027,1,2
176,208,80234,1,0
104,136,80441,1,2
104,208,80648,1,0
104,208,80752,1,2
32,136,80958,1,0
32,136,81062,1,2
32,192,81269,5,2
32,264,81476,1,0
104,192,81682,1,2
104,264,81889,1,0
176,192,82096,1,2
176,264,82303,1,0
176,264,82407,1,2
248,192,82613,1,0
248,192,82717,1,2
248,136,82925,5,2
248,64,83132,1,0
320,136,83338,1,2
320,64,83545,1,0
392,136,83752,1,2
392,64,83959,1,0
392,64,84063,1,2
464,136,84269,1,0
464,136,84373,1,2
464,192,84579,6,0,B|464:256|432:288|416:216|392:216|368:216|352:288|320:256|320:192,2,209.999994635581,0|8|6
256,216,86441,1,0
376,232,86648,1,2
376,288,86855,1,0
320,288,87061,1,2
264,288,87268,1,0
264,264,87372,1,2
208,264,87579,1,0
208,240,87682,1,2
144,240,87889,5,2
96,216,88096,1,8
144,192,88303,1,0
96,168,88510,1,2
144,144,88717,1,0
96,120,88924,1,2
144,104,89131,1,8
96,80,89337,1,2
144,64,89544,1,0
248,80,89958,5,4
336,136,90372,1,4
256,192,90682,1,4
320,296,90993,1,0
336,232,91199,5,2
376,264,91406,1,0
408,224,91613,1,2
440,184,91820,1,0
472,144,92027,1,2
432,112,92234,1,0
448,88,92337,1,2
408,56,92544,1,0
392,80,92648,1,2
360,40,92854,1,4
