osu file format v9

[General]
AudioFilename: Divine Battle.mp3
AudioLeadIn: 154
PreviewTime: -1
Countdown: 1
SampleSet: Soft
StackLeniency: 0.3
Mode: 0
LetterboxInBreaks: 1

[Editor]
DistanceSpacing: 0.9
BeatDivisor: 4
GridSize: 8

[Metadata]
Title:Divine Battle
Artist:Danny Baranowsky
Creator:qwertykool
Version:Easy
Source:The Binding of Isaac
Tags:Combat Boss Fight Bible Mom Death Devil Deal God Blood Card Zelda Adventure

[Difficulty]
HPDrainRate:0
CircleSize:3
OverallDifficulty:0
ApproachRate:0
SliderMultiplier:1.00000000596046
SliderTickRate:2

[Events]
//Background and Video events
0,0,"the-binding-of-isaac[1].png"
//Break Periods
2,13192,18227
2,46709,51330
2,59537,64571
//Storyboard Layer 0 (Background)
//Storyboard Layer 1 (Fail)
//Storyboard Layer 2 (Pass)
//Storyboard Layer 3 (Foreground)
//Storyboard Sound Samples
//Background Colour Transformations
3,100,163,162,255

[TimingPoints]
165,413.793103448276,4,1,0,50,1,0
165,-100,4,2,0,100,0,0
32440,-133.333333333333,4,1,0,49,0,1
46106,-133.333333333333,4,2,0,49,0,0
52010,-100,4,2,0,100,0,0
79096,-100,4,1,0,49,0,1
79314,-133.333333333333,4,1,0,49,0,1
92328,-133.333333333333,4,2,0,49,0,0

[HitObjects]
72,64,6785,2,0,B|272:64,1,200.000001192093
144,192,8440,2,0,B|360:192,1,200.000001192093
392,272,9682,1,4
256,192,11130,12,4,12992
48,192,20027,6,0,B|216:192,2,150.00000089407,2|0|2
88,272,21682,5,2
176,272,22096,1,2
264,272,22509,1,2
352,272,22923,1,4
440,272,23337,6,0,B|352:136,2,150.00000089407,2|0|2
352,272,24992,5,2
352,184,25406,1,2
264,184,25820,1,2
264,96,26233,1,4
176,96,26647,6,0,B|176:296,1,200.000001192092
264,296,27889,1,2
352,296,28302,2,0,B|432:224|432:224|360:160,1,200.000001192092
296,224,29544,1,2
208,216,29958,2,0,B|224:112|328:48,3,200.000001192092,0|8|4|4
448,56,33268,5,2
448,120,33682,1,0
448,184,34096,1,0
384,184,34509,2,2,B|296:184,1,74.9999982118604
240,184,35337,5,0
176,184,35751,1,0
112,184,36165,2,2,B|24:184,1,74.9999982118604
40,120,36992,1,0
104,120,37406,1,2
168,120,37820,1,0
232,120,38233,2,0,B|344:120|344:120|344:208|344:208|232:208,1,299.999992847441,2|4
176,208,40302,6,0,B|80:208|80:208|80:272,1,149.999996423721,0|2
144,256,41544,1,0
208,256,41958,1,2
272,256,42371,1,8
336,256,42785,1,4
400,256,43199,6,0,B|398:192|344:112,1,149.999996423721
280,112,44440,1,2
256,192,44854,12,4,46509
256,112,53130,6,0,B|184:112|184:192,1,100.000000596046,0|2
184,256,53958,2,0,B|296:256,1,100.000000596046,0|2
256,80,55199,1,8
336,128,55613,1,8
264,184,56027,1,4
256,192,57682,12,4,59337
256,40,66371,6,0,B|96:40,2,150.000000894069,0|8|0
256,128,68027,5,2
192,192,68440,1,2
256,256,68854,1,2
320,192,69268,1,4
320,280,69682,6,0,B|160:280,2,150.000000894069,0|8|0
256,224,71338,5,2
344,192,71751,1,2
344,104,72165,1,2
256,72,72579,1,4
256,160,72992,6,0,B|112:160|112:160|112:0,1,300.000001788138,0|2
192,48,74647,6,0,B|336:48|336:48|336:208,1,300.000001788138,0|2
256,240,76302,2,0,B|144:240,1,100.000000596046
160,152,77130,2,0,B|264:152,1,100.000000596046
256,240,77958,2,0,B|192:304|120:320|72:272|128:232|144:216|80:120,1,300.000001788138
48,192,79613,5,2
96,144,80027,1,0
144,192,80440,1,0
192,240,80854,2,2,B|248:184,1,74.9999982118604
296,144,81682,5,0
344,192,82096,1,0
392,240,82509,2,2,B|448:176,1,74.9999982118604
440,112,83337,5,0
440,48,83751,1,2
376,48,84165,1,0
312,48,84578,2,0,B|232:48,4,74.9999982118604,2|0|2|2|6
256,168,87061,6,0,B|256:248,1,74.9999982118604,8|0
256,312,87889,1,2
192,192,88716,6,0,B|112:192,1,74.9999982118604,8|0
48,192,89544,1,2
136,88,90371,1,2
256,192,91199,12,4,92854
