osu file format v9

[General]
AudioFilename: best italo dance - adesso balla (butterfly remix).mp3
AudioLeadIn: 0
PreviewTime: 63968
Countdown: 0
SampleSet: Soft
StackLeniency: 0.6
Mode: 0
LetterboxInBreaks: 1

[Editor]
DistanceSpacing: 2
BeatDivisor: 4
GridSize: 8

[Metadata]
Title:Adesso Balla (Butterfly Remix)
Artist:Daniele Meo
Creator:Shiro
Version:Insane
Source:
Tags:Odaril Loctav Taiko

[Difficulty]
HPDrainRate:6
CircleSize:4
OverallDifficulty:8
ApproachRate:8
SliderMultiplier:1.76
SliderTickRate:1

[Events]
//Background and Video events
0,0,"butterfly.jpg"
//Break Periods
//Storyboard Layer 0 (Background)
//Storyboard Layer 1 (Fail)
//Storyboard Layer 2 (Pass)
//Storyboard Layer 3 (Foreground)
//Storyboard Sound Samples
//Background Colour Transformations
3,100,163,162,255

[TimingPoints]
1785,388.852883992223,4,2,1,100,1,0
14228,388.60103626943,4,1,1,100,1,0
14228,-200,4,1,1,100,0,0
14519,-200,4,2,1,100,0,0
14713,-200,4,1,1,100,0,0
14810,-100,4,1,1,100,0,0
15588,-100,4,2,1,100,0,0
16899,-100,4,1,1,100,0,0
16996,-100,4,2,1,100,0,0
17336,-200,4,1,1,100,0,0
17433,-200,4,2,1,100,0,0
17822,-200,4,1,1,100,0,0
17919,-100,4,1,1,100,0,0
18696,-100,4,2,1,100,0,0
20008,-100,4,1,1,100,0,0
20105,-100,4,2,1,100,0,0
20445,-200,4,1,1,100,0,0
20542,-200,4,2,1,100,0,0
21028,-100,4,1,1,100,0,0
21805,-100,4,2,1,100,0,0
23554,-200,4,1,1,100,0,0
23651,-200,4,2,1,100,0,0
24137,-100,4,1,1,100,0,0
24914,-100,4,2,1,100,0,0
26226,-100,4,1,1,100,0,0
26323,-100,4,2,1,100,0,0
37446,-100,4,1,1,80,0,0
39001,-100,4,2,1,100,0,0
57459,-100,4,2,1,40,0,0
57654,-100,4,2,1,100,0,0
62317,-100,4,1,1,80,0,0
63968,-200,4,1,1,80,0,1
64551,-100,4,2,1,100,0,1
64648,-100,4,1,1,80,0,1
64843,-100,4,2,1,100,0,1
65037,-100,4,1,1,80,0,1
65231,-100,4,2,1,100,0,1
65523,-149.253731343284,4,1,1,80,0,1
66106,-100,4,2,1,100,0,1
66203,-100,4,1,1,80,0,1
66397,-100,4,2,1,100,0,1
66591,-100,4,1,1,80,0,1
66786,-100,4,2,1,100,0,1
67077,-120.481927710843,4,1,1,80,0,1
67660,-100,4,2,1,100,0,1
67757,-100,4,1,1,80,0,1
67952,-100,4,2,1,100,0,1
68146,-100,4,1,1,80,0,1
68340,-100,4,2,1,100,0,1
68632,-100,4,1,1,80,0,1
69215,-100,4,2,1,100,0,1
69312,-100,4,1,1,80,0,1
70186,-200,4,1,1,80,0,1
70769,-100,4,2,1,100,0,1
70866,-100,4,1,1,80,0,1
71060,-100,4,2,1,100,0,1
71255,-100,4,1,1,80,0,1
71449,-100,4,2,1,100,0,1
71740,-149.253731343284,4,1,1,80,0,1
72323,-100,4,2,1,100,0,1
72421,-100,4,1,1,80,0,1
72615,-100,4,2,1,100,0,1
72809,-100,4,1,1,80,0,1
73003,-100,4,2,1,100,0,1
73295,-120.481927710843,4,1,1,80,0,1
73878,-100,4,2,1,100,0,1
73975,-100,4,1,1,80,0,1
74169,-100,4,2,1,100,0,1
74364,-100,4,1,1,80,0,1
74558,-100,4,2,1,100,0,1
74752,-100,4,1,1,80,0,1
75335,-100,4,2,1,100,0,1
75529,-100,4,1,1,80,0,1
76015,-100,4,1,1,80,0,0
76404,-200,4,1,1,80,0,1
76987,-100,4,2,1,100,0,1
77084,-100,4,1,1,80,0,1
77278,-100,4,2,1,100,0,1
77472,-100,4,1,1,80,0,1
77667,-100,4,2,1,100,0,1
77958,-149.253731343284,4,1,1,80,0,1
78541,-100,4,2,1,100,0,1
78638,-100,4,1,1,80,0,1
78832,-100,4,2,1,100,0,1
79027,-100,4,1,1,80,0,1
79221,-100,4,2,1,100,0,1
79512,-120.481927710843,4,1,1,80,0,1
80095,-100,4,2,1,100,0,1
80193,-100,4,1,1,80,0,1
80387,-100,4,2,1,100,0,1
80581,-100,4,1,1,80,0,1
80775,-100,4,2,1,100,0,1
80970,-100,4,1,1,80,0,1
81553,-100,4,2,1,100,0,1
81796,-100,4,1,1,80,0,1
81941,-100,4,2,1,100,0,1
82136,-100,4,1,1,80,0,1
82330,-100,4,2,1,100,0,1
82621,-200,4,1,1,80,0,1
83204,-100,4,2,1,100,0,1
83301,-100,4,1,1,80,0,1
83496,-100,4,2,1,100,0,1
83690,-100,4,1,1,80,0,1
83884,-100,4,2,1,100,0,1
84176,-149.253731343284,4,1,1,80,0,1
84759,-100,4,2,1,100,0,1
84856,-100,4,1,1,80,0,1
85050,-100,4,2,1,100,0,1
85244,-100,4,1,1,80,0,1
85439,-100,4,2,1,100,0,1
85730,-120.481927710843,4,1,1,80,0,1
86313,-100,4,2,1,100,0,1
86410,-100,4,1,1,80,0,1
86604,-100,4,2,1,100,0,1
86799,-100,4,1,1,80,0,1
86993,-100,4,2,1,100,0,1
87187,-100,4,1,1,80,0,1
87770,-100,4,2,1,100,0,1
87965,-100,4,1,1,80,0,1
88450,-100,4,1,1,80,0,0
90199,-100,4,2,1,100,0,0
102731,-100,4,1,1,80,0,0
102926,-100,4,2,1,100,0,0
103120,-100,4,1,1,80,0,0
103314,-100,4,2,1,100,0,0
103509,-100,4,1,1,80,0,0
103703,-100,4,2,1,100,0,0
103897,-100,4,1,1,80,0,0
104091,-100,4,2,1,100,0,0
104286,-100,4,1,1,80,0,0
104480,-100,4,2,1,100,0,0
104674,-100,4,1,1,80,0,0
104869,-100,4,2,1,100,0,0
105063,-100,4,1,1,80,0,0
105257,-100,4,2,1,100,0,0
105452,-100,4,1,1,80,0,0
105646,-100,4,2,1,100,0,0
105840,-100,4,1,1,80,0,0
106034,-100,4,2,1,100,0,0
106229,-100,4,1,1,80,0,0
106423,-100,4,2,1,100,0,0
106617,-100,4,1,1,80,0,0
106812,-100,4,2,1,100,0,0
107006,-100,4,1,1,80,0,0
107200,-100,4,2,1,100,0,0
107395,-100,4,1,1,80,0,0
109143,-100,4,2,1,100,0,0
109338,-100,4,1,1,80,0,0
109532,-100,4,2,1,100,0,0
109726,-100,4,1,1,80,0,0
109921,-100,4,2,1,100,0,0
110115,-100,4,1,1,80,0,0
110309,-100,4,2,1,100,0,0
110503,-100,4,1,1,80,0,0
110698,-100,4,2,1,100,0,0
110892,-100,4,1,1,80,0,0
111086,-100,4,2,1,100,0,0
111281,-100,4,1,1,80,0,0
111475,-100,4,2,1,100,0,0
111669,-100,4,1,1,80,0,0
112252,-100,4,2,1,100,0,0
112446,-100,4,1,1,80,0,0
112641,-100,4,2,1,100,0,0
112835,-100,4,1,1,80,0,0
113029,-100,4,2,1,100,0,0
113224,-100,4,1,1,80,0,0
113418,-100,4,2,1,100,0,0
114001,-100,4,1,1,80,0,0
115167,-100,4,2,1,80,0,0

[Colours]
Combo1 : 100,221,164
Combo2 : 18,207,203
Combo3 : 138,253,250
Combo4 : 32,189,103

[HitObjects]
56,192,14228,6,0,B|56:146|88:112,1,88
168,80,14810,1,0
168,80,15005,1,0
255,84,15394,1,0
278,169,15782,1,0
204,217,16171,1,0
136,162,16560,1,0
120,248,16948,2,0,B|88:280,2,44
272,296,17336,6,0,B|322:297|344:255,1,88
384,176,17919,1,0
384,176,18114,1,0
328,112,18502,1,0
264,56,18891,1,0
119,122,19085,5,0
207,127,19279,2,0,B|294:162|328:249,1,176,2|0
176,288,20057,2,0,B|208:320,2,44
45,188,20445,6,0,B|18:145|39:102,1,88
109,52,21028,1,0
109,52,21222,1,0
192,24,21610,1,0
257,84,21999,1,0
239,170,22387,1,0
155,197,22776,1,0
89,138,23165,2,0,B|79:92,2,44,8|0|0
126,284,23554,6,0,B|174:284|206:252,1,88
272,200,24137,1,0
272,200,24331,1,0
272,112,24720,1,0
200,56,25108,5,0
120,16,25303,1,0
45,62,25497,1,0
120,106,25691,1,0
76,182,25886,1,0
164,182,26080,1,0
197,263,26274,2,0,B|209:307,2,44
368,248,26663,6,0,B|456:240,1,88,4|0
368,136,27051,2,0,B|456:144,1,88,4|0
432,312,27440,1,2
368,248,27634,1,0
280,232,27829,1,2
232,304,28023,1,0
144,320,28217,1,2
168,232,28411,1,0
168,152,28606,1,2
144,64,28800,1,0
232,80,28994,1,2
280,152,29189,1,0
368,136,29383,1,8
432,72,29578,1,0
368,248,29772,6,0,B|456:256,1,88,4|0
368,136,30161,2,0,B|456:128,1,88,4|0
312,72,30549,1,2
280,152,30743,1,0
192,144,30937,1,2
184,56,31131,1,0
96,64,31326,1,2
64,144,31520,1,0
64,240,31715,1,2
96,320,31909,1,0
184,328,32103,1,2
192,240,32297,1,0
280,232,32492,1,8
312,312,32685,1,0
392,280,32880,6,0,B|475:248,1,88,4|0
392,104,33269,2,0,B|475:136,1,88,4|0
304,128,33658,1,2
224,80,33852,1,0
144,32,34046,1,2
64,64,34240,1,0
24,136,34435,1,2
112,144,34629,1,0
112,240,34823,1,2
24,248,35018,1,0
64,320,35212,1,2
144,352,35407,1,0
224,304,35601,1,8
304,256,35795,1,0
392,136,35989,6,0,B|474:103,1,88,4|0
392,248,36378,2,0,B|474:281,1,88,4|0
319,198,36766,1,2
262,128,36961,1,0
192,185,37155,1,2
249,255,37349,1,0
416,192,37544,5,0
256,192,37738,1,0
112,120,37932,1,0
88,104,38029,1,0
64,88,38126,1,0
64,296,38321,1,0
88,280,38418,1,0
112,264,38515,1,0
256,192,38709,1,0
416,192,38903,1,0
352,280,39098,6,0,B|333:327|368:360,2,88,6|0|0
416,192,39681,1,2
352,104,39875,2,0,B|333:57|368:24,2,88,2|0|0
288,192,40458,1,2
216,144,40652,5,2
216,240,40847,1,0
144,96,41041,1,2
144,288,41235,1,0
56,192,41430,2,0,B|144:192,1,88,2|0
288,192,41818,1,0
432,192,42012,1,2
387,115,42207,6,0,B|324:59|223:59,1,176
144,96,42790,1,2
125,269,42984,2,0,B|188:325|289:325,1,176
368,288,43567,1,2
408,160,43761,5,2
320,136,43955,1,0
248,184,44149,1,2
176,232,44344,1,0
88,208,44538,2,0,B|70:165|82:121,1,88,2|0
85,37,44927,1,2
102,37,45024,1,0
119,37,45121,1,2
207,37,45316,6,0,B|316:68,1,88,2|0
376,88,45704,1,0
457,117,45898,1,2
230,132,46093,2,0,B|339:163,1,88,2|0
400,184,46481,1,0
480,212,46675,1,2
414,270,46870,5,2
388,353,47065,1,0
300,355,47259,1,2
272,272,47453,1,0
341,219,47647,2,0,B|409:160,1,88,2|0
480,212,48036,2,0,B|413:269,1,88,0|2
340,219,48424,6,0,B|297:163|287:98,1,132,2|0
298,55,48813,1,2
383,36,49007,1,2
210,73,49202,2,0,B|136:83|102:142,1,132,2|0
89,182,49590,1,2
140,252,49784,1,2
36,109,49979,6,0,B|56:68|96:41,1,88,2|0
162,180,50367,2,0,B|189:142|238:142,1,88,2|0
300,255,50756,1,2
162,180,50950,1,0
36,109,51145,1,2
184,48,51339,1,0
296,160,51533,5,6
212,255,51727,2,0,B|168:336,1,88,2|0
300,255,52116,2,0,B|344:336,1,88,2|0
372,224,52505,1,2
256,96,52699,1,0
140,224,52893,1,2
216,160,53088,5,0
300,255,53282,2,0,B|344:336,1,88,2|0
212,255,53671,2,0,B|168:336,1,88,2|0
140,224,54060,1,2
256,96,54254,1,8
372,224,54448,1,2
256,192,54642,5,0
328,144,54836,2,0,B|368:120|416:120,2,88,2|0|2
256,96,55419,2,0,B|256:8,2,88,0|2|0
184,144,56002,2,0,B|144:120|96:120,2,88,2|0|2
216,216,56585,1,0
296,216,56779,1,2
216,288,56974,1,2
296,288,57168,1,2
136,328,57362,1,8
376,328,57557,1,8
256,144,57751,5,0
320,80,57945,2,0,B|400:128,1,88,2|0
384,208,58334,2,0,B|296:216,1,88,2|0
216,216,58722,1,2
96,168,58917,1,0
192,80,59111,1,2
256,144,59305,5,0
296,216,59500,2,0,B|320:256|312:304,1,88,2|0
216,216,59888,2,0,B|192:256|200:304,1,88,2|0
256,360,60277,1,2
408,320,60471,1,0
296,216,60665,1,2
220,101,60860,5,0
220,282,61054,1,2
339,156,61248,1,0
172,156,61443,1,2
292,282,61637,1,0
292,101,61831,1,2
172,228,62025,1,0
339,228,62220,1,2
208,72,62414,5,0
176,108,62511,1,0
144,144,62608,1,0
304,72,62803,1,0
336,108,62900,1,0
368,144,62997,1,0
208,312,63191,1,0
256,312,63288,1,0
304,312,63386,1,0
368,240,63580,1,0
144,240,63774,1,0
32,88,63968,6,0,B|52:44|96:32,1,88,4|0
216,48,64551,1,0
344,112,64746,1,0
216,176,64940,1,0
296,48,65134,1,0
296,176,65329,1,0
27,118,65523,6,0,B|32:52|96:32,1,117.920004217148,4|0
208,40,66106,1,0
352,112,66301,1,0
208,184,66495,1,0
304,40,66689,1,0
304,184,66884,1,0
25,145,67077,6,0,B|21:56|96:32,1,146.079994601631,4|0
200,32,67660,1,0
360,112,67854,1,0
200,192,68049,1,0
312,32,68243,1,0
312,192,68437,1,0
34,174,68632,6,0,B|6:113|41:48|96:32,1,176,4|0
200,32,69215,1,0
408,192,69409,1,0
408,192,69797,1,0
280,320,70186,6,0,B|231:320|200:288,1,88,4|0
120,208,70769,1,0
160,72,70963,1,0
256,176,71158,1,0
352,72,71352,1,0
392,208,71546,1,0
280,320,71740,6,0,B|215:320|182:263,1,117.920004217148,4|0
112,175,72323,1,0
193,37,72518,1,0
257,184,72712,1,0
380,81,72906,1,0
392,239,73101,1,0
280,320,73295,6,0,B|196:319|174:237,1,146.079994601631,4|0
110,142,73878,1,0
232,13,74072,1,0
256,192,74266,1,0
406,94,74461,1,0
386,270,74655,1,0
280,320,74849,6,0,B|176:316|171:207,1,176,4|0
172,94,75432,1,0
398,230,75626,1,0
398,230,76015,1,0
408,56,76404,6,0,B|375:86|328:88,1,88,4|2
232,80,76987,1,0
104,24,77181,1,0
120,160,77375,1,0
256,192,77569,1,2
392,224,77764,1,0
280,304,77958,6,0,B|218:303|168:272,1,117.919994422119,4|2
120,160,78541,1,0
224,40,78735,1,0
376,88,78930,1,0
408,240,79124,1,2
288,344,79318,1,0
152,304,79512,6,0,B|80:277|47:207,1,146.080002117554,4|2
24,96,80095,1,0
176,192,80290,1,0
256,40,80484,1,0
336,192,80678,1,2
488,96,80873,1,0
472,272,81067,6,0,B|400:334|311:336,1,176,4|2
223,333,81650,1,2
201,326,81747,1,2
183,312,81844,1,2
115,256,82038,1,2
241,218,82233,1,2
69,179,82427,1,2
272,96,82621,6,0,B|305:73|355:73,1,88,4|2
445,82,83204,1,0
328,152,83398,1,0
256,272,83593,1,0
184,152,83787,1,2
67,82,83981,1,0
200,32,84176,6,0,B|248:7|315:13,1,117.919994422119,4|2
402,23,84759,1,0
416,184,84953,1,0
256,192,85147,1,0
96,200,85341,1,2
110,361,85536,1,0
312,352,85730,6,0,B|388:343|440:288,1,146.080002117554,4|2
482,210,86313,1,0
384,64,86507,1,0
256,192,86702,1,0
128,320,86896,1,2
30,174,87090,1,0
152,48,87284,6,0,B|234:12|324:33,1,176,4|0
453,63,87867,1,0
480,192,88062,1,0
32,192,88450,1,0
319,263,90393,6,0,B|367:258|399:295,1,88,4|0
331,352,90782,2,0,B|283:357|251:320,2,88,2|0|0
398,293,91365,1,0
384,117,91559,6,0,B|378:69|414:36,1,88,2|0
473,103,91948,2,0,B|478:150|442:183,1,88
359,205,92336,2,0,B|312:190|297:144,2,88,2|0|0
444,183,92919,1,0
473,17,93114,5,2
298,37,93502,2,0,B|209:53,1,88
272,116,93891,2,0,B|183:132,1,88,2|0
244,196,94279,2,0,B|155:212,1,88
217,276,94668,2,0,B|128:292,2,88,2|0|0
298,37,95445,1,2
217,276,95834,1,0
294,317,96028,1,0
467,292,96222,5,2
121,58,96611,2,0,B|68:56|45:92,1,88
113,146,97000,2,0,B|192:189|281:189,1,176,2|0
368,175,97582,1,0
478,36,97777,5,2
34,348,98165,2,0,B|41:304|73:271,1,88
34,36,98554,2,0,B|41:80|73:113,1,88,2|0
296,192,98943,2,0,B|208:192,2,88,0|0|2
384,192,99525,1,0
456,144,99720,5,0
340,264,99914,2,0,B|306:292|258:293,1,88,0|2
185,243,100303,1,0
301,123,100497,2,0,B|335:95|383:94,1,88
456,144,100886,1,2
259,293,101080,1,0
229,48,101274,1,0
256,120,101663,1,2
298,250,102051,5,0
187,169,102245,1,0
324,169,102439,1,2
213,250,102634,1,0
88,128,102829,6,0,B|99:83|136:56,1,88,4|0
136,256,103217,2,0,B|147:301|184:328,1,88,2|0
256,280,103606,1,0
336,240,103800,1,0
424,256,103994,6,0,B|413:301|376:328,1,88,2|0
376,128,104382,2,0,B|365:83|328:56,1,88,0|0
328,256,104772,2,0,B|317:301|280:328,1,88,2|0
192,304,105160,1,0
128,248,105354,1,0
116,160,105549,6,0,B|156:176|204:176,1,88,2|0
396,160,105937,2,0,B|356:176|308:176,1,88
128,248,106326,2,0,B|169:237|208:209,1,88,2|0
360,88,106715,2,0,B|328:121|289:139,1,88
192,304,107103,1,2
384,191,107297,1,0
191,80,107492,1,0
191,80,107880,5,2
280,80,108075,1,2
278,101,108172,1,2
270,121,108269,1,2
196,169,108463,1,2
345,168,108658,1,2
200,256,108852,1,2
416,224,109046,6,0,B|449:187|432:143,1,88,0|0
319,304,109435,2,0,B|276:326|236:298,1,88,2|0
216,208,109823,1,0
296,176,110018,1,0
360,112,110212,6,0,B|393:75|376:31,1,88,2|0
152,112,110601,2,0,B|119:75|136:31,1,88,0|0
288,88,110989,2,0,B|296:176,1,88,2|0
224,296,111378,2,0,B|216:208,1,88
224,120,111766,1,2
293,277,112155,5,0
153,315,112349,2,0,B|144:227,1,88,0|2
224,296,112738,1,0
77,335,112932,2,0,B|68:247,1,88
55,160,113321,1,2
224,120,113515,1,0
382,195,113709,5,0
377,216,113807,1,0
371,237,113904,1,0
256,368,114098,1,2
141,237,114292,1,2
135,216,114389,1,0
130,195,114487,1,0
108,110,114681,1,0
256,24,114875,1,2
404,110,115069,1,0
256,192,115264,12,4,116818
