osu file format v9

[General]
AudioFilename: Daniele Meo - Adesso balla (original mix) 00_00_00-00_05_39.mp3
AudioLeadIn: 0
PreviewTime: 68362
Countdown: 0
SampleSet: Normal
StackLeniency: 0.7
Mode: 0
LetterboxInBreaks: 0

[Editor]
Bookmarks: 26791
DistanceSpacing: 0.8
BeatDivisor: 4
GridSize: 8

[Metadata]
Title:Adesso Balla
Artist:Daniele Meo
Creator:AdRon Zh3Ro
Version:Insane
Source:
Tags:Anto adron zhero

[Difficulty]
HPDrainRate:7
CircleSize:4
OverallDifficulty:8
ApproachRate:8
SliderMultiplier:2.2
SliderTickRate:1

[Events]
//Background and Video events
0,0,"ws_Abstract_Girl_1024x768.jpg"
//Break Periods
2,55283,68047
2,222854,224047
//Storyboard Layer 0 (Background)
//Storyboard Layer 1 (Fail)
//Storyboard Layer 2 (Pass)
//Storyboard Layer 3 (Foreground)
//Storyboard Sound Samples
//Background Colour Transformations
3,100,163,162,255

[TimingPoints]
226,428.571428571429,4,1,1,45,1,0
68368,-100,4,1,1,45,0,0
75226,-100,4,1,1,45,0,0
78976,-100,4,1,1,55,0,0
109940,-100,4,1,1,55,0,1
123226,-100,4,1,1,55,0,0
123654,-100,4,1,1,55,0,1
136940,-100,4,1,1,55,0,0
137368,-100,4,2,1,45,0,0
138868,-100,4,1,1,45,0,0
152797,-100,4,1,1,55,0,1
166083,-100,4,1,1,55,0,0
166297,-100,4,2,1,20,0,0
167797,-100,4,1,1,55,0,0
195654,-100,4,1,1,55,0,1
208940,-100,4,1,1,55,0,0
209368,-100,4,1,1,55,0,1
222654,-100,4,1,1,55,0,0
224368,-100,4,2,1,55,0,0
245160,-100,4,2,1,65,0,0
251583,-100,4,1,1,55,0,0
252226,-100,4,1,1,80,0,1
265511,-100,4,1,1,55,0,0
265940,-100,4,1,1,80,0,1
279226,-100,4,1,1,55,0,0
305154,-100,4,2,1,0,0,0

[Colours]
Combo1 : 205,198,143
Combo2 : 153,151,117
Combo3 : 255,255,210

[HitObjects]
256,304,27118,1,8
256,304,27226,1,8
256,192,27440,1,8
256,80,27654,5,0
200,152,27868,1,0
136,88,28083,2,0,B|72:112|72:184,1,110,8|0
144,224,28511,2,0,B|80:264|80:264|72:288|64:304,2,110,0|0|8
208,280,29154,1,0
256,352,29368,5,0
304,280,29583,1,0
368,224,29797,2,0,B|432:264|432:264|440:288|448:304,2,110,8|0|0
439,169,30440,2,0,B|440:112|376:88,1,110,0|8
312,152,30868,1,0
176,48,31083,5,0
336,48,31297,1,0
256,88,31511,1,8
192,152,31726,2,0,B|152:208|176:272,1,110
320,152,32154,2,0,B|360:208|336:272,1,110,0|8
256,280,32583,1,0
176,312,32797,6,0,B|160:248|160:248|112:216,1,110
200,184,33226,2,0,B|136:144|136:144|64:144,1,110,8|0
336,312,33654,2,0,B|352:248|352:248|400:216,1,110
312,184,34083,2,0,B|376:144|376:144|448:144,1,110,8|0
408,56,34511,6,0,B|336:56|336:56|320:32|296:32,1,110
306,33,34940,1,8
256,104,35154,1,0
205,33,35368,1,0
256,104,35583,1,0
205,33,35797,2,0,B|184:40|176:56|176:56|104:56,1,110,8|0
136,136,36226,6,0,B|136:192|136:192|184:224,1,110
256,176,36654,1,8
181,221,36868,1,0
256,176,37083,1,0
331,221,37297,1,0
376,136,37511,2,0,B|376:192|376:192|328:224,1,110,8|0
256,272,37940,6,0,B|255:337|255:337|208:360,2,110,0|0|8
256,192,38583,1,0
256,104,38797,2,0,B|256:38|256:38|304:16,2,110,0|0|8
256,192,39440,1,0
344,184,39654,6,0,B|424:184|424:184|456:152,1,110
168,184,40083,2,0,B|88:184|88:184|56:152,1,110,8|0
296,288,40511,2,0,B|368:288|368:288|400:248,1,110,0|0
216,288,40940,2,0,B|144:288|144:288|112:248,1,110,8|0
256,208,41368,5,4
256,32,41797,1,0
96,104,42226,1,0
96,280,42654,1,0
256,352,43083,1,0
416,280,43511,1,0
416,104,43940,1,0
256,32,44368,1,0
256,352,44797,5,0
96,280,45225,1,0
96,104,45654,1,0
256,32,46083,1,0
416,104,46511,1,0
416,280,46940,1,0
256,352,47368,1,0
256,32,47797,1,0
256,352,48225,5,4
176,304,48440,1,0
88,312,48654,1,0
120,232,48868,1,0
128,144,49083,1,0
384,144,49511,1,0
384,144,49725,1,0
336,304,50154,5,0
424,312,50368,1,0
392,232,50583,1,0
384,144,50797,1,0
128,144,51225,1,0
256,48,51868,6,0,B|256:168,2,110
168,40,52511,1,0
344,40,52940,1,0
344,40,53154,1,0
368,216,53583,5,0
304,280,53797,1,0
208,280,54011,1,0
144,216,54225,1,0
256,80,54654,1,0
256,192,55083,5,4
256,192,68797,5,0
40,40,69440,1,0
40,40,69654,1,0
256,192,70511,5,0
472,344,71154,1,0
472,344,71368,1,0
256,192,72225,5,0
40,344,72868,1,0
40,344,73083,1,0
256,192,73940,5,0
472,40,74583,1,0
472,40,74797,1,0
256,192,75654,5,0
40,192,76297,1,0
40,192,76511,1,0
152,192,76940,1,8
256,192,77368,5,0
472,192,78011,1,0
472,192,78225,1,0
360,192,78654,1,8
256,192,79083,5,0
256,32,79725,1,0
256,32,79940,1,0
256,112,80368,1,8
256,192,80797,5,4
256,192,82511,5,0
256,192,83154,1,0
256,280,83368,1,0
152,232,84011,2,0,B|48:160,1,110
152,232,84440,1,0
168,128,84654,2,0,B|120:24,1,110
168,128,85083,1,0
344,128,85725,6,0,B|392:24,1,110
360,232,86583,2,0,B|464:160,1,110
256,344,87440,1,0
200,280,87654,2,0,B|168:224|200:176,1,110
312,280,88083,2,0,B|344:224|312:176,1,110
256,152,88511,2,0,B|192:128|184:64|280:96|312:88|320:48|304:16|208:16,2,220
256,344,90011,5,0
256,344,90225,1,0
184,88,90868,1,0
136,168,91083,1,0
176,248,91297,1,0
256,288,91511,1,0
336,248,91725,1,0
376,168,91940,1,0
328,88,92154,1,8
328,88,92368,1,8
256,136,92583,5,0
328,88,92797,2,0,B|368:200|288:304,1,220
256,216,93440,1,0
217,295,93654,2,0,B|144:200|184:80,1,220
256,40,94297,1,0
336,80,94511,6,0,B|376:192,1,110
176,80,94940,2,0,B|136:192,1,110
256,128,95368,2,0,B|256:352,2,220,0|0|4
352,104,96440,6,0,B|336:192|336:192|424:296,1,220
256,232,97297,1,0
304,312,97511,1,0
208,312,97725,1,0
32,296,98154,6,0,B|116:196|116:196|100:100,1,220
256,248,99011,2,0,B|256:136,2,110
256,72,99868,5,0
184,128,100083,2,0,B|152:176|168:240,1,110
256,216,100511,1,0
256,216,100725,1,0
328,128,100940,2,0,B|360:176|344:240,1,110
256,360,101368,5,0
256,216,101583,1,0
184,312,101797,1,0
336,312,102011,1,0
352,224,102225,1,0
160,224,102440,1,8
256,160,102654,1,8
256,72,102868,1,8
256,160,103083,1,4
256,72,103297,5,0
344,200,103725,1,0
168,200,104154,1,0
256,200,104368,1,0
168,200,104583,1,0
256,352,105011,5,0
168,200,105440,1,0
344,200,105868,1,0
256,200,106083,1,0
344,200,106297,1,0
304,120,106511,6,0,B|304:56|376:40,1,110
208,120,106940,2,0,B|208:56|136:40,1,110
120,128,107368,2,0,B|112:192|208:216,1,110
392,128,107797,2,0,B|400:192|304:216,1,110
256,256,108225,6,0,B|256:368,3,110
176,328,109083,1,0
336,328,109297,1,8
336,328,109404,1,8
336,328,109511,1,8
256,256,109725,1,8
336,224,109940,6,0,B|440:120|304:24,1,220,0|8
280,112,110583,1,0
256,192,110797,1,0
232,112,111011,1,0
256,24,111225,1,8
280,112,111440,1,0
189,37,111654,6,0,B|72:120|176:224,1,220,0|8
256,272,112297,2,0,B|224:336|160:336,1,110
256,272,112726,2,0,B|288:336|352:336,2,110,0|8|0
336,240,113368,6,0,B|304:184|256:168|256:168|200:184|168:248,1,220,0|8
128,160,114011,1,0
200,104,114225,1,0
256,40,114440,1,0
312,104,114654,1,8
384,160,114868,1,0
304,192,115083,6,0,B|304:240|256:288|256:288|208:240|208:192,1,220,0|8
256,120,115725,1,0
168,144,115940,1,8
344,144,116368,1,8
256,360,116797,5,0
256,360,117225,1,8
208,288,117440,1,0
304,288,117654,1,0
256,216,117868,2,0,B|256:104,2,110,0|8|0
176,176,118511,6,0,B|144:48|144:48|192:24|256:48,1,220,0|8
229,40,119154,2,0,B|192:96|240:160,1,110
256,232,119583,1,0
283,40,119797,2,0,B|320:96|272:160,1,110,8|0
282,40,120225,6,0,B|328:32|368:48|368:48|336:176,1,220,0|8
256,216,120868,1,0
168,232,121083,1,0
176,320,121297,1,0
256,360,121511,1,8
336,320,121725,1,0
344,232,121940,6,0,B|312:128|312:128|320:64|400:48,1,220,0|8
256,40,122583,1,0
128,52,122797,2,8,B|184:64|200:128|200:128|168:240,1,220
296,112,123654,6,0,B|384:216|288:336,1,220,4|8
304,314,124297,1,0
256,240,124511,1,0
207,314,124725,1,0
176,232,124940,1,8
336,232,125154,1,0
207,314,125368,6,0,B|136:208|216:112,1,220,0|8
128,112,126011,2,0,B|88:152|96:232,1,110
256,296,126440,1,0
417,213,126654,2,0,B|424:160|384:112,1,110,8|0
328,40,127083,6,0,B|312:88|256:120|256:120|200:88|184:40,1,220,0|8
144,120,127725,1,0
208,184,127940,1,0
256,256,128154,1,0
304,184,128368,1,8
368,120,128583,1,0
256,56,128797,5,0
256,56,129225,1,8
256,192,129440,1,0
256,328,129654,1,8
256,328,130083,1,8
328,136,130511,6,0,B|384:168|400:224|400:224|336:328,1,220,0|8
256,296,131154,1,0
232,208,131368,1,0
256,120,131583,1,0
280,208,131797,1,8
256,296,132011,1,0
166,312,132225,6,0,B|112:224|112:224|128:168|184:136,1,220,0|8
256,80,132868,2,0,B|200:32|200:32|168:32|144:56,2,110
256,80,133511,2,0,B|312:32|312:32|344:32|368:56,1,110,8|0
328,128,133940,6,0,B|280:168|256:216|256:216|232:168|192:128,1,220,0|8
160,216,134583,2,0,B|144:280|184:320,1,110
256,264,135011,1,0
352,216,135225,2,0,B|368:280|328:320,1,110,8|0
256,264,135654,5,0
256,264,136083,1,8
256,176,136297,1,0
256,88,136511,1,8
256,88,136940,1,8
256,328,138011,5,0
192,264,138225,1,0
320,264,138654,1,0
256,88,139083,5,0
256,264,139511,1,0
256,176,139725,1,0
184,224,139940,1,0
184,136,140154,1,0
256,88,140368,1,0
328,136,140583,1,0
328,136,140797,5,0
256,264,141225,2,0,B|256:384,2,110
256,88,142083,1,0
336,248,142511,6,0,B|408:144|320:32,1,220
256,88,143154,1,0
256,176,143368,1,0
256,264,143583,1,0
256,176,143797,1,0
256,88,144011,1,0
183,43,144225,6,0,B|104:144|176:248,1,220
208,328,144868,2,0,B|152:344|152:344|88:336,1,110
304,328,145511,1,0
304,328,145940,5,0
384,168,146368,2,0,B|384:104|384:104|352:72,1,110
160,71,146797,2,0,B|128:104|128:104|128:168,1,110
176,240,147226,1,0
336,240,147440,1,0
256,152,147654,5,0
256,152,148083,1,0
256,64,148297,1,0
256,152,148511,1,0
256,152,148940,1,0
256,328,149368,6,0,B|144:288|144:288|112:176,1,220
192,144,150011,1,0
256,80,150226,1,0
256,80,150440,1,0
320,144,150654,1,0
256,200,150868,1,0
256,328,151083,6,0,B|368:288|368:288|400:176,1,220
344,120,151726,1,0
320,40,151940,1,0
192,40,152261,5,8
192,40,152368,1,8
104,56,152583,1,8
168,120,152797,5,4
104,280,153226,2,0,B|32:264|24:192,1,110,8|0
112,184,153654,2,0,B|56:144|80:64,1,110
168,120,154083,1,8
208,40,154297,1,0
256,222,154511,5,0
304,40,154940,1,8
256,112,155154,2,0,B|256:232,1,110
256,222,155797,1,8
304,40,156226,5,0
400,184,156654,2,0,B|456:144|432:64,1,110,8|0
408,280,157083,2,0,B|480:264|488:192,1,110
408,280,157511,2,0,B|344:288|320:352,1,110,8|0
323,342,157940,5,0
104,280,158368,2,0,B|168:288|192:352,1,110,8|0
188,342,158797,1,8
256,184,159226,1,8
256,360,159654,5,0
344,208,160083,2,0,B|400:224|408:288,2,110,8|0|0
344,208,160726,2,0,B|320:152|384:104,1,110,0|8
374,111,161154,1,0
312,48,161368,5,0
136,112,161797,1,8
200,48,162011,1,0
136,112,162226,1,0
256,216,162654,1,8
200,48,163083,5,0
200,48,163511,1,0
137,111,163726,2,0,B|192:152|168:208,1,110
168,208,164154,2,0,B|112:224|104:288,2,110,0|8|0
88,168,164797,5,0
256,224,165226,2,8,B|256:336,2,110,8|8|0
424,168,166083,1,8
256,192,166726,5,8
256,192,166940,1,8
256,336,168226,5,0
256,336,168868,1,0
256,248,169083,1,0
120,24,169726,2,0,B|128:88|200:120,1,110
256,160,170154,1,0
392,24,170368,2,0,B|384:88|312:120,1,110
256,64,170797,1,0
256,328,171440,5,0
176,296,171654,2,0,B|152:168|272:96,1,220
256,16,172297,1,0
256,106,172511,2,0,B|368:184|328:328,1,220
334,297,173154,1,0
392,232,173368,1,0
400,144,173583,1,0
344,80,173797,1,0
296,152,174011,1,0
256,72,174226,5,0
216,152,174654,1,0
168,80,175083,5,0
120,232,175726,1,0
112,144,175940,1,0
177,297,176583,1,0
216,216,176797,6,0,B|176:160|176:160|176:104,2,110
296,216,177440,2,0,B|336:160|336:160|336:104,1,110
256,152,177868,1,8
256,152,178083,1,8
256,368,178297,5,0
256,280,178511,2,0,B|240:232|224:232|144:192|160:192|184:144|168:144|208:80,1,220
256,32,179154,1,0
256,280,179368,2,0,B|272:232|288:232|368:192|352:192|328:144|344:144|304:80,1,220
256,32,180011,1,0
184,88,180226,5,0
328,88,180440,1,0
296,168,180654,1,0
216,168,180868,1,0
320,247,181083,2,0,B|280:272|256:332|256:332|232:272|183:247,2,220,0|0|4
256,32,182154,5,0
168,184,182583,1,0
344,184,183011,1,0
256,192,183226,1,0
256,280,183440,1,0
256,104,183868,5,0
344,256,184297,1,0
168,256,184726,1,0
256,280,184940,1,0
256,368,185154,1,0
224,192,185583,6,0,B|152:168|176:96,1,110
256,120,186011,1,0
288,192,186226,2,0,B|360:168|336:96,1,110
304,24,186654,1,0
208,24,186868,1,0
304,24,187083,5,0
256,120,187297,1,0
208,24,187511,1,0
168,192,187726,1,0
344,192,187940,1,0
256,256,188154,1,8
336,280,188368,1,8
256,320,188583,1,8
176,280,188797,1,4
256,320,189011,5,0
160,160,189440,1,0
256,320,189868,1,0
168,344,190083,1,0
256,320,190297,1,0
256,64,190726,5,0
352,224,191154,1,0
256,64,191583,1,0
344,40,191797,1,0
256,64,192011,1,0
216,160,192226,6,0,B|152:176|136:232,2,110
216,160,192868,1,0
256,240,193083,2,0,B|256:352,2,110
256,240,193726,1,0
296,160,193940,6,0,B|360:176|376:232,2,110
296,160,194583,1,0
256,240,194797,1,0
216,160,195011,5,8
216,160,195118,1,8
216,160,195226,1,8
256,80,195440,1,8
176,96,195654,6,0,B|112:192|176:320,1,220,4|8
256,296,196297,2,0,B|208:256|216:192,1,110
256,120,196726,1,0
296,198,196940,2,0,B|304:256|256:296,1,110,8|0
342,305,197368,6,0,B|400:192|336:96,1,220,0|8
424,112,198011,2,0,B|448:168|440:224,1,110
256,264,198440,1,0
71,219,198654,2,0,B|64:168|88:112,1,110,8|0
160,64,199083,6,0,B|216:88|248:128|248:128|216:168|152:200,1,220,0|8
128,280,199726,1,0
176,352,199940,1,0
256,312,200154,1,0
336,352,200368,1,8
384,280,200583,1,0
350,195,200797,6,0,B|296:168|264:128|264:128|296:88|352:64,1,220,0|8
256,32,201440,1,0
256,32,201654,2,8,B|200:104|216:104|304:144|288:144|248:248,2,220,8|8|0
256,32,202940,5,8
328,80,203154,2,0,B|360:88|376:112|376:112|392:168,1,110
184,80,203583,2,0,B|152:88|136:112|136:112|120:168,1,110,0|8
176,224,204011,1,0
88,224,204226,6,0,B|104:344|256:360,1,220,0|8
256,272,204868,1,0
256,184,205083,2,0,B|256:72,2,110,0|0|8
256,272,205726,1,0
272,357,205940,6,0,B|408:344|424:216,1,220,0|8
352,168,206583,1,0
288,112,206797,2,0,B|296:48|296:48|272:8,1,110
224,112,207226,2,0,B|216:48|216:48|240:8,1,110,8|0
144,80,207654,6,0,B|128:192|128:192|208:288,1,220,0|8
256,336,208297,1,0
315,274,208511,2,8,B|384:192|384:192|368:80,1,220
192,80,209368,6,0,B|96:168|128:296,1,220,4|8
208,304,210011,2,0,B|192:240|208:192,1,110
256,120,210440,1,0
305,195,210654,2,0,B|320:240|304:304,1,110,8|0
387,278,211083,6,0,B|416:168|320:80,1,220,0|8
408,64,211726,2,0,B|368:16|320:0,1,110
256,56,212154,1,0
191,0,212368,2,0,B|144:16|96:72,1,110,8|0
184,104,212797,5,0
184,280,213226,1,8
184,192,213440,1,0
256,240,213654,1,0
256,144,213868,1,0
328,192,214083,1,8
328,280,214297,1,0
328,104,214511,5,0
328,104,214940,1,8
256,48,215154,1,0
256,144,215368,2,8,B|256:368,1,220
424,304,216226,6,0,B|352:216|352:216|432:120,1,220,0|8
420,134,216868,1,0
328,128,217083,2,0,B|352:64|288:24,1,110
213,31,217511,2,0,B|160:64|184:128,1,110,8|0
88,304,217940,6,0,B|160:216|160:216|80:120,1,220,0|8
176,120,218583,1,0
232,192,218797,1,0
256,112,219011,1,0
280,192,219226,1,8
336,120,219440,1,0
368,40,219654,6,0,B|256:16|256:16|152:40,1,220,0|8
112,120,220297,1,0
136,208,220511,2,0,B|120:264|120:264|160:304,1,110
376,208,220940,2,0,B|392:264|392:264|352:304,1,110,8|0
256,320,221368,5,0
320,152,221797,2,0,B|296:200|296:200|304:256,1,110,8|0
192,152,222226,1,8
192,152,222654,1,8
256,48,224797,5,2
256,48,225226,1,0
256,224,225654,1,0
184,176,225868,1,0
256,128,226083,1,0
328,176,226297,1,2
256,224,226511,5,2
256,224,226940,2,0,B|256:336,2,110,0|0|2
256,224,227797,1,2
136,352,228226,6,0,B|96:240|128:136,1,220,2|0
200,192,228868,2,0,B|200:128|240:88,1,110,2|0
256,224,229297,1,2
312,192,229511,2,0,B|312:128|272:88,1,110,0|2
376,352,229940,6,0,B|416:240|384:136,1,220,2|0
312,192,230583,1,0
256,256,230797,5,2
200,192,231226,1,2
256,120,231654,5,2
416,56,232083,2,0,B|376:104|376:104|392:168,1,110,0|2
308,56,232511,2,0,B|256:32|256:32|192:64,1,110
96,56,232940,2,0,B|136:104|136:104|120:168,1,110,2|0
200,192,233368,5,2
312,192,233797,1,2
256,128,234011,1,2
256,216,234226,1,0
256,216,234654,1,0
256,344,235083,5,2
176,184,235511,1,0
192,272,235726,2,0,B|168:320|168:320|112:352,1,110,0|2
320,272,236154,2,0,B|344:320|344:320|400:352,1,110,0|2
336,184,236583,1,0
256,152,236797,5,2
312,88,237226,2,0,B|248:56|168:104,2,110,0|0|2
256,152,238083,1,2
256,328,238511,5,2
144,192,238940,2,0,B|192:248|192:248|184:296,1,110,2|0
256,232,239368,2,0,B|256:120,1,110
368,192,239797,2,2,B|320:248|320:248|328:296,1,110
256,336,240226,5,2
256,160,240654,2,0,B|256:48,2,110,0|2|2
256,160,241511,1,2
256,336,241940,5,2
168,184,242368,2,0,B|160:240|200:288,1,110,0|2
344,184,242797,2,0,B|352:240|312:288,2,110,2|0|2
198,286,243440,6,0,B|160:240|168:176,1,110,0|2
320,96,244083,1,2
296,8,244297,1,0
216,8,244511,5,2
192,96,244940,1,2
256,256,245368,5,2
336,104,245797,2,0,B|296:152|296:152|296:216,2,110,2|0|2
176,104,246440,2,0,B|216:152|216:152|216:216,2,110,2|0|2
136,184,247083,6,0,B|168:288|168:288|272:368,1,220,2|0
256,355,247726,1,2
376,184,247940,2,2,B|344:288|344:288|240:368,1,220
256,176,248797,5,2
152,32,249226,1,0
176,120,249440,1,2
256,88,249654,1,2
256,88,249868,1,2
336,120,250083,1,0
360,32,250297,1,2
256,176,250511,5,0
200,344,250940,2,2,B|168:288|168:288|168:232,2,110
312,344,251690,5,8
312,344,251797,1,8
312,344,252011,1,8
256,168,252226,5,4
160,312,252654,2,0,B|192:248|192:248|160:200,1,110,8|0
176,128,253083,1,0
256,88,253297,1,0
336,128,253511,1,8
341,216,253726,6,0,B|320:248|320:248|352:312,1,110
256,168,254368,2,0,B|256:280,2,110,8|0|0
256,278,255226,1,8
256,168,255654,5,0
416,96,256083,1,8
368,168,256297,5,0
208,104,256511,1,0
256,278,256726,1,0
304,104,256940,1,8
144,168,257154,1,0
96,96,257368,5,0
72,272,257797,2,8,B|112:320|176:304,1,110,8|0
144,224,258226,2,0,B|256:256|384:224,1,220,0|8
256,88,259083,5,0
440,272,259511,2,0,B|400:320|336:304,1,110,8|0
256,272,259940,1,0
208,344,260154,1,0
304,344,260368,1,8
170,305,260583,2,0,B|112:320|64:264,1,110
200,144,261226,5,8
256,80,261440,1,0
312,144,261654,1,0
256,312,262083,1,8
256,312,262511,6,0,B|256:88,1,220,0|8
176,136,263154,2,0,B|168:72|208:24,1,110
336,136,263583,2,0,B|344:72|304:24,1,110,0|8
256,104,264011,6,0,B|256:216,1,110
136,344,264654,2,0,B|184:288|184:288|224:288,1,110,8|0
291,288,265083,1,0
376,344,265404,5,8
376,344,265511,1,8
256,216,265726,1,8
256,128,265940,5,4
192,296,266368,2,0,B|152:240|168:184,1,110,8|0
256,216,266797,1,0
320,296,267011,2,0,B|360:240|344:184,1,110,0|8
256,216,267440,1,0
256,128,267654,5,0
256,304,268083,1,8
256,216,268297,1,0
256,128,268511,1,0
256,304,268940,1,8
256,128,269368,5,0
128,256,269797,2,0,B|96:200|128:144,1,110,8|0
176,80,270226,1,0
256,40,270440,1,0
336,80,270654,1,8
387,150,270868,2,0,B|416:200|384:256,1,110
256,376,271511,6,0,B|256:264,2,110,8|0|0
256,200,272368,1,8
256,24,272797,5,0
160,176,273226,2,0,B|168:232|168:232|208:280,1,110,8|0
352,176,273654,2,0,B|344:232|344:232|304:280,1,110
256,200,274083,1,8
256,112,274297,1,0
176,80,274511,6,0,B|80:136|80:136|80:248,1,220,0|8
256,304,275154,1,0
336,80,275368,2,0,B|432:136|432:136|432:248,1,220,0|8
216,136,276226,6,0,B|160:248|216:360,1,220,0|8
392,352,276868,1,0
210,348,277083,1,0
256,192,277297,1,0
302,348,277511,1,8
120,352,277726,1,0
302,348,277940,6,0,B|352:240|296:136,1,220,0|8
368,48,278583,1,0
144,48,278797,5,8
368,48,279226,1,8
256,368,280833,5,8
256,368,280940,1,8
256,280,281154,1,8
256,192,281368,5,4
168,216,281583,2,0,B|144:264|144:264|88:264,2,110,0|8|0
88,184,282226,2,0,B|48:144|64:72,1,110
144,112,282654,2,0,B|160:56|224:32,1,110,8|0
368,112,283083,6,0,B|352:56|288:32,1,110
424,184,283511,2,0,B|464:144|448:72,1,110,8|0
344,216,283940,2,0,B|368:264|368:264|424:264,2,110,0|0|8
344,216,284583,1,0
304,296,284797,6,0,B|360:336|360:336|416:336,1,110
208,296,285226,2,0,B|152:336|152:336|96:336,1,110,8|0
120,248,285654,2,0,B|192:200|192:200|192:152,1,110
392,248,286083,2,0,B|320:200|320:200|320:152,1,110,8|0
256,112,286511,5,0
168,88,286726,1,0
256,112,286940,1,8
344,88,287154,1,0
320,176,287368,1,0
256,112,287583,1,0
192,176,287797,1,8
256,232,288011,1,0
168,256,288226,6,0,B|136:312|192:368,1,110
182,357,288654,1,8
256,304,288868,1,0
329,357,289083,1,0
329,357,289297,2,0,B|376:304|344:256,1,110,0|8
256,232,289726,1,0
336,200,289940,6,0,B|384:152|384:152|384:80,1,110
296,128,290368,2,0,B|296:56|296:56|336:24,1,110,8|0
216,128,290797,2,0,B|216:56|216:56|176:24,1,110
176,200,291226,2,0,B|128:152|128:152|128:80,1,110,8|0
40,120,291654,6,0,B|24:184|56:240,2,110,0|0|8
104,56,292297,1,0
192,80,292511,1,0
160,160,292726,1,0
160,248,292940,2,0,B|160:320|240:352,1,110,8|0
304,336,293368,6,0,B|348:317|356:245,1,110
352,160,293797,1,8
320,80,294011,1,0
408,56,294226,1,0
472,120,294440,2,0,B|488:184|456:240,2,110,0|8|0
472,120,295083,5,4
312,192,295511,1,0
256,24,295940,1,0
200,192,296368,1,0
256,360,296797,5,0
312,192,297226,2,0,B|432:168|432:168|432:64,2,220
312,192,298511,5,0
200,192,298940,2,0,B|80:216|80:216|80:320,2,220
200,192,300226,5,0
256,24,300654,2,0,B|384:80|384:80|432:200,1,220
256,360,301511,2,0,B|128:304|128:304|80:184,1,220
248,96,302368,6,0,B|331:130|331:130|386:271,1,220
264,288,303226,2,0,B|181:254|181:254|126:113,1,220
304,192,304083,5,0
256,24,304511,1,0
208,192,304940,1,0
256,192,305368,12,4,308797
