osu file format v9

[General]
AudioFilename: Daniele Meo - Adesso balla (original mix) 00_00_00-00_05_39.mp3
AudioLeadIn: 0
PreviewTime: 68362
Countdown: 0
SampleSet: Normal
StackLeniency: 0.7
Mode: 0
LetterboxInBreaks: 0

[Editor]
Bookmarks: 26791,81648
DistanceSpacing: 0.8
BeatDivisor: 4
GridSize: 8

[Metadata]
Title:Adesso Balla
Artist:Daniele Meo
Creator:AdRon Zh3Ro
Version:Hard
Source:
Tags:Anto adron zhero

[Difficulty]
HPDrainRate:5
CircleSize:4
OverallDifficulty:6
ApproachRate:7
SliderMultiplier:1.5
SliderTickRate:1

[Events]
//Background and Video events
0,0,"ws_Abstract_Girl_1024x768.jpg"
//Break Periods
2,55283,67897
2,222854,223897
2,279426,280468
//Storyboard Layer 0 (Background)
//Storyboard Layer 1 (Fail)
//Storyboard Layer 2 (Pass)
//Storyboard Layer 3 (Foreground)
//Storyboard Sound Samples
//Background Colour Transformations
3,100,163,162,255

[TimingPoints]
226,428.571428571429,4,1,1,55,1,0
68368,-100,4,1,1,45,0,0
75226,-100,4,1,1,45,0,0
78976,-100,4,1,1,55,0,0
109940,-100,4,1,1,55,0,1
123226,-100,4,1,1,55,0,0
123654,-100,4,1,1,55,0,1
136940,-100,4,1,1,55,0,0
152797,-100,4,1,1,55,0,1
166083,-100,4,1,1,55,0,0
195654,-100,4,1,1,55,0,1
208940,-100,4,1,1,55,0,0
209368,-100,4,1,1,55,0,1
222654,-100,4,1,1,55,0,0
224368,-100,4,2,1,55,0,0
245160,-100,4,2,1,65,0,0
251583,-100,4,1,1,55,0,0
252226,-100,4,1,1,80,0,1
265511,-100,4,1,1,55,0,0
265940,-100,4,1,1,80,0,1
279226,-100,4,1,1,55,0,0
305154,-100,4,2,1,0,0,0

[Colours]
Combo1 : 205,198,143
Combo2 : 153,151,117
Combo3 : 255,255,210

[HitObjects]
256,48,27654,2,0,B|168:64|112:144,1,150,0|8
224,192,28511,2,0,B|224:288|224:288|176:344,1,150,0|8
188,328,29154,1,0
188,328,29368,5,0
72,304,29797,1,8
160,216,30226,1,0
188,328,30654,1,8
256,232,31083,6,0,B|256:64,2,150,0|8|0
256,232,32368,1,8
288,280,32583,1,0
320,328,32797,5,0
352,216,33226,1,8
440,304,33654,1,0
323,328,34083,1,8
323,328,34511,6,0,B|288:288|288:288|288:192,1,150,0|8
382,122,35368,2,0,B|344:72|256:48,1,150,0|8
200,64,36011,1,0
152,104,36226,6,0,B|96:168|120:264,1,150,0|8
232,280,37083,1,0
256,160,37511,1,8
360,104,37940,6,0,B|416:168|392:264,1,150,0|8
280,280,38797,1,0
256,160,39226,1,8
256,160,39440,1,0
256,160,39654,6,0,B|256:-8,3,150,0|8|0|8
256,10,41368,5,4
256,192,42226,1,0
256,374,43083,1,0
256,192,43940,1,0
496,192,44797,5,0
256,192,45654,1,0
16,192,46511,1,0
256,192,47368,1,0
336,192,48225,6,0,B|496:192,2,150,0|8|0
256,192,49511,1,8
176,192,49940,6,0,B|16:192,2,150,0|8|0
256,192,51225,1,8
216,120,51654,6,0,B|216:32|216:32|136:32,2,150,0|8|0
256,192,52940,1,8
296,264,53368,6,0,B|296:352|296:352|376:352,2,150,0|8|0
256,192,54654,1,8
256,192,55083,5,4
256,192,68797,5,0
128,320,69440,1,0
128,320,69654,1,0
256,192,70511,5,0
384,64,71154,1,0
384,64,71368,1,0
256,192,72225,5,0
128,64,72868,1,0
128,64,73083,1,0
256,192,73940,5,0
384,320,74583,1,0
384,320,74797,1,0
256,192,75654,5,0
72,192,76297,1,0
72,192,76511,1,0
168,192,76940,1,8
256,192,77368,5,0
440,192,78011,1,0
440,192,78225,1,0
344,192,78654,1,8
256,192,79083,5,0
256,8,79725,1,0
256,8,79940,1,0
256,104,80368,1,8
256,192,80797,5,4
256,192,82511,5,0
256,192,83154,1,0
256,248,83368,1,0
360,104,84011,1,0
304,88,84225,1,0
256,48,84440,1,0
256,48,84654,1,0
208,88,84868,1,0
152,104,85083,1,0
328,152,85725,6,0,B|360:240,1,75
184,152,86583,2,0,B|152:240,1,75
256,376,87440,1,0
256,320,87654,1,0
256,264,87868,2,0,B|256:171,3,75
256,72,88940,1,0
256,72,89368,5,0
184,232,90011,2,0,B|152:256|152:304,1,75
328,232,90868,2,0,B|360:256|360:304,1,75
312,328,91297,1,0
256,312,91511,1,0
256,312,91725,1,0
200,328,91940,1,0
256,160,92583,5,0
208,200,92797,2,0,B|168:128|200:48,1,150
256,48,93440,1,0
314,55,93654,2,0,B|344:128|304:200,1,150
256,232,94297,2,0,B|256:320,4,75
256,176,95368,1,0
256,176,95797,1,0
256,8,96440,5,0
256,8,96868,1,0
256,128,97297,1,0
256,184,97511,1,0
256,240,97725,1,0
256,360,98154,5,0
256,360,98583,1,0
256,240,99011,1,0
256,184,99225,1,0
256,128,99440,1,0
352,56,99868,6,0,B|384:136,1,75
336,168,100297,2,0,B|312:248,1,75
256,248,100725,1,0
197,239,100940,2,0,B|176:160,1,75
132,125,101368,6,0,B|160:56,1,75
216,72,101797,1,0
256,112,102011,1,0
296,72,102225,1,0
256,112,102440,2,8,B|256:200,1,75
432,160,103297,6,0,B|336:200|336:200|296:256,1,150
256,344,104154,1,0
256,288,104368,1,0
256,344,104583,1,0
202,237,105011,6,0,B|176:200|176:200|80:160,1,150
192,112,105868,1,0
256,112,106083,1,0
312,112,106297,1,0
368,136,106511,6,0,B|408:168|408:216,1,75
352,224,106940,2,0,B|296:280,1,75
256,312,107368,2,0,B|256:400,2,75
256,248,108011,1,0
213,269,108225,6,0,B|160:216,1,75
105,198,108654,2,0,B|104:168|152:128,1,75
200,112,109083,2,0,B|192:64|144:48,2,75
256,216,109940,5,4
256,216,110368,1,8
368,256,110797,2,0,B|392:160|328:88,1,150,0|8
256,32,111654,5,0
256,32,112083,1,8
168,112,112511,2,0,B|131:168|147:256,1,150,0|8
256,312,113368,5,0
256,192,113797,1,8
256,312,114225,2,0,B|256:224,3,75,0|0|8|0
200,224,115083,6,0,B|160:152|200:72,1,150,0|8
256,88,115725,1,0
315,79,115940,2,0,B|352:152|312:224,1,150,8|8
376,328,116797,6,0,B|432:240|432:240|400:176,1,150,0|8
336,112,117654,1,0
256,200,118083,1,8
256,200,118511,5,0
176,112,118940,1,8
100,199,119368,2,0,B|80:240|80:240|136:328,1,150,0|8
256,344,120225,6,0,B|208:272|216:192,1,150,0|8
256,160,120868,2,0,B|256:80,4,75,0|0|0|8|0
296,202,121940,6,0,B|304:272|256:344,1,150,0|8
256,343,122583,1,0
256,343,122797,1,0
256,343,123225,1,8
256,224,123654,6,0,B|256:64,1,150,4|8
144,112,124511,2,0,B|120:200|184:264,2,150,0|8|0
256,72,125797,5,8
368,112,126225,2,0,B|392:200|328:264,2,150,0|8|0
256,72,127511,1,8
256,192,127940,1,0
256,192,128154,1,0
256,192,128368,2,0,B|256:280,1,75,8|0
192,264,128797,6,0,B|144:344|288:384,1,150,0|8
254,373,129440,1,0
254,373,129654,2,0,B|368:336|312:248,1,150,0|8
376,160,130511,6,0,B|312:88|312:88|240:88,1,150,0|8
256,208,131368,1,0
256,208,131797,1,8
253,88,132225,6,0,B|200:88|200:88|128:168,1,150,0|8
256,208,133083,2,0,B|256:360,2,150,0|8|0
256,208,134368,5,8
224,96,134797,1,0
224,96,135011,1,0
288,96,135225,1,8
288,96,135440,1,0
320,144,135654,6,0,B|352:232|304:304,1,150,0|8
256,264,136297,1,0
199,289,136511,2,8,B|160:224|192:144,1,150
256,48,137368,1,4
256,48,139083,5,0
136,72,139511,2,0,B|80:136,1,75
128,176,139940,2,0,B|112:248,1,75
160,280,140368,2,0,B|160:368,1,75
160,355,140797,5,0
256,280,141225,2,0,B|256:192,2,75
352,355,142083,1,0
352,355,142511,5,0
352,355,142940,2,0,B|352:280,1,75
400,249,143368,2,0,B|384:176,1,75
425,128,143797,2,0,B|376:72,1,75
376,72,144225,5,0
256,96,144654,2,0,B|256:8,2,75
256,216,145511,1,0
256,336,145940,5,0
200,232,146368,2,0,B|168:152,2,75
256,216,147011,1,0
312,232,147226,2,0,B|344:152,2,75
256,128,148083,5,0
256,72,148297,1,0
256,128,148511,1,0
256,128,148940,2,0,B|256:312,1,150
368,312,149797,5,0
336,272,150011,1,0
296,320,150226,1,0
256,280,150440,1,0
216,320,150654,1,0
176,272,150868,1,0
152,216,151083,5,0
208,112,151511,2,0,B|168:88|128:112,2,75
256,32,152368,1,0
304,112,152797,5,4
344,224,153226,2,0,B|368:304,5,75,8|0|0|0|8|0
312,328,154511,5,0
312,208,154940,1,8
256,184,155154,1,0
200,208,155368,1,0
256,312,155797,1,8
256,312,156226,5,0
146,295,156654,2,0,B|168:224,5,75,8|0|0|0|8|0
224,192,157940,5,0
208,72,158368,1,8
256,32,158583,1,0
304,72,158797,1,0
256,184,159226,1,8
256,304,159654,5,0
144,336,160083,2,0,B|168:264,3,75,8|0|0|0
152,208,160940,2,0,B|112:128,1,75,8|0
176,112,161368,5,0
256,200,161797,2,0,B|256:288,2,75,8|0|0
336,112,162654,1,8
256,24,163083,5,0
336,112,163511,1,8
393,140,163726,2,0,B|360:208,1,75
344,264,164154,2,0,B|368:336,3,75,0|8|0|0
256,288,165226,5,8
256,232,165440,1,0
256,176,165654,1,8
256,56,166083,1,8
256,96,168226,5,0
256,272,168868,2,0,B|256:360,1,75
352,200,169726,1,0
304,160,169940,2,0,B|280:120|248:96,1,75
256,102,170368,2,0,B|224:128|208:160,1,75
160,200,170797,1,0
256,352,171440,1,0
296,312,171654,6,0,B|336:232|288:160,1,150
256,120,172297,1,0
218,168,172511,2,0,B|176:232|216:312,1,150
160,328,173154,2,0,B|96:280,1,75
128,232,173583,2,0,B|112:160,1,75
160,120,174011,1,0
160,120,174226,1,0
256,48,174654,1,0
256,168,175083,5,0
256,48,175726,1,0
256,48,175940,1,0
352,120,176583,1,0
400,158,176797,2,0,B|384:232,1,75
412,283,177226,2,0,B|352:328,1,75
352,328,177654,1,0
256,176,178297,1,0
256,176,178511,6,0,B|192:112|208:40,1,150
256,8,179154,1,0
304,41,179368,2,0,B|320:112|256:176,1,150
304,216,180011,1,0
256,256,180226,2,0,B|256:344,2,75
208,216,180868,1,0
192,160,181083,2,0,B|256:128|256:128|328:160,1,150
336,280,181940,5,0
360,336,182154,2,0,B|416:272|400:160,1,150
312,120,183011,1,0
256,104,183226,1,0
200,120,183440,1,0
108,196,183868,6,0,B|104:272|152:336,1,150
208,232,184726,1,0
256,272,184940,1,0
304,232,185154,1,0
256,120,185583,6,0,B|256:16,4,75
208,152,186654,2,0,B|160:248,1,75
232,248,187083,5,0
280,248,187297,1,0
337,219,187511,2,0,B|304:152,1,75
256,120,187940,1,0
256,120,188154,1,8
256,120,188368,2,0,B|256:32,2,75,8|8|4
200,144,189011,6,0,B|144:208|144:208|160:288,1,150
256,336,189868,2,0,B|256:248,2,75
355,271,190726,6,0,B|368:208|368:208|312:144,1,150
256,40,191583,2,0,B|256:128,2,75
320,40,192226,5,0
360,80,192440,2,0,B|440:80,2,75
344,136,193083,2,0,B|320:176|272:176,1,75
232,176,193511,2,0,B|195:176|171:136,1,75
152,80,193940,6,0,B|64:80,2,75
192,40,194583,1,0
256,40,194797,2,0,B|256:120,2,75
256,160,195654,6,0,B|256:320,1,150,4|8
136,320,196511,1,0
136,320,196940,1,8
88,208,197368,6,0,B|120:136|200:112,1,150,0|8
256,216,198226,1,0
256,216,198654,1,8
314,112,199083,6,0,B|392:136|424:208,1,150,0|8
312,248,199940,2,0,B|344:328,2,75,0|0|8
256,232,200583,1,0
200,248,200797,5,0
200,248,201226,1,8
224,192,201440,1,0
256,144,201654,1,0
256,144,202083,1,8
160,72,202511,5,0
160,72,202940,2,0,B|96:136|128:216,1,150,8|0
200,304,203797,1,8
312,304,204226,5,0
386,208,204654,2,0,B|416:136|352:72,1,150,8|0
352,72,205511,1,8
256,144,205940,5,0
256,144,206368,1,8
256,144,206797,2,0,B|256:56,2,75,0|0|8
256,208,207440,2,0,B|256:296,1,75
256,283,208083,5,8
256,283,208297,1,0
256,283,208511,1,0
256,160,208940,1,8
336,72,209368,6,0,B|384:144|360:224,2,150,4|8|0
256,160,210654,1,8
176,72,211083,6,0,B|128:144|152:224,2,150,0|8|0
256,160,212368,1,8
184,256,212797,6,0,B|256:288|256:288|336:248,1,150,0|8
344,136,213654,1,0
296,96,213868,1,0
256,48,214083,1,8
216,96,214297,1,0
168,136,214511,5,0
256,216,214940,1,8
256,272,215154,2,0,B|256:368,1,75
256,347,215797,1,8
152,280,216226,5,0
152,280,216654,1,8
40,224,217083,2,0,B|112:168|112:168|200:168,1,150,0|8
256,248,217940,5,0
320,352,218368,1,8
192,352,218797,1,0
256,248,219226,1,8
341,168,219654,6,0,B|400:168|400:168|472:224,1,150,0|8
360,264,220511,2,0,B|280:296,1,75
256,240,220940,1,8
221,291,221154,2,0,B|152:264,1,75
152,264,221797,5,8
168,208,222011,1,0
216,176,222226,2,8,B|256:112|256:24,1,150
256,32,224797,5,2
256,32,225226,1,0
304,72,225440,1,0
352,104,225654,2,2,B|392:176,1,75
360,224,226083,2,0,B|376:304,1,75,0|2
336,344,226511,5,2
256,256,226940,2,2,B|256:168,2,75,2|0|2
256,256,227797,1,2
176,344,228226,5,2
176,344,228654,1,2
137,297,228868,2,2,B|152:224,1,75
123,169,229297,2,0,B|160:104,1,75
208,72,229726,1,2
256,32,229940,5,2
256,152,230368,2,0,B|256:248,1,75
256,227,230797,1,2
256,344,231226,1,2
256,227,231654,5,2
368,192,232083,2,0,B|448:192,2,75,0|2|2
336,144,232726,2,2,B|384:80,2,75,2|2|0
280,112,233368,5,2
216,216,233797,1,2
256,264,234011,1,0
296,216,234226,1,2
296,216,234654,1,2
232,112,235083,5,2
232,112,235511,1,2
176,144,235726,2,0,B|128:80,2,75
144,192,236368,2,2,B|64:192,2,75
208,296,237226,5,0
256,256,237440,1,0
304,296,237654,1,2
256,184,238083,1,2
256,64,238511,5,2
152,128,238940,2,0,B|104:200|128:280,2,150,0|2|2
152,128,240226,5,0
256,192,240654,2,2,B|256:96,2,75
256,312,241511,1,0
256,192,241940,5,2
360,128,242368,2,2,B|408:200|384:280,2,150
360,128,243654,5,0
256,72,244083,1,0
256,16,244297,1,0
256,72,244511,1,2
256,192,244940,1,2
256,312,245368,5,2
136,312,245797,2,2,B|64:272|56:184,1,150
56,191,246654,2,0,B|72:104|136:72,1,150
152,192,247511,5,2
168,136,247726,1,0
200,88,247940,1,2
256,192,248368,1,0
256,312,248797,5,0
376,312,249226,2,2,B|448:272|456:184,1,150
455,191,250083,2,0,B|440:104|376:72,1,150
360,192,250940,5,2
344,136,251154,1,0
312,88,251368,1,2
256,192,251797,1,0
256,72,252226,5,4
152,128,252654,2,0,B|104:192|104:192|96:280,1,150,8|0
216,224,253511,2,0,B|208:320|208:320|284:359,1,150,8|0
256,344,254368,2,0,B|304:320|304:320|296:224,1,150,8|0
414,261,255226,2,0,B|408:192|408:192|360:128,1,150,8|0
256,72,256083,5,8
288,120,256297,1,0
296,176,256511,1,0
256,224,256726,1,0
216,176,256940,1,8
224,120,257154,1,0
256,72,257368,5,0
256,72,257797,2,0,B|256:-16,2,75,8|0|0
256,192,258654,1,8
256,312,259083,5,0
136,312,259511,2,0,B|72:256|96:152,1,150,8|0
208,208,260368,2,0,B|152:152|176:64,1,150,8|0
256,152,261226,1,8
337,69,261654,2,0,B|360:152|296:216,1,150,0|8
420,175,262511,6,0,B|432:256|376:312,1,150,0|8
312,312,263154,1,0
256,288,263368,1,0
256,224,263583,1,0
256,168,263797,2,0,B|256:88,2,75,8|0|0
256,288,264654,5,8
200,312,264868,1,0
200,312,265083,1,0
200,192,265511,1,8
312,192,265940,5,4
432,216,266368,2,8,B|432:120|432:120|384:80,2,150,8|0|8
312,240,267654,1,0
200,240,268083,1,8
80,216,268511,2,0,B|80:120|80:120|128:80,2,150,0|8|0
184,280,269797,6,0,B|200:208,1,75,8|0
256,184,270226,2,0,B|256:96,2,75,0|0|8
311,206,270868,2,0,B|328:280,1,75
256,184,271511,5,8
256,184,271726,1,0
256,184,271940,1,0
256,64,272368,1,8
256,184,272797,5,0
144,216,273226,2,0,B|192:288|192:288|192:360,1,150,8|0
256,248,274083,1,8
256,128,274511,1,0
368,168,274940,2,0,B|320:96|320:96|320:24,2,150,8|0|8
256,208,276226,5,0
224,96,276654,2,0,B|192:24,2,75,8|0|0
288,96,277297,2,0,B|320:24,2,75,0|8|0
256,144,277940,5,0
208,256,278368,1,8
256,288,278583,1,0
304,256,278797,1,8
256,144,279226,1,8
200,64,281368,6,0,B|128:112|128:112|112:176,1,150,0|8
200,256,282226,2,0,B|120:304|120:304|56:304,2,150,0|8|0
312,256,283511,2,0,B|392:304|392:304|456:304,2,150,8|0|8
399,173,284797,6,0,B|384:112|384:112|312:64,1,150,0|8
256,168,285654,1,0
256,48,286083,1,8
256,168,286511,5,0
200,63,286940,2,0,B|128:112|128:112|112:176,1,150,8|0
112,173,287797,1,8
232,144,288226,6,0,B|160:208|192:296,1,150,0|8
256,376,289083,1,0
256,256,289511,1,8
256,256,289940,5,0
256,376,290368,1,8
325,278,290797,2,0,B|344:208|272:136,1,150,0|8
392,192,291654,5,0
408,72,292083,1,8
296,32,292511,1,0
256,144,292940,1,8
256,144,293368,5,0
216,32,293797,1,8
104,72,294226,1,0
120,192,294654,1,8
200,280,295083,5,4
312,280,295511,1,8
256,176,295940,2,0,B|256:24,2,150,0|8|0
184,272,297226,5,8
168,152,297654,1,0
256,232,298083,1,8
256,232,298511,5,0
344,152,298940,1,8
328,272,299368,1,0
256,176,299797,2,0,B|256:24,2,150,8|0|8
256,296,301083,5,0
256,296,301511,1,8
160,224,301940,6,0,B|88:184|88:184|88:88,2,150,0|8|0
256,152,303226,1,8
352,224,303654,6,0,B|424:184|424:184|424:88,2,150,0|8|0
256,152,304940,1,8
256,192,305368,12,0,308797
