osu file format v9

[General]
AudioFilename: Best Italo Dance - Adesso Balla! (Butterfly Remix).mp3
AudioLeadIn: 1000
PreviewTime: 63920
Countdown: 0
SampleSet: Soft
StackLeniency: 0.4
Mode: 0
LetterboxInBreaks: 1

[Editor]
DistanceSpacing: 0.7
BeatDivisor: 4
GridSize: 8

[Metadata]
Title:Adesso Balla! (Butterfly Remix)
Artist:Daniele Meo
Creator:Anto
Version:Insane
Source:
Tags:Italo Dance Italian Techno

[Difficulty]
HPDrainRate:7
CircleSize:5
OverallDifficulty:8
ApproachRate:8
SliderMultiplier:2.6
SliderTickRate:2

[Events]
//Background and Video events
0,0,"Balla.jpg"
//Break Periods
//Storyboard Layer 0 (Background)
//Storyboard Layer 1 (Fail)
//Storyboard Layer 2 (Pass)
//Storyboard Layer 3 (Foreground)
//Storyboard Sound Samples
//Background Colour Transformations
3,100,163,162,255

[TimingPoints]
1746,388.60103626943,4,2,0,100,1,0
63920,-100,4,2,0,100,0,1
88825,-100,4,2,0,100,0,0

[Colours]
Combo1 : 0,128,0
Combo2 : 255,255,255
Combo3 : 175,221,254
SliderBorder : 0,0,0

[HitObjects]
256,96,1745,2,2,B|192:40|112:112,2,130
256,184,2328,2,0,B|256:328,2,130
344,184,2911,1,2
432,184,3106,1,8
440,272,3300,6,0,B|440:368|256:368|256:256,1,260
256,176,3883,2,2,B|128:176,1,130
256,80,4271,1,0
304,80,4369,1,0
352,80,4466,1,0
440,80,4660,1,4
440,168,4854,6,0,B|464:328|312:368,1,260
288,280,5437,2,8,B|224:160,1,130
200,248,5826,2,0,B|144:304|80:240,1,130
56,160,6214,1,4
96,80,6409,6,0,B|224:0|376:104,1,260
416,136,6992,1,0
464,216,7186,1,0
496,304,7380,1,2
480,344,7477,1,2
440,360,7575,1,2
392,352,7672,1,2
360,320,7769,1,2
328,280,7866,1,2
304,248,7963,6,0,B|216:152,2,130,0|0|4
240,312,8546,2,2,B|112:368,1,130,0|2
128,272,8935,2,2,B|0:328,1,130,0|2
128,272,9323,1,0
128,184,9518,5,0
72,112,9712,2,0,B|136:64|192:120,1,130
280,120,10100,2,0,B|336:192|272:248,1,130
224,312,10489,5,0
256,344,10586,1,0
296,360,10683,1,0
344,368,10780,1,0
384,352,10878,1,0
424,328,10975,1,0
456,296,11072,6,0,B|520:168|448:40,1,260,0|8
368,88,11655,1,0
336,120,11752,1,0
320,160,11849,1,2
256,224,12043,5,0
256,272,12141,1,0
256,320,12238,1,2
192,160,12432,1,0
176,120,12529,1,0
144,88,12626,1,2
80,152,12821,5,0
80,240,13015,2,0,B|80:368,1,130
152,312,13404,2,2,B|232:208,4,130
336,312,14569,1,8
472,192,14958,5,8
432,216,15055,1,0
392,192,15152,1,2
304,192,15347,1,8
264,168,15444,1,0
224,192,15541,1,0
136,192,15735,6,0,B|48:192,2,65,0|0|0
136,280,16124,1,0
160,320,16221,1,0
200,336,16318,1,0
288,336,16512,6,0,B|360:336,2,65,0|0|0
256,248,16901,1,8
280,208,16998,1,0
256,168,17095,1,8
232,128,17192,1,0
256,88,17290,1,8
256,88,17678,1,2
440,88,18067,5,8
440,88,18164,1,0
440,88,18261,1,0
384,160,18455,2,0,B|312:160,2,65,0|0|0
440,232,18844,5,8
440,232,18941,1,0
440,232,19038,1,0
440,320,19233,2,0,B|512:320,2,65
352,312,19621,1,4
312,296,19718,1,0
280,264,19815,1,0
256,176,20010,5,4
248,128,20107,1,0
224,88,20204,1,4
192,64,20301,1,0
152,48,20398,1,4
152,48,20787,5,8
40,192,21176,1,0
88,272,21370,2,0,B|176:376,1,130,0|8
160,192,21758,1,0
216,264,21953,2,0,B|296:368,1,130,0|0
472,191,22341,5,8
424,112,22536,2,0,B|336:8,1,130
352,192,22924,1,8
296,120,23119,2,0,B|216:16,1,130,8|0
128,16,23507,6,0,B|24:16|24:192|144:192,1,260,0|4
131,191,24090,1,0
131,191,24284,1,0
256,320,24673,1,0
256,192,24867,8,4,26616
304,352,27005,6,0,B|360:232,1,130,2|0
208,352,27393,2,2,B|136:224,1,130,2|0
160,152,27782,1,0
184,64,27976,1,0
256,8,28170,1,0
328,64,28365,5,8
352,152,28559,1,8
256,152,28753,2,8,B|256:288,3,130,8|8|8|8
256,282,29530,1,4
168,280,29725,2,0,B|40:280,2,130
168,192,30308,2,0,B|24:192,1,130,0|2
336,192,30696,6,0,B|472:192,1,130
336,280,31085,2,0,B|480:280,1,130,0|2
256,224,31473,2,0,B|256:352,2,130,0|0|8
176,192,32056,1,8
136,112,32251,1,8
176,32,32445,1,8
256,64,32639,1,4
256,64,32834,1,8
335,62,33028,5,2
335,62,33222,1,0
335,62,33416,1,8
392,128,33611,2,0,B|480:232,2,130,0|0|8
320,184,34194,1,0
232,192,34388,5,0
168,128,34582,2,0,B|104:64|32:144,1,130,0|8
0,192,34971,1,0
48,264,35165,2,0,B|112:320|176:256,1,130
224,200,35554,5,8
256,168,35651,1,0
296,152,35748,1,8
336,168,35845,1,0
368,200,35942,1,8
368,200,36331,1,4
256,344,36720,1,2
72,344,37108,1,2
168,184,37497,5,0
256,184,37691,1,8
256,96,37885,1,8
304,96,37983,1,0
352,96,38080,1,8
512,96,38274,5,8
464,96,38371,1,0
416,96,38468,1,8
384,184,38663,5,10
384,232,38760,1,0
384,280,38857,1,0
384,328,38954,1,0
384,376,39051,1,4
256,248,39440,5,8
168,248,39634,2,0,B|72:248|72:344,1,130
24,240,40023,2,8,B|112:256|120:152,1,130
192,128,40411,1,0
136,56,40606,2,0,B|200:0|256:64,1,130
328,112,40994,1,8
376,192,41189,1,8
352,280,41383,5,2
328,320,41480,1,0
288,344,41577,1,8
248,360,41674,1,2
208,344,41771,1,8
168,320,41869,1,0
144,280,41966,1,2
56,280,42160,5,0
56,192,42354,2,2,B|112:120|168:208,1,130
192,112,42743,2,0,B|256:184|320:88,1,130
344,192,43132,2,2,B|408:112|456:216,1,130
440,288,43520,1,8
360,336,43714,1,8
296,272,43909,5,8
256,352,44103,1,8
216,272,44297,1,8
256,192,44492,1,0
304,184,44589,1,0
336,152,44686,1,0
352,112,44783,1,0
344,64,44880,1,2
312,32,44977,1,0
264,24,45075,1,2
216,32,45172,1,0
176,56,45269,1,4
104,112,45463,6,0,B|104:248,1,130,0|0
168,176,45852,2,0,B|192:304,1,130,8|0
248,232,46240,2,0,B|328:336,1,130
352,248,46629,2,8,B|488:304,1,130
496,208,47018,5,2
424,152,47212,1,2
496,96,47406,1,2
424,40,47600,1,8
384,56,47698,1,0
344,40,47795,1,8
304,56,47892,1,0
264,40,47989,1,8
224,56,48086,1,0
184,40,48183,1,4
96,64,48378,6,0,B|16:192|96:336,1,260
136,240,48961,1,2
184,312,49155,2,0,B|264:192|184:48,1,260
288,56,49738,5,2
376,56,49932,2,2,B|472:56|472:168,1,130
376,328,50321,2,2,B|472:328|472:232,1,130
408,192,50709,5,0
360,192,50806,1,0
312,192,50904,1,2
264,192,51001,1,0
216,192,51098,1,2
128,192,51292,5,4
128,104,51486,2,2,B|24:104|24:280|128:280,1,260
216,280,52069,2,2,B|376:280|376:368|192:360,1,260
128,360,52652,1,4
40,360,52847,1,4
88,280,53041,6,2,B|152:216|80:144,1,130
40,96,53429,2,2,B|112:40|176:120,1,130
248,104,53818,1,0
248,272,54012,1,0
360,192,54207,1,4
360,192,54401,1,4
176,192,54790,6,0,B|40:192,2,130
264,192,55372,1,2
264,104,55567,1,2
360,192,55761,1,0
360,280,55955,1,2
456,192,56150,6,2,B|456:40,1,130
368,56,56538,1,0
312,128,56733,1,0
256,200,56927,1,2
256,288,57121,1,2
200,128,57315,1,2
152,56,57510,1,4
88,120,57704,6,2,B|56:192|96:272,1,130,0|2
424,120,58093,2,2,B|464:192|408:288,1,130,0|2
256,352,58481,1,2
304,272,58676,1,2
256,192,58870,1,4
200,120,59064,5,0
152,120,59161,1,0
120,88,59258,1,0
152,56,59356,1,0
200,56,59453,1,0
288,56,59647,5,4
464,128,59841,2,0,B|464:32|352:32,1,130
376,128,60230,2,0,B|376:256,1,130,0|4
464,264,60619,2,0,B|464:360|344:360,1,130,4|0
296,352,61007,5,2
256,272,61201,1,2
296,192,61396,1,2
256,112,61590,1,2
304,32,61784,1,2
256,112,61979,5,2
200,184,62173,1,2
120,136,62367,1,0
96,96,62464,1,0
64,64,62562,1,8
120,248,62756,5,0
88,280,62853,1,0
56,312,62950,1,8
232,192,63144,5,8
280,192,63242,1,0
328,192,63339,1,8
368,272,63533,5,8
400,240,63630,1,0
408,192,63727,1,0
400,144,63825,1,0
368,112,63922,1,4
368,112,64310,5,2
312,40,64505,2,0,B|256:168,1,130,0|8
312,344,64893,2,0,B|256:208,1,130,0|8
176,192,65282,1,2
144,272,65476,5,4
112,240,65573,1,0
104,192,65670,1,0
112,144,65768,1,0
144,112,65865,1,0
256,192,66059,6,0,B|384:192,1,130,0|2
480,192,66448,1,4
424,120,66642,1,4
424,256,66836,1,4
360,320,67030,5,8
320,344,67128,1,0
272,360,67225,1,0
232,344,67322,1,0
192,320,67419,1,8
272,272,67613,5,8
320,192,67808,1,8
240,144,68002,1,8
184,216,68196,1,8
128,288,68391,1,8
56,232,68585,5,0
56,184,68682,1,0
72,144,68779,1,2
104,112,68876,1,2
144,96,68973,1,2
200,168,69168,5,4
256,96,69362,1,8
296,112,69459,1,0
328,144,69556,1,8
344,184,69654,1,0
344,232,69751,1,8
344,232,69945,5,0
256,232,70139,2,4,B|144:352|32:224,1,260
104,168,70722,2,0,B|160:104|240:184,1,130
248,80,71111,2,0,B|312:144|376:64,1,130,0|4
361,80,71499,1,4
432,136,71694,5,8
456,176,71791,1,0
432,216,71888,1,8
456,256,71985,1,0
432,296,72082,1,8
360,352,72277,5,8
256,232,72471,1,8
152,352,72665,1,8
360,352,72859,1,8
256,232,73054,1,4
256,144,73248,5,2
288,112,73345,1,0
256,80,73442,1,2
288,48,73540,1,0
256,16,73637,1,2
168,16,73831,6,0,B|112:64|112:64|112:128,1,130,0|8
112,352,74220,2,0,B|176:320|176:320|176:240,1,130,0|8
176,261,74608,1,0
240,192,74802,5,0
288,192,74900,1,0
336,192,74997,1,2
384,192,75094,1,2
432,192,75191,1,4
432,192,75385,1,4
464,280,75580,5,0
488,240,75677,1,0
496,192,75774,1,0
488,144,75871,1,0
456,112,75968,1,0
456,112,76163,1,2
384,64,76357,6,4,B|256:0|120:72,1,260
160,152,76940,1,2
256,344,77134,2,4,B|256:208,1,130
352,152,77523,1,2
256,216,77717,1,2
256,128,77911,5,8
288,96,78008,1,0
256,64,78106,1,8
288,32,78203,1,0
328,16,78300,1,8
416,16,78494,6,0,B|512:16|512:136,1,130,0|8
504,192,78883,2,0,B|376:192,1,130,0|8
416,352,79271,2,0,B|512:352|512:248,1,130,0|8
472,248,79563,1,0
440,216,79660,1,2
472,184,79757,1,0
440,152,79854,1,2
368,96,80049,5,2
312,24,80243,1,8
256,96,80437,1,2
192,160,80632,1,8
128,96,80826,1,0
64,160,81020,5,8
40,200,81117,1,0
24,240,81214,1,0
32,280,81312,1,0
64,312,81409,1,4
144,264,81603,5,4
224,312,81797,1,2
264,288,81894,1,0
304,312,81992,1,2
344,288,82089,1,0
384,312,82186,1,2
464,264,82380,5,0
408,192,82575,2,0,B|224:192|408:40|216:40,1,260,0|4
152,40,83157,2,2,B|24:104,2,130
152,128,83740,2,0,B|256:208,1,130,0|4
184,264,84129,5,4
184,312,84226,1,2
216,344,84323,1,2
264,352,84420,1,2
312,352,84518,1,2
376,288,84712,6,0,B|464:192,1,130,0|8
463,192,85100,2,8,B|320:192,2,130
464,104,85683,1,8
416,104,85780,1,0
392,64,85878,1,8
368,104,85975,1,0
320,104,86072,1,4
256,168,86266,6,2,B|256:328,1,130
168,296,86655,2,2,B|104:360|48:280,1,130
112,224,87043,1,0
112,136,87238,5,2
144,104,87335,1,2
176,72,87432,1,2
208,40,87529,1,2
240,8,87626,1,2
256,96,87821,5,8
272,184,88015,1,0
304,152,88112,1,0
336,120,88209,1,0
368,88,88306,1,0
400,56,88404,1,4
