osu file format v9

[General]
AudioFilename: Best Italo Dance - Adesso Balla! (Butterfly Remix).mp3
AudioLeadIn: 1000
PreviewTime: 63920
Countdown: 0
SampleSet: Soft
StackLeniency: 0.4
Mode: 0
LetterboxInBreaks: 1

[Editor]
DistanceSpacing: 0.7
BeatDivisor: 4
GridSize: 8

[Metadata]
Title:Adesso Balla! (Butterfly Remix)
Artist:Daniele Meo
Creator:Anto
Version:Hard
Source:
Tags:Italo Dance Italian Techno

[Difficulty]
HPDrainRate:6
CircleSize:4
OverallDifficulty:7
ApproachRate:7
SliderMultiplier:2.4
SliderTickRate:1

[Events]
//Background and Video events
0,0,"Balla.jpg"
//Break Periods
//Storyboard Layer 0 (Background)
//Storyboard Layer 1 (Fail)
//Storyboard Layer 2 (Pass)
//Storyboard Layer 3 (Foreground)
//Storyboard Sound Samples
//Background Colour Transformations
3,100,163,162,255

[TimingPoints]
1746,388.60103626943,4,2,0,100,1,0
63920,-100,4,2,0,100,0,1
88825,-100,4,2,0,100,0,0

[Colours]
Combo1 : 0,128,0
Combo2 : 33,17,232
Combo3 : 180,180,180
SliderBorder : 0,0,0

[HitObjects]
152,96,1745,2,0,B|256:0|368:96,1,240,0|8
368,96,2523,1,2
128,336,3300,2,0,B|256:352|256:224|392:248,1,240,0|8
344,248,4077,1,2
424,248,4271,2,0,B|512:248,2,60,0|0|2
432,80,4854,6,0,B|336:160|288:-8|160:128,1,240,0|2
40,88,5632,1,0
40,88,6020,1,2
80,304,6409,2,0,B|176:224|224:391|352:255,1,240
472,304,7186,1,2
472,224,7380,1,8
472,224,7477,1,8
472,224,7575,1,8
344,96,7963,6,0,B|344:0|160:0|176:112,1,240,0|2
176,288,8740,2,0,B|176:383|360:384|344:264,1,240,0|2
480,192,9518,2,0,B|344:192,1,120
272,192,9906,1,0
192,192,10100,1,0
112,192,10295,1,0
32,192,10489,2,8,B|32:272,4,60
40,104,11072,6,0,B|40:16|144:16|144:16|144:96|240:96,1,240,0|8
472,104,11849,2,0,B|472:16|368:16|368:16|368:96|272:96,1,240,0|8
256,240,12626,1,0
320,192,12821,1,0
384,248,13015,1,0
448,192,13209,1,0
504,248,13404,2,2,B|504:336|432:352,4,120
504,248,14569,1,0
472,80,14958,6,0,B|392:176,1,120,8|0
312,168,15347,2,0,B|400:64,1,120,8|0
304,80,15735,2,0,B|216:176,1,120,8|0
136,168,16124,2,0,B|232:64,1,120,8|0
136,80,16512,2,0,B|48:168,1,120,8|0
51,164,16901,1,4
48,336,17290,6,0,B|168:232|288:368,1,240,0|8
432,336,18067,2,0,B|432:248|344:248,1,120,8|0
368,168,18455,2,0,B|368:80|264:80,1,120,8|0
216,80,18844,2,0,B|96:80,1,120,8|0
152,144,19233,2,0,B|152:272,1,120,8|0
88,320,19621,2,0,B|208:320,1,120,8|0
208,320,20010,1,4
376,320,20398,6,0,B|464:192|352:72,1,240,0|8
208,96,21176,1,0
120,96,21370,1,0
160,168,21564,1,8
80,168,21758,1,0
80,248,21953,2,0,B|80:336|152:336,1,120
224,336,22341,1,8
224,256,22536,1,0
312,256,22730,1,0
312,256,22924,1,8
312,256,23119,1,8
480,256,23507,6,8,B|512:112|360:24,1,240
256,144,24284,1,2
256,224,24479,2,8,B|256:352,2,120
168,224,25062,1,0
168,144,25256,1,0
80,144,25450,2,0,B|72:224|16:248,1,120
24,328,25839,2,8,B|-40:328,4,60
112,328,26422,1,2
192,328,26616,6,0,B|448:328,1,240,0|8
432,240,27199,1,0
368,184,27393,2,0,B|368:40,2,120,8|0|8
304,240,27976,2,0,B|216:240|216:136,1,120,0|8
224,88,28365,2,0,B|224:0|128:0,1,120,0|8
72,0,28753,2,0,B|-16:0|-16:128,1,120,0|8
48,136,29142,2,0,B|176:136,1,120,0|8
168,136,29530,1,0
168,216,29725,6,0,B|72:216|72:384|184:384,1,240,8|8
240,344,30308,2,0,B|328:256,1,120,0|8
384,200,30696,2,0,B|488:280,2,120,0|8|0
320,144,31279,1,8
320,56,31473,1,0
248,96,31668,2,0,B|160:96|160:0,2,120,8|0|8
248,96,32251,2,0,B|248:184|144:184,1,120,0|8
179,180,32639,2,0,B|88:184|88:280,3,120,0|8|0|8
136,312,33416,5,0
216,344,33611,1,8
256,272,33805,1,0
296,344,33999,1,8
360,288,34194,2,0,B|456:208,1,120,0|8
368,192,34582,2,0,B|248:192,1,120,0|8
256,112,34971,1,0
176,144,35165,1,8
96,176,35359,1,0
96,264,35554,1,8
168,304,35748,1,0
248,336,35942,6,0,B|512:336,1,240,0|8
392,192,36720,1,2
392,192,37108,1,2
256,192,37497,12,0,38663
248,344,39051,6,0,B|328:216|224:88,1,240,0|8
160,120,39634,1,2
80,120,39828,1,8
72,368,40411,6,0,B|72:224,1,120,0|8
152,272,40800,1,2
216,328,40994,1,8
296,296,41189,1,2
376,304,41383,1,8
384,48,41966,5,8
384,48,42160,2,0,B|384:144|192:144|224:24,1,240,8|0
128,336,42743,1,8
128,336,42937,2,0,B|128:239|320:240|288:360,1,240,8|0
376,336,43520,5,8
376,336,43714,2,8,B|464:256,1,120
408,192,44103,1,8
464,128,44297,1,8
408,64,44492,1,8
256,0,44880,2,0,B|344:112|240:240,1,240,0|8
0,232,45852,6,0,B|136:232,1,120,0|8
120,312,46240,1,0
120,312,46435,2,0,B|248:312,1,120,0|8
320,312,46823,2,0,B|320:224|408:224,1,120,8|0
385,225,47212,1,2
385,225,47406,1,2
385,225,47600,1,2
256,8,48183,5,8
256,96,48378,2,8,B|256:192|160:192,2,120
256,8,48961,1,8
256,96,49155,2,8,B|256:184|336:184,2,120
344,96,49738,1,8
424,96,49932,1,8
384,168,50126,2,8,B|384:288,2,120
304,200,50709,2,0,B|224:328|72:264,1,240,0|8
40,112,51486,5,0
40,112,51681,1,2
192,40,52069,1,2
360,72,52458,1,2
360,72,52652,1,2
360,72,52847,1,2
440,216,53235,5,2
304,320,53624,1,2
136,312,54012,1,2
136,312,54207,1,2
136,312,54401,1,2
16,192,54790,6,0,B|144:192,1,120,2|0
136,104,55178,2,0,B|232:24,1,120,2|0
240,112,55567,1,2
296,176,55761,1,0
216,200,55955,2,0,B|280:320,1,120,2|0
344,352,56344,1,2
480,200,56538,2,0,B|416:304,1,120
417,302,56927,1,0
417,302,57121,1,8
417,302,57315,1,8
256,104,57898,5,0
256,272,58287,1,2
112,192,58676,1,8
32,192,58870,1,8
112,192,59064,1,8
256,104,59453,5,0
256,272,59841,1,2
400,192,60230,1,8
480,192,60424,1,8
400,192,60619,1,8
320,192,60813,6,0,B|264:240|304:304,1,120,0|8
216,328,61201,2,0,B|176:264|104:296,1,120,0|8
72,224,61590,2,0,B|136:184|120:120,1,120,0|8
192,88,61979,2,0,B|240:136|304:104,1,120,0|8
384,112,62367,6,0,B|384:32,2,60
384,200,62756,1,0
384,240,62853,1,0
384,280,62950,1,0
304,280,63144,2,0,B|304:360,2,60
304,192,63533,1,0
304,152,63630,1,0
304,112,63727,1,0
256,40,63922,6,0,B|96:40|96:208,1,240,8|8
184,184,64505,1,0
136,256,64699,1,8
216,256,64893,1,0
296,256,65087,1,8
248,328,65282,1,0
328,328,65476,6,0,B|488:328|480:128,1,240,8|8
440,104,66059,1,0
440,104,66253,2,0,B|344:104|344:216,1,120,8|0
349,167,66642,2,0,B|248:168|248:56,1,120,8|0
192,56,67030,6,0,B|40:24|16:192,1,240,8|8
16,256,67613,1,0
80,312,67808,2,0,B|200:312,1,120,8|0
248,240,68196,1,8
200,312,68391,1,0
248,384,68585,6,0,B|408:384|424:216,1,240,8|8
360,192,69168,1,0
424,136,69362,2,0,B|360:56|232:168|288:240,1,240,8|8
160,344,70139,6,0,B|8:344|8:144,1,240,8|8
96,184,70722,1,0
96,104,70916,2,0,B|96:8|192:8,1,120,8|0
156,12,71305,2,0,B|176:104|256:72,1,120,8|0
320,56,71694,6,0,B|480:40|496:184,1,240,8|8
464,256,72277,1,0
400,208,72471,2,0,B|352:160|288:192,2,120,8|0|8
464,256,73054,1,0
408,320,73248,6,0,B|288:376|192:264,1,240,8|8
240,200,73831,1,0
288,128,74025,2,0,B|256:64|184:72,1,120,8|0
191,71,74414,2,0,B|160:160|72:144,1,120,8|0
106,146,74802,2,0,B|16:264|104:368,1,240,8|0
144,296,75385,1,0
208,240,75580,2,0,B|296:360|432:328,1,240,8|8
464,168,76357,6,0,B|464:16|304:16,1,240,8|8
320,104,76940,1,0
320,184,77134,2,0,B|320:312,2,120,8|0|8
232,184,77717,1,0
232,104,77911,6,0,B|136:104|136:272|240:272,1,240,8|8
312,280,78494,2,0,B|352:280|352:376|304:376,2,120,0|8|0
312,280,79077,2,0,B|312:192|408:184,1,120,8|0
456,192,79466,6,0,B|440:56|296:32,1,240,8|8
256,104,80049,1,0
208,168,80243,2,0,B|184:248|104:232,1,120,8|0
121,234,80632,2,0,B|48:272|72:344,1,120,8|0
136,376,81020,6,0,B|184:304|256:384|256:384|320:304,1,240,8|8
368,240,81603,1,0
424,176,81797,1,8
368,240,81992,2,0,B|240:184,1,120,0|8
280,112,82380,1,0
256,32,82575,6,0,B|96:48|80:208,1,240,8|8
88,256,83157,2,0,B|232:256,2,120,0|8|0
136,328,83740,2,0,B|272:328,1,120,8|0
344,328,84129,2,0,B|496:328|496:136,1,240,8|8
440,112,84712,2,0,B|400:64|320:64,1,120,0|8
333,64,85100,2,0,B|328:152|256:176,1,120,0|8
208,120,85489,1,0
168,48,85683,6,0,B|48:120|64:264,1,240,8|8
144,256,86266,2,0,B|240:256|240:376,1,120,0|8
320,320,86655,2,0,B|272:192,2,120,0|8|0
408,312,87238,2,0,B|472:192|400:64,1,240,8|8
360,144,87821,1,0
312,80,88015,2,0,B|248:192|320:320,1,240,8|8
