osu file format v14

[General]
AudioFilename: Daniel Powter - Bad Day .mp3
AudioLeadIn: 0
PreviewTime: 112855
Countdown: 1
SampleSet: Soft
StackLeniency: 0.7
Mode: 0
LetterboxInBreaks: 1
WidescreenStoryboard: 0

[Editor]
DistanceSpacing: 1.5
BeatDivisor: 4
GridSize: 16
TimelineZoom: 1.3

[Metadata]
Title:Bad Day
TitleUnicode:Bad Day
Artist:Daniel Powter
ArtistUnicode:Daniel Powter
Creator:Dolot
Version:Hard
Source:
Tags:daniel powter bad day
BeatmapID:746679
BeatmapSetID:337493

[Difficulty]
HPDrainRate:5
CircleSize:4
OverallDifficulty:7
ApproachRate:7
SliderMultiplier:1.3
SliderTickRate:1

[Events]
//Background and Video events
0,0,"hardwp2.jpg",0,0
//Break Periods
2,86283,99097
2,158283,160812
//Storyboard Layer 0 (Background)
//Storyboard Layer 1 (Fail)
//Storyboard Layer 2 (Pass)
//Storyboard Layer 3 (Foreground)
//Storyboard Sound Samples

[TimingPoints]
570,857.142857142857,4,2,0,30,1,0
34855,428.571428571429,4,2,0,30,1,0
60569,-100,4,2,0,5,0,0
62283,-100,4,2,0,60,0,1
86283,-100,4,2,0,30,0,0
112855,-100,4,2,0,5,0,0
113712,-100,4,2,0,60,0,1
137712,-100,4,2,0,30,0,0
161712,857.142857142857,4,2,0,30,1,0
171997,-200,4,2,0,5,0,0
175426,428.571428571429,4,2,0,30,1,0
175426,-100,4,2,0,60,0,1
201140,-100,4,2,0,30,0,0

[Colours]
Combo1 : 94,243,255
Combo2 : 255,255,255
Combo3 : 245,200,137
Combo4 : 213,170,255

[HitObjects]
112,144,570,6,0,P|176:112|240:128,1,130,2|2,0:0|0:0,0:0:0:0:
176,192,2070,2,0,P|224:208|288:176,1,97.5,2|2,0:0|0:0,0:0:0:0:
304,128,3355,2,0,P|336:176|320:240,1,97.5,2|2,0:0|0:0,0:0:0:0:
224,272,4855,1,2,0:0:0:0:
128,320,5498,2,0,B|128:304|96:304|80:224,1,97.5,2|2,0:0|0:0,0:0:0:0:
96,192,6784,1,2,0:0:0:0:
128,160,7427,1,4,0:0:0:0:
416,64,8284,5,0,0:0:0:0:
352,96,8498,1,0,0:0:0:0:
352,96,8712,1,0,0:0:0:0:
400,144,8927,2,0,P|432:192|432:256,1,97.5
368,208,9784,2,0,P|368:240|416:304,1,97.5
464,304,10641,2,0,P|432:352|384:352,1,97.5
272,336,11712,2,0,B|224:336|224:304|160:304,1,97.5,2|2,0:0|0:0,0:0:0:0:
128,240,12998,2,0,B|80:240|80:208|16:208,2,97.5,2|2|4,0:0|0:0|0:0,0:0:0:0:
224,208,14712,5,0,0:0:0:0:
160,176,14927,1,0,0:0:0:0:
160,176,15141,1,0,0:0:0:0:
160,176,15355,1,0,0:0:0:0:
256,80,15569,1,0,0:0:0:0:
256,80,15784,2,0,B|320:64|320:64|304:96|352:64|384:112,1,130
448,80,17069,2,0,P|464:144|448:192,1,97.5
288,208,18569,2,0,B|256:224|224:144|176:208,4,97.5,2|2|2|2|4,0:0|0:0|0:0|0:0|0:0,0:0:0:0:
48,64,21998,6,0,B|96:112|144:48|144:48|192:112|240:48|240:48|288:112|352:48,1,357.5
400,80,24569,2,0,B|352:128|448:128|400:208,1,130
336,176,25641,1,0,0:0:0:0:
304,240,25855,1,0,0:0:0:0:
368,272,26069,1,0,0:0:0:0:
320,320,26284,2,0,B|256:288|208:352|160:288,1,162.5
224,240,27569,1,0,0:0:0:0:
160,224,27784,2,0,P|80:256|64:288,1,97.5
64,80,28641,5,0,0:0:0:0:
112,128,28855,1,0,0:0:0:0:
112,128,29069,2,0,P|160:112|224:112,2,97.5
112,128,30569,1,0,0:0:0:0:
320,144,30998,1,0,0:0:0:0:
400,160,31212,1,0,0:0:0:0:
416,80,31427,1,0,0:0:0:0:
256,192,31855,12,0,34641,0:0:0:0:
384,80,34855,6,0,P|336:64|240:64,2,130,4|2|8,0:0|0:0|0:0,0:0:0:0:
304,144,35926,1,0,0:0:0:0:
400,176,36140,2,0,L|432:240,1,65
320,240,36569,2,0,B|272:288|272:288|192:304,2,130,0|2|8,0:0|0:0|0:0,0:0:0:0:
144,192,37640,1,0,0:0:0:0:
32,192,37855,1,0,0:0:0:0:
80,288,38069,1,0,0:0:0:0:
144,192,38283,2,0,P|96:128|32:112,2,130,0|2|8,0:0|0:0|0:0,0:0:0:0:
176,96,39355,6,0,L|320:48,1,130
384,96,39997,2,0,L|240:144,1,130,8|0,0:0|0:0,0:0:0:0:
176,80,40640,2,0,L|320:32,1,130
384,80,41283,2,0,L|240:128,1,130,8|4,0:0|0:0,0:0:0:0:
432,176,42140,5,0,0:0:0:0:
352,224,42355,2,0,P|320:240|288:272,1,65,0|8,0:0|0:0,0:0:0:0:
352,224,42783,2,0,P|416:256|416:320,2,130,0|0|2,0:0|0:0|0:0,0:0:0:0:
320,320,43855,1,0,0:0:0:0:
240,272,44069,2,0,P|208:256|176:224,1,65,0|8,0:0|0:0,0:0:0:0:
208,144,44497,1,0,0:0:0:0:
240,272,44712,1,0,0:0:0:0:
80,240,44926,2,0,B|192:176|80:80|240:32,1,260
272,32,45997,2,0,B|352:80|336:224|416:256,3,260,2|2|2|6,0:0|0:0|0:0|0:0,0:0:0:0:
448,128,48997,5,2,0:0:0:0:
288,208,49212,2,0,L|272:272,2,65,2|8|0,0:0|0:0|0:0,0:0:0:0:
192,176,49855,1,0,0:0:0:0:
112,240,50069,2,0,P|80:288|64:368,2,130
48,176,51140,1,8,0:0:0:0:
48,176,51355,1,0,0:0:0:0:
144,160,51569,2,0,L|96:96,1,65
160,32,51997,2,0,P|80:32|32:64,2,130,2|0|8,0:0|0:0|0:0,0:0:0:0:
208,112,53069,5,0,0:0:0:0:
272,48,53283,1,0,0:0:0:0:
272,48,53497,1,0,0:0:0:0:
352,112,53712,2,0,P|384:64|464:32,2,130,2|0|8,0:0|0:0|0:0,0:0:0:0:
464,176,54997,1,0,0:0:0:0:
448,192,55212,1,0,0:0:0:0:
432,208,55426,2,0,B|416:256|480:256|480:336,2,130,2|0|8,0:0|0:0|0:0,0:0:0:0:
352,256,56497,6,0,P|288:224|272:160,1,130
352,176,57140,2,0,B|320:128|256:176|240:96,1,130,2|0,0:0|0:0,0:0:0:0:
320,80,57783,1,0,0:0:0:0:
320,80,57997,2,0,P|256:96|224:176,1,130,8|0,0:0|0:0,0:0:0:0:
240,240,58640,1,2,0:0:0:0:
240,240,58855,1,4,0:0:0:0:
256,192,59069,12,0,60569,0:0:0:0:
384,288,62283,6,0,P|336:304|288:304,1,86.6666666666667,4|0,0:0|0:0,0:0:0:0:
128,288,62712,2,0,P|176:304|224:304,1,86.6666666666667
208,240,63140,2,0,P|256:224|304:224,1,86.6666666666667,2|0,0:0|0:0,0:0:0:0:
336,240,63569,2,0,P|288:224|240:224,1,86.6666666666667
192,112,63997,2,0,P|240:144|256:176,1,86.6666666666667
320,112,64426,2,0,P|272:144|256:176,1,86.6666666666667
80,48,64855,6,0,P|96:112|32:176,2,130,2|0|0,0:0|0:0|0:0,0:0:0:0:
192,32,65997,1,0,0:0:0:0:
192,32,66140,1,0,0:0:0:0:
320,32,66426,1,0,0:0:0:0:
320,32,66569,1,2,0:0:0:0:
432,48,66855,1,0,0:0:0:0:
432,48,66997,2,0,P|416:112|480:176,2,130
320,112,67997,1,0,0:0:0:0:
208,144,68140,1,0,0:0:0:0:
208,144,68283,6,0,L|208:240,1,86.6666666666667,2|0,0:0|0:0,0:0:0:0:
144,288,68712,2,0,P|208:304|288:272,2,130
320,336,69712,2,0,L|384:304,1,43.3333333333333
336,240,69997,2,0,P|400:224|480:256,2,130,2|0|0,0:0|0:0|0:0,0:0:0:0:
288,160,70997,1,0,0:0:0:0:
384,128,71140,2,0,L|352:96,1,43.3333333333333
304,32,71426,1,0,0:0:0:0:
192,48,71569,2,0,L|240:80,1,43.3333333333333,0|2,0:0|0:0,0:0:0:0:
192,48,71997,5,0,0:0:0:0:
128,48,72140,2,0,B|80:64|112:128|48:144,2,130
160,112,73140,1,0,0:0:0:0:
208,160,73283,1,0,0:0:0:0:
144,176,73426,1,2,0:0:0:0:
32,256,73712,1,0,0:0:0:0:
80,304,73855,2,0,L|144:272,1,43.3333333333333
176,320,74140,1,0,0:0:0:0:
192,256,74283,2,0,P|256:272|320:320,2,130,0|0|6,0:0|0:0|0:0,0:0:0:0:
224,192,75283,5,0,0:0:0:0:
288,208,75426,1,0,0:0:0:0:
224,192,75569,2,0,L|256:128,1,43.3333333333333
304,144,75855,1,0,0:0:0:0:
352,192,75997,2,0,P|432:160|432:96,2,130,0|0|6,0:0|0:0|0:0,0:0:0:0:
368,128,76997,2,0,L|352:80,1,43.3333333333333
288,80,77283,2,0,L|240:32,1,43.3333333333333
192,32,77569,1,0,0:0:0:0:
112,32,77712,2,0,P|80:80|16:48,2,130,0|0|6,0:0|0:0|0:0,0:0:0:0:
144,128,78855,5,0,0:0:0:0:
144,128,78997,1,0,0:0:0:0:
48,176,79283,1,0,0:0:0:0:
48,176,79426,2,0,L|48:336,2,130,0|0|6,0:0|0:0|0:0,0:0:0:0:
144,240,80569,1,0,0:0:0:0:
144,240,80712,2,0,P|224:256|240:304,2,130
128,176,81712,5,0,0:0:0:0:
192,160,81855,2,0,L|256:144,1,43.3333333333333,0|6,0:0|0:0,0:0:0:0:
320,208,82283,1,0,0:0:0:0:
384,208,82426,1,0,0:0:0:0:
432,160,82569,1,0,0:0:0:0:
432,96,82712,1,2,0:0:0:0:
432,96,82855,1,2,0:0:0:0:
256,192,82997,12,2,84569,0:0:0:0:
272,96,99997,6,0,P|352:80|432:112,2,130,4|0|8,0:0|0:0|0:0,0:0:0:0:
192,160,101069,1,0,0:0:0:0:
304,192,101283,1,0,0:0:0:0:
224,256,101497,2,0,B|160:256|144:320|80:288,2,130,0|2|0,0:0|0:0|0:0,0:0:0:0:
192,160,102569,1,8,0:0:0:0:
96,80,102997,2,0,P|64:48|48:16,2,65
192,32,103855,5,0,0:0:0:0:
288,32,104069,1,2,0:0:0:0:
368,96,104283,1,8,0:0:0:0:
288,32,104497,1,0,0:0:0:0:
272,128,104712,1,0,0:0:0:0:
352,192,104926,2,0,P|384:208|448:304,1,130,0|2,0:0|0:0,0:0:0:0:
352,304,105569,1,0,0:0:0:0:
256,320,105783,2,0,P|224:272|160:240,1,130,0|2,0:0|0:0,0:0:0:0:
144,336,106426,1,0,0:0:0:0:
144,336,106640,1,0,0:0:0:0:
64,288,106855,2,0,P|48:224|48:160,2,130,0|2|8,0:0|0:0|0:0,0:0:0:0:
80,48,107926,6,0,L|240:64,1,130,2|0,0:0|0:0,0:0:0:0:
304,64,108569,2,0,L|352:32,2,32.5,2|0|0,0:0|0:0|0:0,0:0:0:0:
400,96,108997,2,0,P|352:112|288:176,1,130,0|8,0:0|0:0,0:0:0:0:
294,165,109533,1,2,0:0:0:0:
294,165,109640,1,0,0:0:0:0:
400,240,109855,2,0,L|432:272,1,32.5
304,256,110069,2,0,L|272:288,1,32.5
368,336,110283,1,0,0:0:0:0:
256,192,110497,12,8,111997,0:0:0:0:
128,288,112855,5,0,0:0:0:0:
128,288,113712,6,0,P|176:304|224:304,1,86.6666666666667,4|0,0:0|0:0,0:0:0:0:
384,288,114141,2,0,P|336:304|288:304,1,86.6666666666667
304,240,114569,2,0,P|256:224|208:224,1,86.6666666666667,2|0,0:0|0:0,0:0:0:0:
176,240,114998,2,0,P|224:224|272:224,1,86.6666666666667
320,112,115426,2,0,P|272:144|256:176,1,86.6666666666667
192,112,115855,2,0,P|240:144|256:176,1,86.6666666666667
432,48,116284,6,0,P|416:112|480:176,2,130,2|0|0,0:0|0:0|0:0,0:0:0:0:
320,32,117426,1,0,0:0:0:0:
320,32,117569,1,0,0:0:0:0:
192,32,117855,1,0,0:0:0:0:
192,32,117998,1,2,0:0:0:0:
80,48,118284,1,0,0:0:0:0:
80,48,118426,2,0,P|96:112|32:176,2,130
192,112,119426,1,0,0:0:0:0:
304,144,119569,1,0,0:0:0:0:
304,144,119712,6,0,L|304:240,1,86.6666666666667,2|0,0:0|0:0,0:0:0:0:
368,288,120141,2,0,P|304:304|224:272,2,130
192,336,121141,2,0,L|128:304,1,43.3333333333333
176,240,121426,2,0,P|112:224|32:256,2,130,2|0|0,0:0|0:0|0:0,0:0:0:0:
224,160,122426,1,0,0:0:0:0:
128,128,122569,2,0,L|160:96,1,43.3333333333333
208,32,122855,1,0,0:0:0:0:
320,48,122998,2,0,L|272:80,1,43.3333333333333,0|2,0:0|0:0,0:0:0:0:
320,48,123426,5,0,0:0:0:0:
384,48,123569,2,0,B|432:64|400:128|464:144,2,130
352,112,124569,1,0,0:0:0:0:
304,160,124712,1,0,0:0:0:0:
368,176,124855,1,2,0:0:0:0:
480,256,125141,1,0,0:0:0:0:
432,304,125284,2,0,L|368:272,1,43.3333333333333
336,320,125569,1,0,0:0:0:0:
320,256,125712,2,0,P|256:272|192:320,2,130,0|0|6,0:0|0:0|0:0,0:0:0:0:
288,192,126712,5,0,0:0:0:0:
224,208,126855,1,0,0:0:0:0:
288,192,126998,2,0,L|256:128,1,43.3333333333333
208,144,127284,1,0,0:0:0:0:
160,192,127426,2,0,P|80:160|80:96,2,130,0|0|6,0:0|0:0|0:0,0:0:0:0:
144,128,128426,2,0,L|160:80,1,43.3333333333333
224,80,128712,2,0,L|272:32,1,43.3333333333333
320,32,128998,1,0,0:0:0:0:
400,32,129141,2,0,P|432:80|496:48,2,130,0|0|6,0:0|0:0|0:0,0:0:0:0:
368,128,130284,5,0,0:0:0:0:
368,128,130426,1,0,0:0:0:0:
464,176,130712,1,0,0:0:0:0:
464,176,130855,2,0,L|464:336,2,130,0|0|6,0:0|0:0|0:0,0:0:0:0:
368,240,131998,1,0,0:0:0:0:
368,240,132141,2,0,P|288:256|272:304,2,130
384,176,133141,5,0,0:0:0:0:
320,160,133284,2,0,L|256:144,1,43.3333333333333,0|6,0:0|0:0,0:0:0:0:
192,208,133712,1,0,0:0:0:0:
128,208,133855,1,0,0:0:0:0:
80,160,133998,1,0,0:0:0:0:
80,96,134141,1,2,0:0:0:0:
80,96,134284,1,2,0:0:0:0:
256,192,134426,12,8,135998,0:0:0:0:
32,48,137712,6,0,B|128:352|272:-32|416:320,1,520
288,304,139640,1,0,0:0:0:0:
368,96,140069,1,0,0:0:0:0:
144,160,140497,1,4,0:0:0:0:
48,48,141140,6,0,P|112:64|160:96,1,86.6666666666667
144,80,141569,2,0,P|192:64|288:48,2,130,2|0|0,0:0|0:0|0:0,0:0:0:0:
176,112,142712,2,0,L|304:160,1,130,2|0,0:0|0:0,0:0:0:0:
320,160,143283,2,0,P|368:96|448:80,2,130,0|8|0,0:0|0:0|0:0,0:0:0:0:
336,176,144283,1,0,0:0:0:0:
336,192,144426,2,0,L|272:224,1,43.3333333333333,0|4,0:0|0:0,0:0:0:0:
320,240,144855,2,0,L|272:304,1,43.3333333333333
256,304,145283,1,0,0:0:0:0:
272,288,145426,2,0,P|320:304|416:272,2,130,0|2|0,0:0|0:0|0:0,0:0:0:0:
256,272,146426,5,0,0:0:0:0:
240,256,146569,1,0,0:0:0:0:
224,240,146712,1,0,0:0:0:0:
304,64,146997,1,0,0:0:0:0:
288,64,147140,1,2,0:0:0:0:
272,64,147283,1,0,0:0:0:0:
256,64,147426,1,0,0:0:0:0:
240,64,147569,1,2,0:0:0:0:
224,64,147712,2,0,L|144:64,1,43.3333333333333
160,80,147997,6,0,P|128:128|112:176,1,86.6666666666667,4|0,0:0|0:0,0:0:0:0:
112,176,148426,2,0,P|128:224|176:256,1,86.6666666666667
144,272,148855,2,0,P|208:272|240:256,1,86.6666666666667,2|0,0:0|0:0,0:0:0:0:
224,240,149283,1,0,0:0:0:0:
240,224,149426,1,0,0:0:0:0:
256,224,149569,1,0,0:0:0:0:
272,240,149712,2,0,P|336:192|384:128,2,130,4|8|0,0:0|0:0|0:0,0:0:0:0:
272,224,150712,6,0,L|288:160,1,43.3333333333333,2|0,0:0|0:0,0:0:0:0:
272,160,150997,2,0,L|288:96,1,43.3333333333333
272,96,151283,1,2,0:0:0:0:
256,80,151426,2,0,P|176:64|112:96,2,130,8|0|2,0:0|0:0|0:0,0:0:0:0:
64,160,152569,1,0,0:0:0:0:
64,176,152712,1,0,0:0:0:0:
64,192,152855,1,0,0:0:0:0:
64,208,152997,2,0,L|64:272,1,43.3333333333333,2|4,0:0|0:0,0:0:0:0:
256,192,153997,12,2,156569,0:0:0:0:
96,128,161712,6,0,L|256:128,1,130,4|8,0:0|0:0,0:0:0:0:
320,128,162997,1,0,0:0:0:0:
320,224,163426,2,0,L|176:224,1,130,0|8,0:0|0:0,0:0:0:0:
96,224,164712,1,0,0:0:0:0:
96,128,165140,2,0,P|144:96|224:80,3,130,0|8|0|8,0:0|0:0|0:0|0:0,0:0:0:0:
304,32,168140,1,0,0:0:0:0:
368,96,168569,2,0,L|400:160,1,65,4|0,0:0|0:0,0:0:0:0:
432,240,169426,5,8,0:0:0:0:
336,224,169854,1,0,0:0:0:0:
320,320,170283,2,0,L|240:352,1,65
176,304,171140,1,8,0:0:0:0:
80,336,171569,1,0,0:0:0:0:
64,224,171997,2,0,B|48:192|64:176|48:160,3,65
384,96,175426,6,0,P|336:80|288:80,1,86.6666666666667,4|0,0:0|0:0,0:0:0:0:
128,96,175855,2,0,P|176:80|224:80,1,86.6666666666667
208,144,176283,2,0,P|256:160|304:160,1,86.6666666666667,2|0,0:0|0:0,0:0:0:0:
336,144,176712,2,0,P|288:160|240:160,1,86.6666666666667
192,272,177140,2,0,P|240:240|256:208,1,86.6666666666667
320,272,177569,2,0,P|272:240|256:208,1,86.6666666666667
80,336,177998,6,0,P|96:272|32:208,2,130,2|0|0,0:0|0:0|0:0,0:0:0:0:
192,352,179140,1,0,0:0:0:0:
192,352,179283,1,0,0:0:0:0:
320,352,179569,1,0,0:0:0:0:
320,352,179712,1,2,0:0:0:0:
432,336,179998,1,0,0:0:0:0:
432,336,180140,2,0,P|416:272|480:208,2,130
320,272,181140,1,0,0:0:0:0:
208,240,181283,1,0,0:0:0:0:
208,240,181426,6,0,L|208:144,1,86.6666666666667,2|0,0:0|0:0,0:0:0:0:
144,96,181855,2,0,P|208:80|288:112,2,130
320,48,182855,2,0,L|384:80,1,43.3333333333333
336,144,183140,2,0,P|400:160|480:128,2,130,2|0|0,0:0|0:0|0:0,0:0:0:0:
288,224,184140,1,0,0:0:0:0:
384,256,184283,2,0,L|352:288,1,43.3333333333333
304,352,184569,1,0,0:0:0:0:
192,336,184712,2,0,L|240:304,1,43.3333333333333,0|2,0:0|0:0,0:0:0:0:
192,336,185140,5,0,0:0:0:0:
128,336,185283,2,0,B|80:320|112:256|48:240,2,130
160,272,186283,1,0,0:0:0:0:
208,224,186426,1,0,0:0:0:0:
144,208,186569,1,2,0:0:0:0:
32,128,186855,1,0,0:0:0:0:
80,80,186998,2,0,L|144:112,1,43.3333333333333
176,64,187283,1,0,0:0:0:0:
192,128,187426,2,0,P|256:112|320:64,2,130,0|0|2,0:0|0:0|0:0,0:0:0:0:
224,192,188426,5,0,0:0:0:0:
288,176,188569,1,0,0:0:0:0:
224,192,188712,2,0,L|256:256,1,43.3333333333333
304,240,188998,1,0,0:0:0:0:
352,192,189140,2,0,P|432:224|432:288,2,130,6|0|0,0:0|0:0|0:0,0:0:0:0:
368,256,190140,2,0,L|352:304,1,43.3333333333333
288,304,190426,2,0,L|240:352,1,43.3333333333333
192,352,190712,1,0,0:0:0:0:
112,352,190855,2,0,P|80:304|16:336,2,130,6|0|0,0:0|0:0|0:0,0:0:0:0:
144,256,191998,5,0,0:0:0:0:
144,256,192140,1,0,0:0:0:0:
48,208,192426,1,0,0:0:0:0:
48,208,192569,2,0,L|48:48,2,130,6|0|0,0:0|0:0|0:0,0:0:0:0:
144,144,193712,1,0,0:0:0:0:
144,144,193855,2,0,P|224:128|240:80,2,130,0|6|0,0:0|0:0|0:0,0:0:0:0:
128,208,194855,5,0,0:0:0:0:
192,224,194998,2,0,L|256:240,1,43.3333333333333
320,176,195426,1,0,0:0:0:0:
384,176,195569,1,0,0:0:0:0:
432,224,195712,1,0,0:0:0:0:
432,288,195855,1,2,0:0:0:0:
432,288,195998,1,2,0:0:0:0:
256,192,196140,12,8,197712,0:0:0:0:
208,112,198354,5,0,0:0:0:0:
208,112,198568,6,0,L|304:144,1,86.6666666666667,2|0,0:0|0:0,0:0:0:0:
224,192,198997,2,0,L|128:160,1,86.6666666666667,2|0,0:0|0:0,0:0:0:0:
288,208,199426,1,4,0:0:0:0:
